  0
SECTION
  2
HEADER
  9
$ACADVER
  1
AC1018
  9
$ACADMAINTVER
 70
     0
  9
$DWGCODEPAGE
  3
ANSI_1252
  9
$INSBASE
 10
0.0
 20
0.0
 30
0.0
  9
$EXTMIN
 10
1547.445136030596
 20
457.0
 30
0.0
  9
$EXTMAX
 10
2459.905463626803
 20
749.2626441233947
 30
0.0
  9
$LIMMIN
 10
0.0
 20
0.0
  9
$LIMMAX
 10
12.0
 20
9.0
  9
$ORTHOMODE
 70
     0
  9
$REGENMODE
 70
     1
  9
$FILLMODE
 70
     1
  9
$QTEXTMODE
 70
     0
  9
$MIRRTEXT
 70
     1
  9
$LTSCALE
 40
1.0
  9
$ATTMODE
 70
     1
  9
$TEXTSIZE
 40
0.2
  9
$TRACEWID
 40
0.05
  9
$TEXTSTYLE
  7
Standard
  9
$CLAYER
  8
Predefinito
  9
$CELTYPE
  6
ByLayer
  9
$CECOLOR
 62
   256
  9
$CELTSCALE
 40
1.0
  9
$DISPSILH
 70
     0
  9
$DIMSCALE
 40
1.0
  9
$DIMASZ
 40
0.18
  9
$DIMEXO
 40
0.0625
  9
$DIMDLI
 40
0.38
  9
$DIMRND
 40
0.0
  9
$DIMDLE
 40
0.0
  9
$DIMEXE
 40
0.18
  9
$DIMTP
 40
0.0
  9
$DIMTM
 40
0.0
  9
$DIMTXT
 40
0.18
  9
$DIMCEN
 40
0.09
  9
$DIMTSZ
 40
0.0
  9
$DIMTOL
 70
     0
  9
$DIMLIM
 70
     0
  9
$DIMTIH
 70
     1
  9
$DIMTOH
 70
     1
  9
$DIMSE1
 70
     0
  9
$DIMSE2
 70
     0
  9
$DIMTAD
 70
     0
  9
$DIMZIN
 70
     0
  9
$DIMBLK
  1

  9
$DIMASO
 70
     1
  9
$DIMSHO
 70
     1
  9
$DIMPOST
  1

  9
$DIMAPOST
  1

  9
$DIMALT
 70
     0
  9
$DIMALTD
 70
     2
  9
$DIMALTF
 40
25.4
  9
$DIMLFAC
 40
1.0
  9
$DIMTOFL
 70
     0
  9
$DIMTVP
 40
0.0
  9
$DIMTIX
 70
     0
  9
$DIMSOXD
 70
     0
  9
$DIMSAH
 70
     0
  9
$DIMBLK1
  1

  9
$DIMBLK2
  1

  9
$DIMSTYLE
  2
Standard
  9
$DIMCLRD
 70
     0
  9
$DIMCLRE
 70
     0
  9
$DIMCLRT
 70
     0
  9
$DIMTFAC
 40
1.0
  9
$DIMGAP
 40
0.09
  9
$DIMJUST
 70
     0
  9
$DIMSD1
 70
     0
  9
$DIMSD2
 70
     0
  9
$DIMTOLJ
 70
     1
  9
$DIMTZIN
 70
     0
  9
$DIMALTZ
 70
     0
  9
$DIMALTTZ
 70
     0
  9
$DIMUPT
 70
     0
  9
$DIMDEC
 70
     4
  9
$DIMTDEC
 70
     4
  9
$DIMALTU
 70
     2
  9
$DIMALTTD
 70
     2
  9
$DIMTXSTY
  7
Standard
  9
$DIMAUNIT
 70
     0
  9
$DIMADEC
 70
     0
  9
$DIMALTRND
 40
0.0
  9
$DIMAZIN
 70
     0
  9
$DIMDSEP
 70
    46
  9
$DIMATFIT
 70
     3
  9
$DIMFRAC
 70
     0
  9
$DIMLDRBLK
  1

  9
$DIMLUNIT
 70
     2
  9
$DIMLWD
 70
    -2
  9
$DIMLWE
 70
    -2
  9
$DIMTMOVE
 70
     2
  9
$LUNITS
 70
     2
  9
$LUPREC
 70
     3
  9
$SKETCHINC
 40
0.1
  9
$FILLETRAD
 40
0.5
  9
$AUNITS
 70
     0
  9
$AUPREC
 70
     0
  9
$MENU
  1
.
  9
$ELEVATION
 40
0.0
  9
$PELEVATION
 40
0.0
  9
$THICKNESS
 40
0.0
  9
$LIMCHECK
 70
     0
  9
$CHAMFERA
 40
0.5
  9
$CHAMFERB
 40
0.5
  9
$CHAMFERC
 40
1.0
  9
$CHAMFERD
 40
0.0
  9
$SKPOLY
 70
     0
  9
$TDCREATE
 40
2457422.488801342
  9
$TDUCREATE
 40
2457422.447134676
  9
$TDUPDATE
 40
2457422.488801354
  9
$TDUUPDATE
 40
2457422.447134688
  9
$TDINDWG
 40
0.0000000116
  9
$TDUSRTIMER
 40
0.0000000116
  9
$USRTIMER
 70
     1
  9
$ANGBASE
 50
0.0
  9
$ANGDIR
 70
     0
  9
$PDMODE
 70
     0
  9
$PDSIZE
 40
0.0
  9
$PLINEWID
 40
0.0
  9
$SPLFRAME
 70
     0
  9
$SPLINETYPE
 70
     6
  9
$SPLINESEGS
 70
     8
  9
$HANDSEED
  5
F0
  9
$SURFTAB1
 70
     6
  9
$SURFTAB2
 70
     6
  9
$SURFTYPE
 70
     6
  9
$SURFU
 70
     6
  9
$SURFV
 70
     6
  9
$UCSBASE
  2

  9
$UCSNAME
  2

  9
$UCSORG
 10
0.0
 20
0.0
 30
0.0
  9
$UCSXDIR
 10
1.0
 20
0.0
 30
0.0
  9
$UCSYDIR
 10
0.0
 20
1.0
 30
0.0
  9
$UCSORTHOREF
  2

  9
$UCSORTHOVIEW
 70
     0
  9
$UCSORGTOP
 10
0.0
 20
0.0
 30
0.0
  9
$UCSORGBOTTOM
 10
0.0
 20
0.0
 30
0.0
  9
$UCSORGLEFT
 10
0.0
 20
0.0
 30
0.0
  9
$UCSORGRIGHT
 10
0.0
 20
0.0
 30
0.0
  9
$UCSORGFRONT
 10
0.0
 20
0.0
 30
0.0
  9
$UCSORGBACK
 10
0.0
 20
0.0
 30
0.0
  9
$PUCSBASE
  2

  9
$PUCSNAME
  2

  9
$PUCSORG
 10
0.0
 20
0.0
 30
0.0
  9
$PUCSXDIR
 10
1.0
 20
0.0
 30
0.0
  9
$PUCSYDIR
 10
0.0
 20
1.0
 30
0.0
  9
$PUCSORTHOREF
  2

  9
$PUCSORTHOVIEW
 70
     0
  9
$PUCSORGTOP
 10
0.0
 20
0.0
 30
0.0
  9
$PUCSORGBOTTOM
 10
0.0
 20
0.0
 30
0.0
  9
$PUCSORGLEFT
 10
0.0
 20
0.0
 30
0.0
  9
$PUCSORGRIGHT
 10
0.0
 20
0.0
 30
0.0
  9
$PUCSORGFRONT
 10
0.0
 20
0.0
 30
0.0
  9
$PUCSORGBACK
 10
0.0
 20
0.0
 30
0.0
  9
$USERI1
 70
     0
  9
$USERI2
 70
     0
  9
$USERI3
 70
     0
  9
$USERI4
 70
     0
  9
$USERI5
 70
     0
  9
$USERR1
 40
0.0
  9
$USERR2
 40
0.0
  9
$USERR3
 40
0.0
  9
$USERR4
 40
0.0
  9
$USERR5
 40
0.0
  9
$WORLDVIEW
 70
     1
  9
$SHADEDGE
 70
     3
  9
$SHADEDIF
 70
    70
  9
$TILEMODE
 70
     1
  9
$MAXACTVP
 70
    64
  9
$PINSBASE
 10
0.0
 20
0.0
 30
0.0
  9
$PLIMCHECK
 70
     0
  9
$PEXTMIN
 10
1.000000000000000E+20
 20
1.000000000000000E+20
 30
1.000000000000000E+20
  9
$PEXTMAX
 10
-1.000000000000000E+20
 20
-1.000000000000000E+20
 30
-1.000000000000000E+20
  9
$PLIMMIN
 10
0.0
 20
0.0
  9
$PLIMMAX
 10
12.0
 20
9.0
  9
$UNITMODE
 70
     0
  9
$VISRETAIN
 70
     1
  9
$PLINEGEN
 70
     0
  9
$PSLTSCALE
 70
     1
  9
$TREEDEPTH
 70
  3020
  9
$CMLSTYLE
  2
Standard
  9
$CMLJUST
 70
     0
  9
$CMLSCALE
 40
1.0
  9
$PROXYGRAPHICS
 70
     1
  9
$MEASUREMENT
 70
     0
  9
$CELWEIGHT
370
    -1
  9
$ENDCAPS
280
     0
  9
$JOINSTYLE
280
     0
  9
$LWDISPLAY
290
     0
  9
$INSUNITS
 70
     4
  9
$HYPERLINKBASE
  1

  9
$STYLESHEET
  1

  9
$XEDIT
290
     1
  9
$CEPSNTYPE
380
     0
  9
$PSTYLEMODE
290
     1
  9
$FINGERPRINTGUID
  2
{B7DC4E7C-ACFA-41F1-9243-92D78C580D26}
  9
$VERSIONGUID
  2
{FAEB1C32-E019-11D5-929B-00C0DF256EC4}
  9
$EXTNAMES
290
     1
  9
$PSVPSCALE
 40
0.0
  9
$OLESTARTUP
290
     0
  9
$SORTENTS
280
   127
  9
$INDEXCTL
280
     0
  9
$HIDETEXT
280
     1
  9
$XCLIPFRAME
290
     0
  9
$HALOGAP
280
     0
  9
$OBSCOLOR
 70
   257
  9
$OBSLTYPE
280
     0
  9
$INTERSECTIONDISPLAY
280
     0
  9
$INTERSECTIONCOLOR
 70
   257
  9
$DIMASSOC
280
     2
  9
$PROJECTNAME
  1

  0
ENDSEC
  0
SECTION
  2
CLASSES
  0
CLASS
  1
ACDBDICTIONARYWDFLT
  2
AcDbDictionaryWithDefault
  3
ObjectDBX Classes
 90
        0
 91
        4
280
     0
281
     0
  0
CLASS
  1
VISUALSTYLE
  2
AcDbVisualStyle
  3
ObjectDBX Classes
 90
     4095
 91
        4
280
     0
281
     0
  0
CLASS
  1
SCALE
  2
AcDbScale
  3
ObjectDBX Classes
 90
     1153
 91
        4
280
     0
281
     0
  0
CLASS
  1
DICTIONARYVAR
  2
AcDbDictionaryVar
  3
ObjectDBX Classes
 90
        0
 91
        4
280
     0
281
     0
  0
ENDSEC
  0
SECTION
  2
TABLES
  0
TABLE
  2
VPORT
  5
8
330
0
100
AcDbSymbolTable
 70
     1
  0
VPORT
  5
29
330
8
100
AcDbSymbolTableRecord
100
AcDbViewportTableRecord
  2
*Active
 70
     0
 10
0.0
 20
0.0
 11
1.0
 21
1.0
 12
2003.675299828699
 22
603.1313220616973
 13
0.0
 23
0.0
 14
0.5
 24
0.5
 15
0.5
 25
0.5
 16
0.0
 26
0.0
 36
1.0
 17
0.0
 27
0.0
 37
0.0
 40
298.1078970058626
 41
3.122055951875129
 42
50.0
 43
0.0
 44
0.0
 50
0.0
 51
0.0
 71
     0
 72
   100
 73
     1
 74
     3
 75
     0
 76
     0
 77
     0
 78
     0
281
     0
 65
     1
110
0.0
120
0.0
130
0.0
111
1.0
121
0.0
131
0.0
112
0.0
122
1.0
132
0.0
 79
     0
146
0.0
  0
ENDTAB
  0
TABLE
  2
LTYPE
  5
5
330
0
100
AcDbSymbolTable
 70
     1
  0
LTYPE
  5
14
330
5
100
AcDbSymbolTableRecord
100
AcDbLinetypeTableRecord
  2
ByBlock
 70
     0
  3

 72
    65
 73
     0
 40
0.0
  0
LTYPE
  5
15
330
5
100
AcDbSymbolTableRecord
100
AcDbLinetypeTableRecord
  2
ByLayer
 70
     0
  3

 72
    65
 73
     0
 40
0.0
  0
LTYPE
  5
16
330
5
100
AcDbSymbolTableRecord
100
AcDbLinetypeTableRecord
  2
Continuous
 70
     0
  3
Solid line
 72
    65
 73
     0
 40
0.0
  0
ENDTAB
  0
TABLE
  2
LAYER
  5
2
330
0
100
AcDbSymbolTable
 70
     4
  0
LAYER
  5
10
330
2
100
AcDbSymbolTableRecord
100
AcDbLayerTableRecord
  2
0
 70
     0
 62
     7
  6
Continuous
370
    -3
390
F
  0
LAYER
  5
3B
330
2
100
AcDbSymbolTableRecord
100
AcDbLayerTableRecord
  2
Predefinito
 70
     0
 62
     7
  6
Continuous
370
    -3
390
F
  0
LAYER
  5
61
330
2
100
AcDbSymbolTableRecord
100
AcDbLayerTableRecord
  2
Defpoints
 70
     0
 62
     7
  6
Continuous
290
     0
370
    -3
390
F
  0
LAYER
  5
88
330
2
100
AcDbSymbolTableRecord
100
AcDbLayerTableRecord
  2
Linee visibili 2D
 70
     0
 62
     7
  6
Continuous
370
    -3
390
F
  0
ENDTAB
  0
TABLE
  2
STYLE
  5
3
330
0
100
AcDbSymbolTable
 70
     2
  0
STYLE
  5
11
330
3
100
AcDbSymbolTableRecord
100
AcDbTextStyleTableRecord
  2
Standard
 70
     0
 40
0.0
 41
1.0
 50
0.0
 71
     0
 42
0.2
  3
txt
  4

  0
STYLE
  5
5F
330
3
100
AcDbSymbolTableRecord
100
AcDbTextStyleTableRecord
  2
Predefinito
 70
     0
 40
0.0
 41
1.0
 50
0.0
 71
     0
 42
0.0
  3

  4

1001
ACAD
1000
Arial
1071
      256
  0
ENDTAB
  0
TABLE
  2
VIEW
  5
6
330
0
100
AcDbSymbolTable
 70
     0
  0
ENDTAB
  0
TABLE
  2
UCS
  5
7
330
0
100
AcDbSymbolTable
 70
     0
  0
ENDTAB
  0
TABLE
  2
APPID
  5
9
330
0
100
AcDbSymbolTable
 70
     1
  0
APPID
  5
12
330
9
100
AcDbSymbolTableRecord
100
AcDbRegAppTableRecord
  2
ACAD
 70
     0
  0
ENDTAB
  0
TABLE
  2
DIMSTYLE
  5
A
330
0
100
AcDbSymbolTable
 70
     2
100
AcDbDimStyleTable
  0
DIMSTYLE
105
27
330
A
100
AcDbSymbolTableRecord
100
AcDbDimStyleTableRecord
  2
Standard
 70
     0
340
11
  0
DIMSTYLE
105
60
102
{ACAD_REACTORS
330
3C
330
6E
330
7B
102
}
330
A
100
AcDbSymbolTableRecord
100
AcDbDimStyleTableRecord
  2
Stile di quota 01
 70
     0
 40
10.0
 41
1.0
 42
0.5
 44
0.5
 73
     0
 77
     1
 78
     1
140
1.0
141
0.5
172
     1
174
     1
179
     2
271
     2
284
     1
340
5F
  0
ENDTAB
  0
TABLE
  2
BLOCK_RECORD
  5
1
330
0
100
AcDbSymbolTable
 70
     4
  0
BLOCK_RECORD
  5
1F
330
1
100
AcDbSymbolTableRecord
100
AcDbBlockTableRecord
  2
*Model_Space
340
22
  0
BLOCK_RECORD
  5
1B
330
1
100
AcDbSymbolTableRecord
100
AcDbBlockTableRecord
  2
*Paper_Space
340
1E
  0
BLOCK_RECORD
  5
23
330
1
100
AcDbSymbolTableRecord
100
AcDbBlockTableRecord
  2
*Paper_Space0
340
26
  0
BLOCK_RECORD
  5
62
330
1
100
AcDbSymbolTableRecord
100
AcDbBlockTableRecord
  2
*D1
340
0
  0
BLOCK_RECORD
  5
6F
330
1
100
AcDbSymbolTableRecord
100
AcDbBlockTableRecord
  2
*D2
340
0
  0
BLOCK_RECORD
  5
7C
330
1
100
AcDbSymbolTableRecord
100
AcDbBlockTableRecord
  2
*D3
340
0
  0
ENDTAB
  0
ENDSEC
  0
SECTION
  2
BLOCKS
  0
BLOCK
  5
20
330
1F
100
AcDbEntity
  8
0
100
AcDbBlockBegin
  2
*Model_Space
 70
     0
 10
0.0
 20
0.0
 30
0.0
  3
*Model_Space
  1

  0
ENDBLK
  5
21
330
1F
100
AcDbEntity
  8
0
100
AcDbBlockEnd
  0
BLOCK
  5
1C
330
1B
100
AcDbEntity
 67
     1
  8
0
100
AcDbBlockBegin
  2
*Paper_Space
 70
     0
 10
0.0
 20
0.0
 30
0.0
  3
*Paper_Space
  1

  0
ENDBLK
  5
1D
330
1B
100
AcDbEntity
 67
     1
  8
0
100
AcDbBlockEnd
  0
BLOCK
  5
24
330
23
100
AcDbEntity
  8
0
100
AcDbBlockBegin
  2
*Paper_Space0
 70
     0
 10
0.0
 20
0.0
 30
0.0
  3
*Paper_Space0
  1

  0
ENDBLK
  5
25
330
23
100
AcDbEntity
  8
0
100
AcDbBlockEnd
  0
BLOCK
  5
6C
330
62
100
AcDbEntity
  8
0
100
AcDbBlockBegin
  2
*D1
 70
     1
 10
0.0
 20
0.0
 30
0.0
  3
*D1
  1

  0
LINE
  5
63
330
62
100
AcDbEntity
  8
Predefinito
 62
     0
370
    -2
100
AcDbLine
 10
1645.903100010726
 20
664.1326441233946
 30
0.0
 11
1645.903100010726
 21
743.1326441233946
 31
0.0
  0
LINE
  5
64
330
62
100
AcDbEntity
  8
Predefinito
 62
     0
370
    -2
100
AcDbLine
 10
2262.002801146462
 20
664.1326441233946
 30
0.0
 11
2262.002801146462
 21
743.1326441233946
 31
0.0
  0
LINE
  5
65
330
62
100
AcDbEntity
  8
Predefinito
 62
     0
370
    -2
100
AcDbLine
 10
1655.903100010726
 20
738.1326441233946
 30
0.0
 11
2252.002801146462
 21
738.1326441233946
 31
0.0
  0
SOLID
  5
66
330
62
100
AcDbEntity
  8
Predefinito
 62
     0
100
AcDbTrace
 10
1655.903100010726
 20
739.7993107900612
 30
0.0
 11
1655.903100010726
 21
736.465977456728
 31
0.0
 12
1645.903100010726
 22
738.1326441233946
 32
0.0
 13
1645.903100010726
 23
738.1326441233946
 33
0.0
  0
SOLID
  5
67
330
62
100
AcDbEntity
  8
Predefinito
 62
     0
100
AcDbTrace
 10
2252.002801146462
 20
736.465977456728
 30
0.0
 11
2252.002801146462
 21
739.7993107900612
 31
0.0
 12
2262.002801146462
 22
738.1326441233946
 32
0.0
 13
2262.002801146462
 23
738.1326441233946
 33
0.0
  0
MTEXT
  5
68
330
62
100
AcDbEntity
  8
Predefinito
 62
     0
100
AcDbMText
 10
1953.952950578594
 20
744.1376441233946
 30
0.0
 40
10.0
 41
0.0
 71
     5
 72
     1
  1
\A1;615
  7
Predefinito
 73
     1
 44
1.0
  0
POINT
  5
69
330
62
100
AcDbEntity
  8
Defpoints
 62
     0
100
AcDbPoint
 10
1645.903100010726
 20
659.1326441233946
 30
0.0
  0
POINT
  5
6A
330
62
100
AcDbEntity
  8
Defpoints
 62
     0
100
AcDbPoint
 10
2262.002801146462
 20
659.1326441233946
 30
0.0
  0
POINT
  5
6B
330
62
100
AcDbEntity
  8
Defpoints
 62
     0
100
AcDbPoint
 10
2262.002801146462
 20
738.1326441233946
 30
0.0
  0
ENDBLK
  5
6D
330
62
100
AcDbEntity
  8
0
100
AcDbBlockEnd
  0
BLOCK
  5
79
330
6F
100
AcDbEntity
  8
0
100
AcDbBlockBegin
  2
*D2
 70
     1
 10
0.0
 20
0.0
 30
0.0
  3
*D2
  1

  0
LINE
  5
70
330
6F
100
AcDbEntity
  8
Predefinito
 62
     0
370
    -2
100
AcDbLine
 10
1727.575136030596
 20
557.000000000001
 30
0.0
 11
1553.575136030596
 21
557.000000000001
 31
0.0
  0
LINE
  5
71
330
6F
100
AcDbEntity
  8
Predefinito
 62
     0
370
    -2
100
AcDbLine
 10
1678.902950578593
 20
457.0
 30
0.0
 11
1553.575136030596
 21
457.0
 31
0.0
  0
LINE
  5
72
330
6F
100
AcDbEntity
  8
Predefinito
 62
     0
370
    -2
100
AcDbLine
 10
1558.575136030596
 20
547.000000000001
 30
0.0
 11
1558.575136030596
 21
467.0
 31
0.0
  0
SOLID
  5
73
330
6F
100
AcDbEntity
  8
Predefinito
 62
     0
100
AcDbTrace
 10
1560.241802697263
 20
547.000000000001
 30
0.0
 11
1556.908469363929
 21
547.000000000001
 31
0.0
 12
1558.575136030596
 22
557.000000000001
 32
0.0
 13
1558.575136030596
 23
557.000000000001
 33
0.0
  0
SOLID
  5
74
330
6F
100
AcDbEntity
  8
Predefinito
 62
     0
100
AcDbTrace
 10
1556.908469363929
 20
467.0
 30
0.0
 11
1560.241802697263
 21
467.0
 31
0.0
 12
1558.575136030596
 22
457.0
 32
0.0
 13
1558.575136030596
 23
457.0
 33
0.0
  0
MTEXT
  5
75
330
6F
100
AcDbEntity
  8
Predefinito
 62
     0
100
AcDbMText
 10
1552.570136030596
 20
507.0000000000005
 30
0.0
 40
10.0
 41
0.0
 71
     5
 72
     1
  1
\A1;100
  7
Predefinito
 11
0.0
 21
1.0
 31
0.0
 73
     1
 44
1.0
  0
POINT
  5
76
330
6F
100
AcDbEntity
  8
Defpoints
 62
     0
100
AcDbPoint
 10
1732.575136030596
 20
557.000000000001
 30
0.0
  0
POINT
  5
77
330
6F
100
AcDbEntity
  8
Defpoints
 62
     0
100
AcDbPoint
 10
1683.902950578593
 20
457.0
 30
0.0
  0
POINT
  5
78
330
6F
100
AcDbEntity
  8
Defpoints
 62
     0
100
AcDbPoint
 10
1558.575136030596
 20
457.0
 30
0.0
  0
ENDBLK
  5
7A
330
6F
100
AcDbEntity
  8
0
100
AcDbBlockEnd
  0
BLOCK
  5
86
330
7C
100
AcDbEntity
  8
0
100
AcDbBlockBegin
  2
*D3
 70
     1
 10
0.0
 20
0.0
 30
0.0
  3
*D3
  1

  0
LINE
  5
7D
330
7C
100
AcDbEntity
  8
Predefinito
 62
     0
370
    -2
100
AcDbLine
 10
1640.903100010726
 20
659.1326441233946
 30
0.0
 11
1553.575136030596
 21
659.1326441233946
 31
0.0
  0
LINE
  5
7E
330
7C
100
AcDbEntity
  8
Predefinito
 62
     0
370
    -2
100
AcDbLine
 10
1640.944456866906
 20
619.3780243480394
 30
0.0
 11
1553.575136030596
 21
619.3780243480394
 31
0.0
  0
LINE
  5
7F
330
7C
100
AcDbEntity
  8
Predefinito
 62
     0
370
    -2
100
AcDbLine
 10
1558.575136030596
 20
649.1326441233946
 30
0.0
 11
1558.575136030596
 21
629.3780243480394
 31
0.0
  0
SOLID
  5
80
330
7C
100
AcDbEntity
  8
Predefinito
 62
     0
100
AcDbTrace
 10
1560.241802697263
 20
649.1326441233946
 30
0.0
 11
1556.908469363929
 21
649.1326441233946
 31
0.0
 12
1558.575136030596
 22
659.1326441233946
 32
0.0
 13
1558.575136030596
 23
659.1326441233946
 33
0.0
  0
SOLID
  5
81
330
7C
100
AcDbEntity
  8
Predefinito
 62
     0
100
AcDbTrace
 10
1556.908469363929
 20
629.3780243480394
 30
0.0
 11
1560.241802697263
 21
629.3780243480394
 31
0.0
 12
1558.575136030596
 22
619.3780243480394
 32
0.0
 13
1558.575136030596
 23
619.3780243480394
 33
0.0
  0
MTEXT
  5
82
330
7C
100
AcDbEntity
  8
Predefinito
 62
     0
100
AcDbMText
 10
1552.570136030596
 20
639.255334235717
 30
0.0
 40
10.0
 41
0.0
 71
     5
 72
     1
  1
\A1;40
  7
Predefinito
 11
0.0
 21
1.0
 31
0.0
 73
     1
 44
1.0
  0
POINT
  5
83
330
7C
100
AcDbEntity
  8
Defpoints
 62
     0
100
AcDbPoint
 10
1645.903100010726
 20
659.1326441233946
 30
0.0
  0
POINT
  5
84
330
7C
100
AcDbEntity
  8
Defpoints
 62
     0
100
AcDbPoint
 10
1645.944456866906
 20
619.3780243480394
 30
0.0
  0
POINT
  5
85
330
7C
100
AcDbEntity
  8
Defpoints
 62
     0
100
AcDbPoint
 10
1558.575136030596
 20
619.3780243480394
 30
0.0
  0
ENDBLK
  5
87
330
7C
100
AcDbEntity
  8
0
100
AcDbBlockEnd
  0
ENDSEC
  0
SECTION
  2
ENTITIES
  0
DIMENSION
  5
3C
330
1F
100
AcDbEntity
  8
Predefinito
100
AcDbDimension
  2
*D1
 10
2262.002801146462
 20
738.1326441233946
 30
0.0
 11
1953.952950578594
 21
744.1376441233946
 31
0.0
 70
    32
  1
615
 71
     5
 42
616.099701135736
  3
Stile di quota 01
100
AcDbAlignedDimension
 13
1645.903100010726
 23
659.1326441233946
 33
0.0
 14
2262.002801146462
 24
659.1326441233946
 34
0.0
100
AcDbRotatedDimension
1001
ACAD
1000
DSTYLE
1002
{
1070
   279
1070
     1
1002
}
  0
DIMENSION
  5
6E
330
1F
100
AcDbEntity
  8
Predefinito
100
AcDbDimension
  2
*D2
 10
1558.575136030596
 20
457.0
 30
0.0
 11
1552.570136030596
 21
507.0000000000005
 31
0.0
 70
    32
  1
100
 71
     5
 42
100.000000000001
  3
Stile di quota 01
100
AcDbAlignedDimension
 13
1732.575136030596
 23
557.000000000001
 33
0.0
 14
1683.902950578593
 24
457.0
 34
0.0
 50
90.0
100
AcDbRotatedDimension
1001
ACAD
1000
DSTYLE
1002
{
1070
   279
1070
     1
1002
}
  0
DIMENSION
  5
7B
330
1F
100
AcDbEntity
  8
Predefinito
100
AcDbDimension
  2
*D3
 10
1558.575136030596
 20
619.3780243480394
 30
0.0
 11
1552.570136030596
 21
639.255334235717
 31
0.0
 70
    32
  1
40
 71
     5
 42
39.7546197753552
  3
Stile di quota 01
100
AcDbAlignedDimension
 13
1645.903100010726
 23
659.1326441233946
 33
0.0
 14
1645.944456866906
 24
619.3780243480394
 34
0.0
 50
90.0
100
AcDbRotatedDimension
1001
ACAD
1000
DSTYLE
1002
{
1070
   279
1070
     1
1002
}
  0
SPLINE
  5
89
330
1F
100
AcDbEntity
  8
Linee visibili 2D
100
AcDbSpline
210
0.0
220
0.0
230
1.0
 70
    24
 71
     2
 72
     6
 73
     3
 74
     0
 42
0.0000000001
 43
0.0000000001
 40
0.0
 40
0.0
 40
0.0
 40
39.75461977535522
 40
39.75461977535522
 40
39.75461977535522
 10
2459.905463626803
 20
619.3780243480394
 30
0.0
 10
2459.905463626803
 20
639.255334235717
 30
0.0
 10
2459.905463626803
 20
659.1326441233946
 30
0.0
  0
SPLINE
  5
8A
330
1F
100
AcDbEntity
  8
Linee visibili 2D
100
AcDbSpline
210
0.0
220
0.0
230
1.0
 70
    24
 71
     2
 72
     6
 73
     3
 74
     0
 42
0.0000000001
 43
0.0000000001
 40
0.0
 40
0.0
 40
0.0
 40
0.1326466848805126
 40
0.1326466848805126
 40
0.1326466848805126
 10
2391.905901152195
 20
659.1326441233946
 30
0.0
 10
2391.905901152195
 20
659.1989674658348
 30
0.0
 10
2391.905901152195
 20
659.2652908082752
 30
0.0
  0
SPLINE
  5
8B
330
1F
100
AcDbEntity
  8
Linee visibili 2D
100
AcDbSpline
210
0.0
220
0.0
230
1.0
 70
    24
 71
     2
 72
     6
 73
     3
 74
     0
 42
0.0000000001
 43
0.0000000001
 40
0.0
 40
0.0
 40
0.0
 40
0.1127335397642639
 40
0.1127335397642639
 40
0.1127335397642639
 10
2391.905901152195
 20
619.2652908082752
 30
0.0
 10
2391.905901152195
 20
619.3216575781573
 30
0.0
 10
2391.905901152195
 20
619.3780243480394
 30
0.0
  0
SPLINE
  5
8C
330
1F
100
AcDbEntity
  8
Linee visibili 2D
100
AcDbSpline
210
0.0
220
0.0
230
1.0
 70
    24
 71
     2
 72
     6
 73
     3
 74
     0
 42
0.0000000001
 43
0.0000000001
 40
0.0
 40
0.0
 40
0.0
 40
40.9237838665681
 40
40.9237838665681
 40
40.9237838665681
 10
2359.905901152195
 20
618.8033988749911
 30
0.0
 10
2359.905901152195
 20
639.2652908082752
 30
0.0
 10
2359.905901152195
 20
659.7271827415592
 30
0.0
  0
SPLINE
  5
8D
330
1F
100
AcDbEntity
  8
Linee visibili 2D
100
AcDbSpline
210
0.0
220
0.0
230
1.0
 70
    24
 71
     2
 72
     6
 73
     3
 74
     0
 42
0.0000000001
 43
0.0000000001
 40
0.0
 40
0.0
 40
0.0
 40
32.00333332885873
 40
32.00333332885873
 40
32.00333332885873
 10
2391.905901152195
 20
619.2652908082752
 30
0.0
 10
2375.905901152195
 20
619.0343448416331
 30
0.0
 10
2359.905901152195
 20
618.8033988749911
 30
0.0
  0
SPLINE
  5
8E
330
1F
100
AcDbEntity
  8
Linee visibili 2D
100
AcDbSpline
210
0.0
220
0.0
230
1.0
 70
    24
 71
     2
 72
     6
 73
     3
 74
     0
 42
0.0000000001
 43
0.0000000001
 40
0.0
 40
0.0
 40
0.0
 40
32.00333332885876
 40
32.00333332885876
 40
32.00333332885876
 10
2391.905901152195
 20
659.2652908082752
 30
0.0
 10
2375.905901152195
 20
659.4962367749172
 30
0.0
 10
2359.905901152195
 20
659.7271827415592
 30
0.0
  0
SPLINE
  5
8F
330
1F
100
AcDbEntity
  8
Linee visibili 2D
100
AcDbSpline
210
0.0
220
0.0
230
1.0
 70
    24
 71
     2
 72
     6
 73
     3
 74
     0
 42
0.0000000001
 43
0.0000000001
 40
0.0
 40
0.0
 40
0.0
 40
67.99954045750806
 40
67.99954045750806
 40
67.99954045750806
 10
2391.905923169295
 20
659.1326441233946
 30
0.0
 10
2425.905693398049
 20
659.1326441233946
 30
0.0
 10
2459.905463626803
 20
659.1326441233946
 30
0.0
  0
SPLINE
  5
90
330
1F
100
AcDbEntity
  8
Linee visibili 2D
100
AcDbSpline
210
0.0
220
0.0
230
1.0
 70
    24
 71
     2
 72
     6
 73
     3
 74
     0
 42
0.0000000001
 43
0.0000000001
 40
0.0
 40
0.0
 40
0.0
 40
67.99954045750806
 40
67.99954045750806
 40
67.99954045750806
 10
2391.905923169295
 20
619.3780243480394
 30
0.0
 10
2425.905693398049
 20
619.3780243480394
 30
0.0
 10
2459.905463626803
 20
619.3780243480394
 30
0.0
  0
SPLINE
  5
91
330
1F
100
AcDbEntity
  8
Linee visibili 2D
100
AcDbSpline
210
0.0
220
0.0
230
1.0
 70
    24
 71
     2
 72
     6
 73
     3
 74
     0
 42
0.0000000001
 43
0.0000000001
 40
0.0
 40
0.0
 40
0.0
 40
0.4999999975055403
 40
0.4999999975055403
 40
0.4999999975055403
 10
2391.905901152196
 20
619.878024345545
 30
0.0
 10
2391.905901152196
 20
619.6280243467922
 30
0.0
 10
2391.905901152196
 20
619.3780243480394
 30
0.0
  0
SPLINE
  5
92
330
1F
100
AcDbEntity
  8
Linee visibili 2D
100
AcDbSpline
210
0.0
220
0.0
230
1.0
 70
    24
 71
     2
 72
     6
 73
     3
 74
     0
 42
0.0000000001
 43
0.0000000001
 40
0.0
 40
0.0
 40
0.0
 40
38.75461978034414
 40
38.75461978034414
 40
38.75461978034414
 10
2391.905901152196
 20
658.6326441258891
 30
0.0
 10
2391.905901152196
 20
639.2553342357171
 30
0.0
 10
2391.905901152196
 20
619.878024345545
 30
0.0
  0
SPLINE
  5
93
330
1F
100
AcDbEntity
  8
Linee visibili 2D
100
AcDbSpline
210
0.0
220
0.0
230
1.0
 70
    24
 71
     2
 72
     6
 73
     3
 74
     0
 42
0.0000000001
 43
0.0000000001
 40
0.0
 40
0.0
 40
0.0
 40
0.4999999975055403
 40
0.4999999975055403
 40
0.4999999975055403
 10
2391.905901152196
 20
658.6326441258891
 30
0.0
 10
2391.905901152196
 20
658.8826441246418
 30
0.0
 10
2391.905901152196
 20
659.1326441233946
 30
0.0
  0
SPLINE
  5
94
330
1F
100
AcDbEntity
  8
Linee visibili 2D
100
AcDbSpline
210
0.0
220
0.0
230
1.0
 70
    24
 71
     2
 72
     6
 73
     3
 74
     0
 42
0.0000000001
 43
0.0000000001
 40
0.0
 40
0.0
 40
0.0
 40
39.75461977535525
 40
39.75461977535525
 40
39.75461977535525
 10
1645.903100010726
 20
619.3780243480394
 30
0.0
 10
1645.903100010726
 20
639.255334235717
 30
0.0
 10
1645.903100010726
 20
659.1326441233946
 30
0.0
  0
SPLINE
  5
95
330
1F
100
AcDbEntity
  8
Linee visibili 2D
100
AcDbSpline
210
0.0
220
0.0
230
1.0
 70
    24
 71
     2
 72
     6
 73
     3
 74
     0
 42
0.0000000001
 43
0.0000000001
 40
0.0
 40
0.0
 40
0.0
 40
39.75461977535522
 40
39.75461977535522
 40
39.75461977535522
 10
2262.002801146462
 20
659.1326441233946
 30
0.0
 10
2262.002801146462
 20
639.255334235717
 30
0.0
 10
2262.002801146462
 20
619.3780243480394
 30
0.0
  0
SPLINE
  5
96
330
1F
100
AcDbEntity
  8
Linee visibili 2D
100
AcDbSpline
210
0.0
220
0.0
230
1.0
 70
    24
 71
     2
 72
     6
 73
     3
 74
     0
 42
0.0000000001
 43
0.0000000001
 40
0.0
 40
0.0
 40
0.0
 40
0.1326466848805126
 40
0.1326466848805126
 40
0.1326466848805126
 10
2195.952950576098
 20
659.1326441233946
 30
0.0
 10
2195.952950576098
 20
659.1989674658348
 30
0.0
 10
2195.952950576098
 20
659.2652908082752
 30
0.0
  0
SPLINE
  5
97
330
1F
100
AcDbEntity
  8
Linee visibili 2D
100
AcDbSpline
210
0.0
220
0.0
230
1.0
 70
    24
 71
     2
 72
     6
 73
     3
 74
     0
 42
0.0000000001
 43
0.0000000001
 40
0.0
 40
0.0
 40
0.0
 40
0.1127335397642639
 40
0.1127335397642639
 40
0.1127335397642639
 10
2195.952950576098
 20
619.2652908082752
 30
0.0
 10
2195.952950576098
 20
619.3216575781573
 30
0.0
 10
2195.952950576098
 20
619.3780243480394
 30
0.0
  0
SPLINE
  5
98
330
1F
100
AcDbEntity
  8
Linee visibili 2D
100
AcDbSpline
210
0.0
220
0.0
230
1.0
 70
    24
 71
     2
 72
     6
 73
     3
 74
     0
 42
0.0000000001
 43
0.0000000001
 40
0.0
 40
0.0
 40
0.0
 40
0.1585501075464686
 40
0.1585501075464686
 40
0.1585501075464686
 10
1732.575136030596
 20
659.7271827415592
 30
0.0
 10
1732.514043303347
 20
659.6766633113563
 30
0.0
 10
1732.452950576098
 20
659.6261438811533
 30
0.0
  0
SPLINE
  5
99
330
1F
100
AcDbEntity
  8
Linee visibili 2D
100
AcDbSpline
210
0.0
220
0.0
230
1.0
 70
    24
 71
     2
 72
     6
 73
     3
 74
     0
 42
0.0000000001
 43
0.0000000001
 40
0.0
 40
0.0
 40
0.0
 40
0.158550107546381
 40
0.158550107546381
 40
0.158550107546381
 10
1732.575136030596
 20
618.8033988749911
 30
0.0
 10
1732.514043303347
 20
618.853918305194
 30
0.0
 10
1732.452950576098
 20
618.904437735397
 30
0.0
  0
SPLINE
  5
9A
330
1F
100
AcDbEntity
  8
Linee visibili 2D
100
AcDbSpline
210
0.0
220
0.0
230
1.0
 70
    12
 71
     3
 72
    10
 73
     6
 74
     0
 42
0.0000000001
 43
0.0000000001
 40
-34.41193196449175
 40
-34.41193196449175
 40
-34.41193196449175
 40
-34.41193196449175
 40
-17.73237564387168
 40
-17.73237564387168
 40
-8.865933788074337
 40
-8.865933788074337
 40
-8.865933788074337
 40
-8.865933788074337
 10
1732.452950576098
 20
659.6261438811533
 30
0.0
 41
1.0
 10
1732.452950576098
 20
659.5453912427179
 30
0.0
 41
1.0
 10
1730.567872108558
 20
659.4667141267885
 30
0.0
 41
1.0
 10
1725.27416661898
 20
659.3694555413956
 30
0.0
 41
1.0
 10
1723.043160428047
 20
659.3409345696564
 30
0.0
 41
1.0
 10
1720.542350460221
 20
659.3187484363199
 30
0.0
 41
1.0
  0
SPLINE
  5
9B
330
1F
100
AcDbEntity
  8
Linee visibili 2D
100
AcDbSpline
210
0.0
220
0.0
230
1.0
 70
    24
 71
     2
 72
     6
 73
     3
 74
     0
 42
0.0000000001
 43
0.0000000001
 40
0.0
 40
0.0
 40
0.0
 40
0.1127335397642639
 40
0.1127335397642639
 40
0.1127335397642639
 10
1711.952950576098
 20
619.3780243480394
 30
0.0
 10
1711.952950576098
 20
619.3216575781573
 30
0.0
 10
1711.952950576098
 20
619.2652908082752
 30
0.0
  0
SPLINE
  5
9C
330
1F
100
AcDbEntity
  8
Linee visibili 2D
100
AcDbSpline
210
0.0
220
0.0
230
1.0
 70
    24
 71
     2
 72
     6
 73
     3
 74
     0
 42
0.0000000001
 43
0.0000000001
 40
0.0
 40
0.0
 40
0.0
 40
0.1326466848805126
 40
0.1326466848805126
 40
0.1326466848805126
 10
1711.952950576098
 20
659.2652908082752
 30
0.0
 10
1711.952950576098
 20
659.1989674658348
 30
0.0
 10
1711.952950576098
 20
659.1326441233946
 30
0.0
  0
SPLINE
  5
9D
330
1F
100
AcDbEntity
  8
Linee visibili 2D
100
AcDbSpline
210
0.0
220
0.0
230
1.0
 70
    12
 71
     3
 72
    10
 73
     6
 74
     0
 42
0.0000000001
 43
0.0000000001
 40
-34.41193196449149
 40
-34.41193196449149
 40
-34.41193196449149
 40
-34.41193196449149
 40
-17.73237564387118
 40
-17.73237564387118
 40
-8.865933788082213
 40
-8.865933788082213
 40
-8.865933788082213
 40
-8.865933788082213
 10
1732.452950576098
 20
618.904437735397
 30
0.0
 41
1.0
 10
1732.452950576098
 20
618.9851903738324
 30
0.0
 41
1.0
 10
1730.567872108558
 20
619.0638674897618
 30
0.0
 41
1.0
 10
1725.274166618981
 20
619.1611260751547
 30
0.0
 41
1.0
 10
1723.043160428051
 20
619.1896470468938
 30
0.0
 41
1.0
 10
1720.542350460228
 20
619.2118331802304
 30
0.0
 41
1.0
  0
SPLINE
  5
9E
330
1F
100
AcDbEntity
  8
Linee visibili 2D
100
AcDbSpline
210
0.0
220
0.0
230
1.0
 70
    24
 71
     2
 72
     6
 73
     3
 74
     0
 42
0.0000000001
 43
0.0000000001
 40
0.0
 40
0.0
 40
0.0
 40
442.7556290910048
 40
442.7556290910048
 40
442.7556290910048
 10
2175.330765121601
 20
618.8033988749911
 30
0.0
 10
1953.952950576098
 20
618.8033988749911
 30
0.0
 10
1732.575136030596
 20
618.8033988749911
 30
0.0
  0
SPLINE
  5
9F
330
1F
100
AcDbEntity
  8
Linee visibili 2D
100
AcDbSpline
210
0.0
220
0.0
230
1.0
 70
    12
 71
     2
 72
     8
 73
     5
 74
     0
 42
0.0000000001
 43
0.0000000001
 40
0.0
 40
0.0
 40
0.0
 40
3.059053752361462
 40
3.059053752361462
 40
3.217604237398729
 40
3.217604237398729
 40
3.217604237398729
 10
2178.504065229512
 20
619.077166572511
 30
0.0
 41
1.0
 10
2176.971809537167
 20
619.1091233439373
 30
0.0
 41
0.9970057778244206
 10
2175.452950576097
 20
618.904437735397
 30
0.0
 41
1.0
 10
2175.391856651222
 20
618.8539184683142
 30
0.0
 41
1.0
 10
2175.330763778518
 20
618.8033989178296
 30
0.0
 41
1.0
  0
SPLINE
  5
A0
330
1F
100
AcDbEntity
  8
Linee visibili 2D
100
AcDbSpline
210
0.0
220
0.0
230
1.0
 70
    24
 71
     2
 72
     6
 73
     3
 74
     0
 42
0.0000000001
 43
0.0000000001
 40
0.0
 40
0.0
 40
0.0
 40
484.0000000000001
 40
484.0000000000001
 40
484.0000000000001
 10
1711.952950576098
 20
619.2652908082752
 30
0.0
 10
1953.952950576098
 20
619.2652908082752
 30
0.0
 10
2195.952950576098
 20
619.2652908082752
 30
0.0
  0
SPLINE
  5
A1
330
1F
100
AcDbEntity
  8
Linee visibili 2D
100
AcDbSpline
210
0.0
220
0.0
230
1.0
 70
    12
 71
     2
 72
     8
 73
     5
 74
     0
 42
0.0000000001
 43
0.0000000001
 40
0.0
 40
0.0
 40
0.0
 40
3.059053753742647
 40
3.059053753742647
 40
3.217603531440418
 40
3.217603531440418
 40
3.217603531440418
 10
2178.504065230893
 20
659.4534150440027
 30
0.0
 41
1.0
 10
2176.971809537858
 20
659.4214582725674
 30
0.0
 41
0.9970057778257414
 10
2175.452950576097
 20
659.6261438811533
 30
0.0
 41
1.0
 10
2175.391858831123
 20
659.676665641631
 30
0.0
 41
1.0
 10
2175.330766230973
 20
659.7271849667336
 30
0.0
 41
1.0
  0
SPLINE
  5
A2
330
1F
100
AcDbEntity
  8
Linee visibili 2D
100
AcDbSpline
210
0.0
220
0.0
230
1.0
 70
    24
 71
     2
 72
     6
 73
     3
 74
     0
 42
0.0000000001
 43
0.0000000001
 40
0.0
 40
0.0
 40
0.0
 40
484.0000000000001
 40
484.0000000000001
 40
484.0000000000001
 10
1711.952950576098
 20
659.2652908082752
 30
0.0
 10
1953.952950576098
 20
659.2652908082752
 30
0.0
 10
2195.952950576098
 20
659.2652908082752
 30
0.0
  0
SPLINE
  5
A3
330
1F
100
AcDbEntity
  8
Linee visibili 2D
100
AcDbSpline
210
0.0
220
0.0
230
1.0
 70
    24
 71
     2
 72
     6
 73
     3
 74
     0
 42
0.0000000001
 43
0.0000000001
 40
0.0
 40
0.0
 40
0.0
 40
442.7556290910048
 40
442.7556290910048
 40
442.7556290910048
 10
2175.330765121601
 20
659.7271827415592
 30
0.0
 10
1953.952950576098
 20
659.7271827415592
 30
0.0
 10
1732.575136030596
 20
659.7271827415592
 30
0.0
  0
SPLINE
  5
A4
330
1F
100
AcDbEntity
  8
Linee visibili 2D
100
AcDbSpline
210
0.0
220
0.0
230
1.0
 70
    24
 71
     2
 72
     6
 73
     3
 74
     0
 42
0.0000000001
 43
0.0000000001
 40
0.0
 40
0.0
 40
0.0
 40
0.4999999975055403
 40
0.4999999975055403
 40
0.4999999975055403
 10
1683.902950578593
 20
659.1326441233946
 30
0.0
 10
1683.902950578593
 20
658.8826441246418
 30
0.0
 10
1683.902950578593
 20
658.6326441258891
 30
0.0
  0
SPLINE
  5
A5
330
1F
100
AcDbEntity
  8
Linee visibili 2D
100
AcDbSpline
210
0.0
220
0.0
230
1.0
 70
    24
 71
     2
 72
     6
 73
     3
 74
     0
 42
0.0000000001
 43
0.0000000001
 40
0.0
 40
0.0
 40
0.0
 40
37.95849371168629
 40
37.95849371168629
 40
37.95849371168629
 10
1683.902950578593
 20
659.1326441233946
 30
0.0
 10
1664.92370372275
 20
659.1326441233946
 30
0.0
 10
1645.944456866906
 20
659.1326441233946
 30
0.0
  0
SPLINE
  5
A6
330
1F
100
AcDbEntity
  8
Linee visibili 2D
100
AcDbSpline
210
0.0
220
0.0
230
1.0
 70
    24
 71
     2
 72
     6
 73
     3
 74
     0
 42
0.0000000001
 43
0.0000000001
 40
0.0
 40
0.0
 40
0.0
 40
539.1000000049905
 40
539.1000000049905
 40
539.1000000049905
 10
2223.502950581089
 20
659.1326441233946
 30
0.0
 10
1953.952950578594
 20
659.1326441233946
 30
0.0
 10
1684.402950576098
 20
659.1326441233946
 30
0.0
  0
SPLINE
  5
A7
330
1F
100
AcDbEntity
  8
Linee visibili 2D
100
AcDbSpline
210
0.0
220
0.0
230
1.0
 70
    24
 71
     2
 72
     6
 73
     3
 74
     0
 42
0.0000000001
 43
0.0000000001
 40
0.0
 40
0.0
 40
0.0
 40
38.75461978034414
 40
38.75461978034414
 40
38.75461978034414
 10
1683.902950578593
 20
619.878024345545
 30
0.0
 10
1683.902950578593
 20
639.2553342357171
 30
0.0
 10
1683.902950578593
 20
658.6326441258891
 30
0.0
  0
SPLINE
  5
A8
330
1F
100
AcDbEntity
  8
Linee visibili 2D
100
AcDbSpline
210
0.0
220
0.0
230
1.0
 70
    24
 71
     2
 72
     6
 73
     3
 74
     0
 42
0.0000000001
 43
0.0000000001
 40
0.0
 40
0.0
 40
0.0
 40
0.4999999975032097
 40
0.4999999975032097
 40
0.4999999975032097
 10
1683.902950578595
 20
619.878024345545
 30
0.0
 10
1684.152950577346
 20
619.878024345545
 30
0.0
 10
1684.402950576098
 20
619.878024345545
 30
0.0
  0
SPLINE
  5
A9
330
1F
100
AcDbEntity
  8
Linee visibili 2D
100
AcDbSpline
210
0.0
220
0.0
230
1.0
 70
    24
 71
     2
 72
     6
 73
     3
 74
     0
 42
0.0000000001
 43
0.0000000001
 40
0.0
 40
0.0
 40
0.0
 40
0.4999999975032097
 40
0.4999999975032097
 40
0.4999999975032097
 10
1683.902950578595
 20
658.6326441258891
 30
0.0
 10
1684.152950577346
 20
658.6326441258891
 30
0.0
 10
1684.402950576098
 20
658.6326441258891
 30
0.0
  0
SPLINE
  5
AA
330
1F
100
AcDbEntity
  8
Linee visibili 2D
100
AcDbSpline
210
0.0
220
0.0
230
1.0
 70
    24
 71
     2
 72
     6
 73
     3
 74
     0
 42
0.0000000001
 43
0.0000000001
 40
0.0
 40
0.0
 40
0.0
 40
0.4999999975055403
 40
0.4999999975055403
 40
0.4999999975055403
 10
2223.502950581089
 20
658.6326441258891
 30
0.0
 10
2223.502950581089
 20
658.8826441246418
 30
0.0
 10
2223.502950581089
 20
659.1326441233946
 30
0.0
  0
SPLINE
  5
AB
330
1F
100
AcDbEntity
  8
Linee visibili 2D
100
AcDbSpline
210
0.0
220
0.0
230
1.0
 70
    24
 71
     2
 72
     6
 73
     3
 74
     0
 42
0.0000000001
 43
0.0000000001
 40
0.0
 40
0.0
 40
0.0
 40
0.4999999975032097
 40
0.4999999975032097
 40
0.4999999975032097
 10
2224.002950578592
 20
658.6326441258891
 30
0.0
 10
2223.752950579841
 20
658.6326441258891
 30
0.0
 10
2223.502950581089
 20
658.6326441258891
 30
0.0
  0
SPLINE
  5
AC
330
1F
100
AcDbEntity
  8
Linee visibili 2D
100
AcDbSpline
210
0.0
220
0.0
230
1.0
 70
    24
 71
     2
 72
     6
 73
     3
 74
     0
 42
0.0000000001
 43
0.0000000001
 40
0.0
 40
0.0
 40
0.0
 40
0.4999999975032097
 40
0.4999999975032097
 40
0.4999999975032097
 10
2224.002950578592
 20
619.878024345545
 30
0.0
 10
2223.752950579841
 20
619.878024345545
 30
0.0
 10
2223.502950581089
 20
619.878024345545
 30
0.0
  0
SPLINE
  5
AD
330
1F
100
AcDbEntity
  8
Linee visibili 2D
100
AcDbSpline
210
0.0
220
0.0
230
1.0
 70
    28
 71
     3
 72
    12
 73
     8
 74
     0
 42
0.0000000001
 43
0.0000000001
 40
0.0
 40
0.0
 40
0.0
 40
0.0
 40
0.041344401050992
 40
34.04119497332294
 40
34.04119497332294
 40
34.04119497332294
 40
35.04119497332294
 40
35.04119497332294
 40
35.04119497332294
 40
35.04119497332294
 10
2261.961456745176
 20
659.1326441233946
 30
0.0
 41
1.0
 10
2262.022149348132
 20
659.1326441233946
 30
0.0
 41
1.0
 10
2250.697330065088
 20
659.1326441233947
 30
0.0
 41
1.0
 10
2239.328184428775
 20
659.1326441233946
 30
0.0
 41
1.0
 10
2228.002950573955
 20
659.1326441233946
 30
0.0
 41
1.0
 10
2226.669617220802
 20
659.1326441233946
 30
0.0
 41
1.0
 10
2225.336283899698
 20
659.1326441233946
 30
0.0
 41
1.0
 10
2224.002950578595
 20
659.1326441233946
 30
0.0
 41
1.0
  0
SPLINE
  5
AE
330
1F
100
AcDbEntity
  8
Linee visibili 2D
100
AcDbSpline
210
0.0
220
0.0
230
1.0
 70
    24
 71
     2
 72
     6
 73
     3
 74
     0
 42
0.0000000001
 43
0.0000000001
 40
0.0
 40
0.0
 40
0.0
 40
38.75461978034414
 40
38.75461978034414
 40
38.75461978034414
 10
2223.502950581089
 20
619.878024345545
 30
0.0
 10
2223.502950581089
 20
639.2553342357171
 30
0.0
 10
2223.502950581089
 20
658.6326441258891
 30
0.0
  0
SPLINE
  5
AF
330
1F
100
AcDbEntity
  8
Linee visibili 2D
100
AcDbSpline
210
0.0
220
0.0
230
1.0
 70
    24
 71
     2
 72
     6
 73
     3
 74
     0
 42
0.0000000001
 43
0.0000000001
 40
0.0
 40
0.0
 40
0.0
 40
37.95849371168629
 40
37.95849371168629
 40
37.95849371168629
 10
1683.902950578593
 20
619.3780243480394
 30
0.0
 10
1664.92370372275
 20
619.3780243480394
 30
0.0
 10
1645.944456866906
 20
619.3780243480394
 30
0.0
  0
SPLINE
  5
B0
330
1F
100
AcDbEntity
  8
Linee visibili 2D
100
AcDbSpline
210
0.0
220
0.0
230
1.0
 70
    24
 71
     2
 72
     6
 73
     3
 74
     0
 42
0.0000000001
 43
0.0000000001
 40
0.0
 40
0.0
 40
0.0
 40
0.4999999975055403
 40
0.4999999975055403
 40
0.4999999975055403
 10
1683.902950578593
 20
619.3780243480394
 30
0.0
 10
1683.902950578593
 20
619.6280243467922
 30
0.0
 10
1683.902950578593
 20
619.878024345545
 30
0.0
  0
SPLINE
  5
B1
330
1F
100
AcDbEntity
  8
Linee visibili 2D
100
AcDbSpline
210
0.0
220
0.0
230
1.0
 70
    24
 71
     2
 72
     6
 73
     3
 74
     0
 42
0.0000000001
 43
0.0000000001
 40
0.0
 40
0.0
 40
0.0
 40
0.4999999975055403
 40
0.4999999975055403
 40
0.4999999975055403
 10
1684.402950576098
 20
658.6326441258891
 30
0.0
 10
1684.402950576098
 20
658.8826441246418
 30
0.0
 10
1684.402950576098
 20
659.1326441233946
 30
0.0
  0
SPLINE
  5
B2
330
1F
100
AcDbEntity
  8
Linee visibili 2D
100
AcDbSpline
210
0.0
220
0.0
230
1.0
 70
    24
 71
     2
 72
     6
 73
     3
 74
     0
 42
0.0000000001
 43
0.0000000001
 40
0.0
 40
0.0
 40
0.0
 40
38.75461978034414
 40
38.75461978034414
 40
38.75461978034414
 10
1684.402950576098
 20
619.878024345545
 30
0.0
 10
1684.402950576098
 20
639.2553342357171
 30
0.0
 10
1684.402950576098
 20
658.6326441258891
 30
0.0
  0
SPLINE
  5
B3
330
1F
100
AcDbEntity
  8
Linee visibili 2D
100
AcDbSpline
210
0.0
220
0.0
230
1.0
 70
    24
 71
     2
 72
     6
 73
     3
 74
     0
 42
0.0000000001
 43
0.0000000001
 40
0.0
 40
0.0
 40
0.0
 40
0.4999999975055403
 40
0.4999999975055403
 40
0.4999999975055403
 10
1684.402950576098
 20
619.878024345545
 30
0.0
 10
1684.402950576098
 20
619.6280243467922
 30
0.0
 10
1684.402950576098
 20
619.3780243480394
 30
0.0
  0
SPLINE
  5
B4
330
1F
100
AcDbEntity
  8
Linee visibili 2D
100
AcDbSpline
210
0.0
220
0.0
230
1.0
 70
    24
 71
     2
 72
     6
 73
     3
 74
     0
 42
0.0000000001
 43
0.0000000001
 40
0.0
 40
0.0
 40
0.0
 40
539.1000000049905
 40
539.1000000049905
 40
539.1000000049905
 10
2223.502950581089
 20
619.3780243480394
 30
0.0
 10
1953.952950578594
 20
619.3780243480394
 30
0.0
 10
1684.402950576098
 20
619.3780243480394
 30
0.0
  0
SPLINE
  5
B5
330
1F
100
AcDbEntity
  8
Linee visibili 2D
100
AcDbSpline
210
0.0
220
0.0
230
1.0
 70
    24
 71
     2
 72
     6
 73
     3
 74
     0
 42
0.0000000001
 43
0.0000000001
 40
0.0
 40
0.0
 40
0.0
 40
0.4999999975055403
 40
0.4999999975055403
 40
0.4999999975055403
 10
2223.502950581089
 20
619.3780243480394
 30
0.0
 10
2223.502950581089
 20
619.6280243467922
 30
0.0
 10
2223.502950581089
 20
619.878024345545
 30
0.0
  0
SPLINE
  5
B6
330
1F
100
AcDbEntity
  8
Linee visibili 2D
100
AcDbSpline
210
0.0
220
0.0
230
1.0
 70
    24
 71
     2
 72
     6
 73
     3
 74
     0
 42
0.0000000001
 43
0.0000000001
 40
0.0
 40
0.0
 40
0.0
 40
0.4999999975055403
 40
0.4999999975055403
 40
0.4999999975055403
 10
2224.002950578595
 20
659.1326441233946
 30
0.0
 10
2224.002950578595
 20
658.8826441246418
 30
0.0
 10
2224.002950578595
 20
658.6326441258891
 30
0.0
  0
SPLINE
  5
B7
330
1F
100
AcDbEntity
  8
Linee visibili 2D
100
AcDbSpline
210
0.0
220
0.0
230
1.0
 70
    24
 71
     2
 72
     6
 73
     3
 74
     0
 42
0.0000000001
 43
0.0000000001
 40
0.0
 40
0.0
 40
0.0
 40
38.75461978034414
 40
38.75461978034414
 40
38.75461978034414
 10
2224.002950578595
 20
619.878024345545
 30
0.0
 10
2224.002950578595
 20
639.2553342357171
 30
0.0
 10
2224.002950578595
 20
658.6326441258891
 30
0.0
  0
SPLINE
  5
B8
330
1F
100
AcDbEntity
  8
Linee visibili 2D
100
AcDbSpline
210
0.0
220
0.0
230
1.0
 70
    24
 71
     2
 72
     6
 73
     3
 74
     0
 42
0.0000000001
 43
0.0000000001
 40
0.0
 40
0.0
 40
0.0
 40
0.4999999975055403
 40
0.4999999975055403
 40
0.4999999975055403
 10
2224.002950578595
 20
619.3780243480394
 30
0.0
 10
2224.002950578595
 20
619.6280243467922
 30
0.0
 10
2224.002950578595
 20
619.878024345545
 30
0.0
  0
SPLINE
  5
B9
330
1F
100
AcDbEntity
  8
Linee visibili 2D
100
AcDbSpline
210
0.0
220
0.0
230
1.0
 70
    28
 71
     3
 72
    12
 73
     8
 74
     0
 42
0.0000000001
 43
0.0000000001
 40
0.0
 40
0.0
 40
0.0
 40
0.0
 40
0.041344401050992
 40
34.04119497332294
 40
34.04119497332294
 40
34.04119497332294
 40
35.04119497332294
 40
35.04119497332294
 40
35.04119497332294
 40
35.04119497332294
 10
2261.961456745176
 20
619.3780243480394
 30
0.0
 41
1.0
 10
2262.022149348132
 20
619.3780243480395
 30
0.0
 41
1.0
 10
2250.697330065088
 20
619.3780243480395
 30
0.0
 41
1.0
 10
2239.328184428775
 20
619.3780243480394
 30
0.0
 41
1.0
 10
2228.002950573955
 20
619.3780243480394
 30
0.0
 41
1.0
 10
2226.669617220802
 20
619.3780243480394
 30
0.0
 41
1.0
 10
2225.336283899698
 20
619.3780243480394
 30
0.0
 41
1.0
 10
2224.002950578595
 20
619.3780243480394
 30
0.0
 41
1.0
  0
SPLINE
  5
BA
330
1F
100
AcDbEntity
  8
Linee visibili 2D
100
AcDbSpline
210
0.0
220
0.0
230
1.0
 70
    24
 71
     2
 72
     6
 73
     3
 74
     0
 42
0.0000000001
 43
0.0000000001
 40
0.0
 40
0.0
 40
0.0
 40
7.001066296307473
 40
7.001066296307473
 40
7.001066296307473
 10
1732.575136030596
 20
557.000000000001
 30
0.0
 10
1732.514043303347
 20
553.5000000000009
 30
0.0
 10
1732.452950576098
 20
550.0000000000009
 30
0.0
  0
SPLINE
  5
BB
330
1F
100
AcDbEntity
  8
Linee visibili 2D
100
AcDbSpline
210
0.0
220
0.0
230
1.0
 70
    12
 71
     2
 72
     8
 73
     5
 74
     0
 42
0.0000000001
 43
0.0000000001
 40
0.0
 40
0.0
 40
0.0
 40
34.33598252259615
 40
34.33598252259615
 40
35.01774141500365
 40
35.01774141500365
 40
35.01774141500365
 10
1732.452950576098
 20
550.0000000000009
 30
0.0
 41
1.0
 10
1732.452892638505
 20
529.5041253340947
 30
0.0
 41
0.7733314273403975
 10
1712.354886805775
 20
525.4852896978133
 30
0.0
 41
1.0
 10
1711.956902608578
 20
525.405821404449
 30
0.0
 41
0.7763219902411824
 10
1711.952950576098
 20
525.0000000000009
 30
0.0
 41
1.0
  0
SPLINE
  5
BC
330
1F
100
AcDbEntity
  8
Linee visibili 2D
100
AcDbSpline
210
0.0
220
0.0
230
1.0
 70
    12
 71
     3
 72
    17
 73
    13
 74
     0
 42
0.0000000001
 43
0.0000000001
 40
0.0
 40
0.0
 40
0.0
 40
0.0
 40
0.6837828330520621
 40
0.6837828330520621
 40
0.6837828330520621
 40
18.36538445443655
 40
18.36538445443655
 40
18.36538445443655
 40
35.01784867107786
 40
35.01784867107786
 40
35.01784867107786
 40
42.01964402207113
 40
42.01964402207113
 40
42.01964402207113
 40
42.01964402207113
 10
2195.952950576098
 20
525.0000000000009
 30
0.0
 41
1.0
 10
2195.953638510961
 20
525.2483975045308
 30
0.0
 41
0.8455850129662832
 10
2195.795193480395
 20
525.4397008390549
 30
0.0
 41
0.8455850129662824
 10
2195.551014346422
 20
525.4852896978132
 30
0.0
 41
1.0
 10
2189.648821103372
 20
526.6690366883319
 30
0.0
 41
0.9588752199243357
 10
2184.520042436671
 20
529.8206666481881
 30
0.0
 41
0.958875219924336
 10
2180.797438030495
 20
534.5513493104453
 30
0.0
 41
1.0
 10
2177.304235539847
 20
538.999357541859
 30
0.0
 41
0.9634482076228015
 10
2175.455152419408
 20
544.3442740501972
 30
0.0
 41
0.9634482076228016
 10
2175.452950576098
 20
550.0000000000009
 30
0.0
 41
1.0
 10
2175.412222091265
 20
552.3333333333343
 30
0.0
 41
1.023820541642193
 10
2175.371493606433
 20
554.6666666666677
 30
0.0
 41
1.048208501488513
 10
2175.330765121601
 20
557.000000000001
 30
0.0
 41
1.073177395747922
  0
SPLINE
  5
BD
330
1F
100
AcDbEntity
  8
Linee visibili 2D
100
AcDbSpline
210
0.0
220
0.0
230
1.0
 70
    24
 71
     2
 72
     6
 73
     3
 74
     0
 42
0.0000000001
 43
0.0000000001
 40
0.0
 40
0.0
 40
0.0
 40
484.0
 40
484.0
 40
484.0
 10
1711.952950576098
 20
525.0000000000009
 30
0.0
 10
1953.952950576098
 20
525.0000000000009
 30
0.0
 10
2195.952950576098
 20
525.0000000000009
 30
0.0
  0
SPLINE
  5
BE
330
1F
100
AcDbEntity
  8
Linee visibili 2D
100
AcDbSpline
210
0.0
220
0.0
230
1.0
 70
    24
 71
     2
 72
     6
 73
     3
 74
     0
 42
0.0000000001
 43
0.0000000001
 40
0.0
 40
0.0
 40
0.0
 40
442.7556290910049
 40
442.7556290910049
 40
442.7556290910049
 10
2175.330765121601
 20
557.000000000001
 30
0.0
 10
1953.952950576098
 20
557.000000000001
 30
0.0
 10
1732.575136030596
 20
557.000000000001
 30
0.0
  0
SPLINE
  5
BF
330
1F
100
AcDbEntity
  8
Linee visibili 2D
100
AcDbSpline
210
0.0
220
0.0
230
1.0
 70
    24
 71
     2
 72
     6
 73
     3
 74
     0
 42
0.0000000001
 43
0.0000000001
 40
0.0
 40
0.0
 40
0.0
 40
0.5004668695319197
 40
0.5004668695319197
 40
0.5004668695319197
 10
1683.902950578825
 20
472.0000294540575
 30
0.0
 10
1683.902950579996
 20
471.7497960192916
 30
0.0
 10
1683.902950581166
 20
471.4995625845256
 30
0.0
  0
SPLINE
  5
C0
330
1F
100
AcDbEntity
  8
Linee visibili 2D
100
AcDbSpline
210
0.0
220
0.0
230
1.0
 70
    12
 71
     2
 72
    12
 73
     9
 74
     0
 42
0.0000000001
 43
0.0000000001
 40
0.0
 40
0.0
 40
0.0
 40
4.030159877574637
 40
4.030159877574637
 40
29.84500193856449
 40
29.84500193856449
 40
55.65984399955434
 40
55.65984399955434
 40
59.68986987024781
 40
59.68986987024781
 40
59.68986987024781
 10
1683.902950578825
 20
472.0000294540575
 30
0.0
 41
1.0
 10
1681.880278759106
 20
471.9999434467179
 30
0.0
 41
0.9943794077836686
 10
1679.902935486896
 20
472.4257542985389
 30
0.0
 41
1.0
 10
1664.902948146332
 20
475.6559331566079
 30
0.0
 41
0.7779834428478417
 10
1664.902995241673
 20
490.9997812942166
 30
0.0
 41
1.0
 10
1664.903042337014
 20
506.3436294318253
 30
0.0
 41
0.7779834428478417
 10
1679.903049506269
 20
509.5737162099958
 30
0.0
 41
1.0
 10
1681.880363987574
 20
509.9992558727708
 30
0.0
 41
0.994392635383096
 10
1683.902950583191
 20
509.9994165013313
 30
0.0
 41
1.0
  0
SPLINE
  5
C1
330
1F
100
AcDbEntity
  8
Linee visibili 2D
100
AcDbSpline
210
0.0
220
0.0
230
1.0
 70
    24
 71
     2
 72
     6
 73
     3
 74
     0
 42
0.0000000001
 43
0.0000000001
 40
0.0
 40
0.0
 40
0.0
 40
0.5005834986707214
 40
0.5005834986707214
 40
0.5005834986707214
 10
1683.902950581166
 20
510.500000000002
 30
0.0
 10
1683.902950582179
 20
510.2497082506667
 30
0.0
 10
1683.902950583191
 20
509.9994165013313
 30
0.0
  0
SPLINE
  5
C2
330
1F
100
AcDbEntity
  8
Linee visibili 2D
100
AcDbSpline
210
0.0
220
0.0
230
1.0
 70
    24
 71
     2
 72
     6
 73
     3
 74
     0
 42
0.0000000001
 43
0.0000000001
 40
0.0
 40
0.0
 40
0.0
 40
13.99999999999795
 40
13.99999999999795
 40
13.99999999999795
 10
1683.902950578671
 20
524.5
 30
0.0
 10
1683.902950579918
 20
517.500000000001
 30
0.0
 10
1683.902950581166
 20
510.500000000002
 30
0.0
  0
SPLINE
  5
C3
330
1F
100
AcDbEntity
  8
Linee visibili 2D
100
AcDbSpline
210
0.0
220
0.0
230
1.0
 70
    24
 71
     2
 72
     6
 73
     3
 74
     0
 42
0.0000000001
 43
0.0000000001
 40
0.0
 40
0.0
 40
0.0
 40
0.5000000000001137
 40
0.5000000000001137
 40
0.5000000000001137
 10
1683.902950578594
 20
525.0000000000001
 30
0.0
 10
1683.902950578632
 20
524.75
 30
0.0
 10
1683.902950578671
 20
524.5
 30
0.0
  0
SPLINE
  5
C4
330
1F
100
AcDbEntity
  8
Linee visibili 2D
100
AcDbSpline
210
0.0
220
0.0
230
1.0
 70
    12
 71
     3
 72
    23
 73
    19
 74
     0
 42
0.0000000001
 43
0.0000000001
 40
-1162.733333007692
 40
-1162.733333007692
 40
-1162.733333007692
 40
-1162.733333007692
 40
-1161.733333007692
 40
-1161.733333007692
 40
-1161.733333007692
 40
-1135.029935743016
 40
-1135.029935743016
 40
-1135.029935743016
 40
-1108.326538478339
 40
-1108.326538478339
 40
-1108.326538478339
 40
-1081.623141213663
 40
-1081.623141213663
 40
-1081.623141213663
 40
-1054.919743948987
 40
-1054.919743948987
 40
-1054.919743948987
 40
-1053.91974394934
 40
-1053.91974394934
 40
-1053.91974394934
 40
-1053.91974394934
 10
1683.902950578593
 20
457.0
 30
0.0
 41
1.0
 10
1682.569617257489
 20
457.0001458420048
 30
0.0
 41
1.0
 10
1681.236283936385
 20
457.0002916840098
 30
0.0
 41
1.0
 10
1679.902950583427
 20
457.0004375260174
 30
0.0
 41
1.0
 10
1670.765120383557
 20
457.0004159324896
 30
0.0
 41
0.9492528709586432
 10
1662.322859892655
 20
460.4972971952574
 30
0.0
 41
0.9492528709586433
 10
1655.861430558321
 20
466.9587112602689
 30
0.0
 41
1.0
 10
1649.400001223986
 20
473.4201253252805
 30
0.0
 41
0.9492528709586436
 10
1645.903100010882
 20
481.8623775524953
 30
0.0
 41
0.9492528709586426
 10
1645.903100010326
 20
491.0002077523911
 30
0.0
 41
1.0
 10
1645.90310000977
 20
500.1380379522869
 30
0.0
 41
0.9492528709586427
 10
1649.400001221848
 20
508.5802901799273
 30
0.0
 41
0.949252870958643
 10
1655.861430555396
 20
515.041704245725
 30
0.0
 41
1.0
 10
1662.322859888944
 20
521.5031183115226
 30
0.0
 41
0.9492528709586431
 10
1670.76512037942
 20
524.9999995753176
 30
0.0
 41
0.949252870958643
 10
1679.90295057929
 20
524.9999779829016
 30
0.0
 41
1.0
 10
1681.236283912432
 20
524.9999853219344
 30
0.0
 41
1.0
 10
1682.569617245513
 20
524.9999926609673
 30
0.0
 41
1.0
 10
1683.902950578594
 20
525.0000000000001
 30
0.0
 41
1.0
  0
SPLINE
  5
C5
330
1F
100
AcDbEntity
  8
Linee visibili 2D
100
AcDbSpline
210
0.0
220
0.0
230
1.0
 70
    24
 71
     2
 72
     6
 73
     3
 74
     0
 42
0.0000000001
 43
0.0000000001
 40
0.0
 40
0.0
 40
0.0
 40
0.5
 40
0.5
 40
0.5
 10
1683.902950578597
 20
457.5
 30
0.0
 10
1683.902950578595
 20
457.25
 30
0.0
 10
1683.902950578593
 20
457.0
 30
0.0
  0
SPLINE
  5
C6
330
1F
100
AcDbEntity
  8
Linee visibili 2D
100
AcDbSpline
210
0.0
220
0.0
230
1.0
 70
    24
 71
     2
 72
     6
 73
     3
 74
     0
 42
0.0000000001
 43
0.0000000001
 40
0.0
 40
0.0
 40
0.0
 40
13.99956258452562
 40
13.99956258452562
 40
13.99956258452562
 10
1683.902950581166
 20
471.4995625845256
 30
0.0
 10
1683.902950579881
 20
464.4997812922628
 30
0.0
 10
1683.902950578597
 20
457.5
 30
0.0
  0
SPLINE
  5
C7
330
1F
100
AcDbEntity
  8
Linee visibili 2D
100
AcDbSpline
210
0.0
220
0.0
230
1.0
 70
    24
 71
     2
 72
     6
 73
     3
 74
     0
 42
0.0000000001
 43
0.0000000001
 40
0.0
 40
0.0
 40
0.0
 40
0.4999999999989768
 40
0.4999999999989768
 40
0.4999999999989768
 10
1684.402950576098
 20
457.000000000001
 30
0.0
 10
1684.402950576098
 20
457.2500000000005
 30
0.0
 10
1684.402950576098
 20
457.5
 30
0.0
  0
SPLINE
  5
C8
330
1F
100
AcDbEntity
  8
Linee visibili 2D
100
AcDbSpline
210
0.0
220
0.0
230
1.0
 70
    24
 71
     2
 72
     6
 73
     3
 74
     0
 42
0.0000000001
 43
0.0000000001
 40
0.0
 40
0.0
 40
0.0
 40
539.1000000049908
 40
539.1000000049908
 40
539.1000000049908
 10
2223.502950581089
 20
457.000000000001
 30
0.0
 10
1953.952950578594
 20
457.000000000001
 30
0.0
 10
1684.402950576098
 20
457.000000000001
 30
0.0
  0
SPLINE
  5
C9
330
1F
100
AcDbEntity
  8
Linee visibili 2D
100
AcDbSpline
210
0.0
220
0.0
230
1.0
 70
    24
 71
     2
 72
     6
 73
     3
 74
     0
 42
0.0000000001
 43
0.0000000001
 40
0.0
 40
0.0
 40
0.0
 40
0.4999999999989768
 40
0.4999999999989768
 40
0.4999999999989768
 10
2223.502950581089
 20
457.000000000001
 30
0.0
 10
2223.502950581089
 20
457.2500000000005
 30
0.0
 10
2223.50295058109
 20
457.5
 30
0.0
  0
SPLINE
  5
CA
330
1F
100
AcDbEntity
  8
Linee visibili 2D
100
AcDbSpline
210
0.0
220
0.0
230
1.0
 70
    24
 71
     2
 72
     6
 73
     3
 74
     0
 42
0.0000000001
 43
0.0000000001
 40
0.0
 40
0.0
 40
0.0
 40
13.99956258452562
 40
13.99956258452562
 40
13.99956258452562
 10
2223.50295058109
 20
457.5
 30
0.0
 10
2223.502950579842
 20
464.4997812922628
 30
0.0
 10
2223.502950578594
 20
471.4995625845256
 30
0.0
  0
SPLINE
  5
CB
330
1F
100
AcDbEntity
  8
Linee visibili 2D
100
AcDbSpline
210
0.0
220
0.0
230
1.0
 70
    24
 71
     2
 72
     6
 73
     3
 74
     0
 42
0.0000000001
 43
0.0000000001
 40
0.0
 40
0.0
 40
0.0
 40
0.5002187077382132
 40
0.5002187077382132
 40
0.5002187077382132
 10
2223.502950578594
 20
471.4995625845256
 30
0.0
 10
2223.502950578594
 20
471.7496719383947
 30
0.0
 10
2223.502950578594
 20
471.9997812922638
 30
0.0
  0
SPLINE
  5
CC
330
1F
100
AcDbEntity
  8
Linee visibili 2D
100
AcDbSpline
210
0.0
220
0.0
230
1.0
 70
    12
 71
     2
 72
     8
 73
     5
 74
     0
 42
0.0000000001
 43
0.0000000001
 40
625.0287396462018
 40
625.0287396462018
 40
625.0287396462018
 40
894.5787396462017
 40
894.5787396462017
 40
1164.128739646202
 40
1164.128739646202
 40
1164.128739646202
 10
2223.502950578594
 20
471.9997812922638
 30
0.0
 41
1.0
 10
2088.727950578594
 20
471.9998359691981
 30
0.0
 41
1.0
 10
1953.952950578594
 20
471.9998906461324
 30
0.0
 41
1.0
 10
1819.177950578594
 20
471.9998359691981
 30
0.0
 41
1.0
 10
1684.402950578594
 20
471.9997812922638
 30
0.0
 41
1.0
  0
SPLINE
  5
CD
330
1F
100
AcDbEntity
  8
Linee visibili 2D
100
AcDbSpline
210
0.0
220
0.0
230
1.0
 70
    24
 71
     2
 72
     6
 73
     3
 74
     0
 42
0.0000000001
 43
0.0000000001
 40
0.0
 40
0.0
 40
0.0
 40
0.5002187077382132
 40
0.5002187077382132
 40
0.5002187077382132
 10
1684.402950578594
 20
471.9997812922638
 30
0.0
 10
1684.402950578594
 20
471.7496719383947
 30
0.0
 10
1684.402950578594
 20
471.4995625845256
 30
0.0
  0
SPLINE
  5
CE
330
1F
100
AcDbEntity
  8
Linee visibili 2D
100
AcDbSpline
210
0.0
220
0.0
230
1.0
 70
    24
 71
     2
 72
     6
 73
     3
 74
     0
 42
0.0000000001
 43
0.0000000001
 40
0.0
 40
0.0
 40
0.0
 40
13.99956258452562
 40
13.99956258452562
 40
13.99956258452562
 10
1684.402950576098
 20
457.5
 30
0.0
 10
1684.402950577346
 20
464.4997812922628
 30
0.0
 10
1684.402950578594
 20
471.4995625845256
 30
0.0
  0
SPLINE
  5
CF
330
1F
100
AcDbEntity
  8
Linee visibili 2D
100
AcDbSpline
210
0.0
220
0.0
230
1.0
 70
    24
 71
     2
 72
     6
 73
     3
 74
     0
 42
0.0000000001
 43
0.0000000001
 40
0.0
 40
0.0
 40
0.0
 40
0.4999999974668299
 40
0.4999999974668299
 40
0.4999999974668299
 10
1684.402950577338
 20
471.4995625845256
 30
0.0
 10
1684.152950578605
 20
471.4995625845256
 30
0.0
 10
1683.902950579871
 20
471.4995625845256
 30
0.0
  0
SPLINE
  5
D0
330
1F
100
AcDbEntity
  8
Linee visibili 2D
100
AcDbSpline
210
0.0
220
0.0
230
1.0
 70
    24
 71
     2
 72
     6
 73
     3
 74
     0
 42
0.0000000001
 43
0.0000000001
 40
0.0
 40
0.0
 40
0.0
 40
0.4999999974668299
 40
0.4999999974668299
 40
0.4999999974668299
 10
1683.902950579871
 20
510.500000000002
 30
0.0
 10
1684.152950578605
 20
510.500000000002
 30
0.0
 10
1684.402950577338
 20
510.500000000002
 30
0.0
  0
SPLINE
  5
D1
330
1F
100
AcDbEntity
  8
Linee visibili 2D
100
AcDbSpline
210
0.0
220
0.0
230
1.0
 70
    24
 71
     2
 72
     6
 73
     3
 74
     0
 42
0.0000000001
 43
0.0000000001
 40
0.0
 40
0.0
 40
0.0
 40
0.4999999974668299
 40
0.4999999974668299
 40
0.4999999974668299
 10
1684.402950576098
 20
524.5
 30
0.0
 10
1684.152950577365
 20
524.5
 30
0.0
 10
1683.902950578632
 20
524.5
 30
0.0
  0
SPLINE
  5
D2
330
1F
100
AcDbEntity
  8
Linee visibili 2D
100
AcDbSpline
210
0.0
220
0.0
230
1.0
 70
    24
 71
     2
 72
     6
 73
     3
 74
     0
 42
0.0000000001
 43
0.0000000001
 40
0.0
 40
0.0
 40
0.0
 40
0.499999997503096
 40
0.499999997503096
 40
0.499999997503096
 10
1683.902950578595
 20
457.5
 30
0.0
 10
1684.152950577346
 20
457.5
 30
0.0
 10
1684.402950576098
 20
457.5
 30
0.0
  0
SPLINE
  5
D3
330
1F
100
AcDbEntity
  8
Linee visibili 2D
100
AcDbSpline
210
0.0
220
0.0
230
1.0
 70
    24
 71
     2
 72
     6
 73
     3
 74
     0
 42
0.0000000001
 43
0.0000000001
 40
0.0
 40
0.0
 40
0.0
 40
0.4999999974666025
 40
0.4999999974666025
 40
0.4999999974666025
 10
2224.002950577316
 20
510.500000000002
 30
0.0
 10
2223.752950578583
 20
510.500000000002
 30
0.0
 10
2223.50295057985
 20
510.500000000002
 30
0.0
  0
SPLINE
  5
D4
330
1F
100
AcDbEntity
  8
Linee visibili 2D
100
AcDbSpline
210
0.0
220
0.0
230
1.0
 70
    24
 71
     2
 72
     6
 73
     3
 74
     0
 42
0.0000000001
 43
0.0000000001
 40
0.0
 40
0.0
 40
0.0
 40
0.4999999974666025
 40
0.4999999974666025
 40
0.4999999974666025
 10
2223.50295057985
 20
471.4995625845256
 30
0.0
 10
2223.752950578583
 20
471.4995625845256
 30
0.0
 10
2224.002950577316
 20
471.4995625845256
 30
0.0
  0
SPLINE
  5
D5
330
1F
100
AcDbEntity
  8
Linee visibili 2D
100
AcDbSpline
210
0.0
220
0.0
230
1.0
 70
    24
 71
     2
 72
     6
 73
     3
 74
     0
 42
0.0000000001
 43
0.0000000001
 40
0.0
 40
0.0
 40
0.0
 40
0.4999999974666025
 40
0.4999999974666025
 40
0.4999999974666025
 10
2223.502950581089
 20
524.5
 30
0.0
 10
2223.752950579823
 20
524.5
 30
0.0
 10
2224.002950578556
 20
524.5
 30
0.0
  0
SPLINE
  5
D6
330
1F
100
AcDbEntity
  8
Linee visibili 2D
100
AcDbSpline
210
0.0
220
0.0
230
1.0
 70
    24
 71
     2
 72
     6
 73
     3
 74
     0
 42
0.0000000001
 43
0.0000000001
 40
0.0
 40
0.0
 40
0.0
 40
0.4999999975032097
 40
0.4999999975032097
 40
0.4999999975032097
 10
2224.002950578593
 20
457.5
 30
0.0
 10
2223.752950579841
 20
457.5
 30
0.0
 10
2223.50295058109
 20
457.5
 30
0.0
  0
SPLINE
  5
D7
330
1F
100
AcDbEntity
  8
Linee visibili 2D
100
AcDbSpline
210
0.0
220
0.0
230
1.0
 70
    24
 71
     2
 72
     6
 73
     3
 74
     0
 42
0.0000000001
 43
0.0000000001
 40
0.0
 40
0.0
 40
0.0
 40
0.5000000000010232
 40
0.5000000000010232
 40
0.5000000000010232
 10
1684.402950578594
 20
510.500000000002
 30
0.0
 10
1684.402950578594
 20
510.2500000000015
 30
0.0
 10
1684.402950578594
 20
510.000000000001
 30
0.0
  0
SPLINE
  5
D8
330
1F
100
AcDbEntity
  8
Linee visibili 2D
100
AcDbSpline
210
0.0
220
0.0
230
1.0
 70
    24
 71
     2
 72
     6
 73
     3
 74
     0
 42
0.0000000001
 43
0.0000000001
 40
0.0
 40
0.0
 40
0.0
 40
539.0999999999999
 40
539.0999999999999
 40
539.0999999999999
 10
1684.402950578594
 20
510.000000000001
 30
0.0
 10
1953.952950578594
 20
510.000000000001
 30
0.0
 10
2223.502950578594
 20
510.000000000001
 30
0.0
  0
SPLINE
  5
D9
330
1F
100
AcDbEntity
  8
Linee visibili 2D
100
AcDbSpline
210
0.0
220
0.0
230
1.0
 70
    24
 71
     2
 72
     6
 73
     3
 74
     0
 42
0.0000000001
 43
0.0000000001
 40
0.0
 40
0.0
 40
0.0
 40
0.5000000000010232
 40
0.5000000000010232
 40
0.5000000000010232
 10
2223.502950578594
 20
510.000000000001
 30
0.0
 10
2223.502950578594
 20
510.2500000000015
 30
0.0
 10
2223.502950578594
 20
510.500000000002
 30
0.0
  0
SPLINE
  5
DA
330
1F
100
AcDbEntity
  8
Linee visibili 2D
100
AcDbSpline
210
0.0
220
0.0
230
1.0
 70
    24
 71
     2
 72
     6
 73
     3
 74
     0
 42
0.0000000001
 43
0.0000000001
 40
0.0
 40
0.0
 40
0.0
 40
13.99999999999795
 40
13.99999999999795
 40
13.99999999999795
 10
2223.502950578594
 20
510.500000000002
 30
0.0
 10
2223.502950579841
 20
517.500000000001
 30
0.0
 10
2223.502950581089
 20
524.5
 30
0.0
  0
SPLINE
  5
DB
330
1F
100
AcDbEntity
  8
Linee visibili 2D
100
AcDbSpline
210
0.0
220
0.0
230
1.0
 70
    24
 71
     2
 72
     6
 73
     3
 74
     0
 42
0.0000000001
 43
0.0000000001
 40
0.0
 40
0.0
 40
0.0
 40
0.5000000000010232
 40
0.5000000000010232
 40
0.5000000000010232
 10
2223.502950581089
 20
524.5
 30
0.0
 10
2223.502950581089
 20
524.7500000000005
 30
0.0
 10
2223.502950581089
 20
525.000000000001
 30
0.0
  0
SPLINE
  5
DC
330
1F
100
AcDbEntity
  8
Linee visibili 2D
100
AcDbSpline
210
0.0
220
0.0
230
1.0
 70
    24
 71
     2
 72
     6
 73
     3
 74
     0
 42
0.0000000001
 43
0.0000000001
 40
0.0
 40
0.0
 40
0.0
 40
27.55000000499126
 40
27.55000000499126
 40
27.55000000499126
 10
2195.952950576098
 20
525.000000000001
 30
0.0
 10
2209.727950578594
 20
525.000000000001
 30
0.0
 10
2223.502950581089
 20
525.000000000001
 30
0.0
  0
SPLINE
  5
DD
330
1F
100
AcDbEntity
  8
Linee visibili 2D
100
AcDbSpline
210
0.0
220
0.0
230
1.0
 70
    24
 71
     2
 72
     6
 73
     3
 74
     0
 42
0.0000000001
 43
0.0000000001
 40
0.0
 40
0.0
 40
0.0
 40
27.54999999999961
 40
27.54999999999961
 40
27.54999999999961
 10
1684.402950576098
 20
525.000000000001
 30
0.0
 10
1698.177950576098
 20
525.000000000001
 30
0.0
 10
1711.952950576098
 20
525.000000000001
 30
0.0
  0
SPLINE
  5
DE
330
1F
100
AcDbEntity
  8
Linee visibili 2D
100
AcDbSpline
210
0.0
220
0.0
230
1.0
 70
    24
 71
     2
 72
     6
 73
     3
 74
     0
 42
0.0000000001
 43
0.0000000001
 40
0.0
 40
0.0
 40
0.0
 40
0.5000000000010232
 40
0.5000000000010232
 40
0.5000000000010232
 10
1684.402950576099
 20
524.5
 30
0.0
 10
1684.402950576099
 20
524.7500000000005
 30
0.0
 10
1684.402950576098
 20
525.000000000001
 30
0.0
  0
SPLINE
  5
DF
330
1F
100
AcDbEntity
  8
Linee visibili 2D
100
AcDbSpline
210
0.0
220
0.0
230
1.0
 70
    24
 71
     2
 72
     6
 73
     3
 74
     0
 42
0.0000000001
 43
0.0000000001
 40
0.0
 40
0.0
 40
0.0
 40
13.99999999999795
 40
13.99999999999795
 40
13.99999999999795
 10
1684.402950578594
 20
510.500000000002
 30
0.0
 10
1684.402950577346
 20
517.500000000001
 30
0.0
 10
1684.402950576099
 20
524.5
 30
0.0
  0
SPLINE
  5
E0
330
1F
100
AcDbEntity
  8
Linee visibili 2D
100
AcDbSpline
210
0.0
220
0.0
230
1.0
 70
    24
 71
     2
 72
     6
 73
     3
 74
     0
 42
0.0000000001
 43
0.0000000001
 40
0.0
 40
0.0
 40
0.0
 40
13.99999999999795
 40
13.99999999999795
 40
13.99999999999795
 10
2224.002950578517
 20
524.5
 30
0.0
 10
2224.002950577269
 20
517.500000000001
 30
0.0
 10
2224.002950576022
 20
510.500000000002
 30
0.0
  0
SPLINE
  5
E1
330
1F
100
AcDbEntity
  8
Linee visibili 2D
100
AcDbSpline
210
0.0
220
0.0
230
1.0
 70
    24
 71
     2
 72
     6
 73
     3
 74
     0
 42
0.0000000001
 43
0.0000000001
 40
0.0
 40
0.0
 40
0.0
 40
0.5005834986707214
 40
0.5005834986707214
 40
0.5005834986707214
 10
2224.002950576022
 20
510.500000000002
 30
0.0
 10
2224.002950575009
 20
510.2497082506667
 30
0.0
 10
2224.002950573996
 20
509.9994165013313
 30
0.0
  0
SPLINE
  5
E2
330
1F
100
AcDbEntity
  8
Linee visibili 2D
100
AcDbSpline
210
0.0
220
0.0
230
1.0
 70
    12
 71
     2
 72
    12
 73
     9
 74
     0
 42
0.0000000001
 43
0.0000000001
 40
0.0
 40
0.0
 40
0.0
 40
4.030025870693588
 40
4.030025870693588
 40
29.84486793168382
 40
29.84486793168382
 40
55.65970999267404
 40
55.65970999267404
 40
59.68986987024857
 40
59.68986987024857
 40
59.68986987024857
 10
2224.002950573996
 20
509.9994165013313
 30
0.0
 41
1.0
 10
2226.025537169614
 20
509.9992558727708
 30
0.0
 41
0.9943926353830946
 10
2228.002851650918
 20
509.5737162099958
 30
0.0
 41
1.0
 10
2243.002858820174
 20
506.3436294318254
 30
0.0
 41
0.7779834428478344
 10
2243.002905915515
 20
490.9997812942164
 30
0.0
 41
1.0
 10
2243.002953010856
 20
475.6559331566074
 30
0.0
 41
0.7779834428478344
 10
2228.002965670291
 20
472.4257542985388
 30
0.0
 41
1.0
 10
2226.025622398081
 20
471.9999434467178
 30
0.0
 41
0.9943794077836671
 10
2224.002950578362
 20
472.0000294540575
 30
0.0
 41
1.0
  0
SPLINE
  5
E3
330
1F
100
AcDbEntity
  8
Linee visibili 2D
100
AcDbSpline
210
0.0
220
0.0
230
1.0
 70
    24
 71
     2
 72
     6
 73
     3
 74
     0
 42
0.0000000001
 43
0.0000000001
 40
0.0
 40
0.0
 40
0.0
 40
0.5004668695319197
 40
0.5004668695319197
 40
0.5004668695319197
 10
2224.002950578362
 20
472.0000294540575
 30
0.0
 10
2224.002950577192
 20
471.7497960192916
 30
0.0
 10
2224.002950576022
 20
471.4995625845256
 30
0.0
  0
SPLINE
  5
E4
330
1F
100
AcDbEntity
  8
Linee visibili 2D
100
AcDbSpline
210
0.0
220
0.0
230
1.0
 70
    24
 71
     2
 72
     6
 73
     3
 74
     0
 42
0.0000000001
 43
0.0000000001
 40
0.0
 40
0.0
 40
0.0
 40
13.99956258452562
 40
13.99956258452562
 40
13.99956258452562
 10
2224.002950576022
 20
471.4995625845256
 30
0.0
 10
2224.002950577306
 20
464.4997812922628
 30
0.0
 10
2224.002950578591
 20
457.5
 30
0.0
  0
SPLINE
  5
E5
330
1F
100
AcDbEntity
  8
Linee visibili 2D
100
AcDbSpline
210
0.0
220
0.0
230
1.0
 70
    24
 71
     2
 72
     6
 73
     3
 74
     0
 42
0.0000000001
 43
0.0000000001
 40
0.0
 40
0.0
 40
0.0
 40
0.5
 40
0.5
 40
0.5
 10
2224.002950578591
 20
457.5
 30
0.0
 10
2224.002950578592
 20
457.25
 30
0.0
 10
2224.002950578595
 20
457.0
 30
0.0
  0
SPLINE
  5
E6
330
1F
100
AcDbEntity
  8
Linee visibili 2D
100
AcDbSpline
210
0.0
220
0.0
230
1.0
 70
    12
 71
     3
 72
    23
 73
    19
 74
     0
 42
0.0000000001
 43
0.0000000001
 40
-1707.899999641162
 40
-1707.899999641162
 40
-1707.899999641162
 40
-1707.899999641162
 40
-1706.899999641515
 40
-1706.899999641515
 40
-1706.899999641515
 40
-1680.196602376839
 40
-1680.196602376839
 40
-1680.196602376839
 40
-1653.493205112163
 40
-1653.493205112163
 40
-1653.493205112163
 40
-1626.789807847487
 40
-1626.789807847487
 40
-1626.789807847487
 40
-1600.086410582811
 40
-1600.086410582811
 40
-1600.086410582811
 40
-1599.086410582811
 40
-1599.086410582811
 40
-1599.086410582811
 40
-1599.086410582811
 10
2224.002950578594
 20
525.0000000000001
 30
0.0
 41
1.0
 10
2225.336283911675
 20
524.9999926609673
 30
0.0
 41
1.0
 10
2226.669617244755
 20
524.9999853219344
 30
0.0
 41
1.0
 10
2228.002950577898
 20
524.9999779829017
 30
0.0
 41
1.0
 10
2237.140780777767
 20
524.9999995753177
 30
0.0
 41
0.9492528709586423
 10
2245.583041268244
 20
521.5031183115228
 30
0.0
 41
0.9492528709586427
 10
2252.044470601792
 20
515.0417042457252
 30
0.0
 41
1.0
 10
2258.50589993534
 20
508.5802901799276
 30
0.0
 41
0.9492528709586425
 10
2262.002801147418
 20
500.1380379522873
 30
0.0
 41
0.9492528709586429
 10
2262.002801146862
 20
491.0002077523915
 30
0.0
 41
1.0
 10
2262.002801146306
 20
481.8623775524958
 30
0.0
 41
0.9492528709586429
 10
2258.505899933202
 20
473.4201253252809
 30
0.0
 41
0.9492528709586422
 10
2252.044470598867
 20
466.9587112602694
 30
0.0
 41
1.0
 10
2245.583041264533
 20
460.4972971952581
 30
0.0
 41
0.9492528709586424
 10
2237.14078077363
 20
457.0004159324902
 30
0.0
 41
0.9492528709586425
 10
2228.002950573761
 20
457.0004375260182
 30
0.0
 41
1.0
 10
2226.669617220802
 20
457.0002916840098
 30
0.0
 41
1.0
 10
2225.336283899699
 20
457.0001458420048
 30
0.0
 41
1.0
 10
2224.002950578595
 20
457.0
 30
0.0
 41
1.0
  0
SPLINE
  5
E7
330
1F
100
AcDbEntity
  8
Linee visibili 2D
100
AcDbSpline
210
0.0
220
0.0
230
1.0
 70
    24
 71
     2
 72
     6
 73
     3
 74
     0
 42
0.0000000001
 43
0.0000000001
 40
0.0
 40
0.0
 40
0.0
 40
0.5000000000001137
 40
0.5000000000001137
 40
0.5000000000001137
 10
2224.002950578594
 20
525.0000000000001
 30
0.0
 10
2224.002950578555
 20
524.75
 30
0.0
 10
2224.002950578517
 20
524.5
 30
0.0
  0
SPLINE
  5
E8
330
1F
100
AcDbEntity
  8
Linee visibili 2D
100
AcDbSpline
210
0.0
220
0.0
230
1.0
 70
    24
 71
     2
 72
     6
 73
     3
 74
     0
 42
0.0000000001
 43
0.0000000001
 40
0.0
 40
0.0
 40
0.0
 40
0.5000003358729753
 40
0.5000003358729753
 40
0.5000003358729753
 10
1683.902950583191
 20
509.9994165013313
 30
0.0
 10
1684.152950580893
 20
509.9997082506662
 30
0.0
 10
1684.402950578594
 20
510.000000000001
 30
0.0
  0
SPLINE
  5
E9
330
1F
100
AcDbEntity
  8
Linee visibili 2D
100
AcDbSpline
210
0.0
220
0.0
230
1.0
 70
    24
 71
     2
 72
     6
 73
     3
 74
     0
 42
0.0000000001
 43
0.0000000001
 40
0.0
 40
0.0
 40
0.0
 40
0.5000000613529194
 40
0.5000000613529194
 40
0.5000000613529194
 10
1684.402950578594
 20
471.9997812922638
 30
0.0
 10
1684.15295057871
 20
471.9999053731607
 30
0.0
 10
1683.902950578825
 20
472.0000294540575
 30
0.0
  0
SPLINE
  5
EA
330
1F
100
AcDbEntity
  8
Linee visibili 2D
100
AcDbSpline
210
0.0
220
0.0
230
1.0
 70
    24
 71
     2
 72
     6
 73
     3
 74
     0
 42
0.0000000001
 43
0.0000000001
 40
0.0
 40
0.0
 40
0.0
 40
0.5000003358728616
 40
0.5000003358728616
 40
0.5000003358728616
 10
2224.002950569005
 20
509.9994165013313
 30
0.0
 10
2223.752950571304
 20
509.9997082506662
 30
0.0
 10
2223.502950573603
 20
510.000000000001
 30
0.0
  0
SPLINE
  5
EB
330
1F
100
AcDbEntity
  8
Linee visibili 2D
100
AcDbSpline
210
0.0
220
0.0
230
1.0
 70
    24
 71
     2
 72
     6
 73
     3
 74
     0
 42
0.0000000001
 43
0.0000000001
 40
0.0
 40
0.0
 40
0.0
 40
0.5000000613530331
 40
0.5000000613530331
 40
0.5000000613530331
 10
2223.502950573603
 20
471.9997812922638
 30
0.0
 10
2223.752950573487
 20
471.9999053731607
 30
0.0
 10
2224.002950573371
 20
472.0000294540575
 30
0.0
  0
ENDSEC
  0
SECTION
  2
OBJECTS
  0
DICTIONARY
  5
C
330
0
100
AcDbDictionary
281
     1
  3
ACAD_GROUP
350
D
  3
ACAD_LAYOUT
350
1A
  3
ACAD_MLEADERSTYLE
350
EF
  3
ACAD_MLINESTYLE
350
17
  3
ACAD_PLOTSETTINGS
350
19
  3
ACAD_PLOTSTYLENAME
350
E
  3
ACAD_SCALELIST
350
3D
  3
ACAD_TABLESTYLE
350
EE
  3
ACAD_VISUALSTYLE
350
2A
  3
AcDbVariableDictionary
350
EC
  0
DICTIONARY
  5
D
102
{ACAD_REACTORS
330
C
102
}
330
C
100
AcDbDictionary
281
     1
  0
DICTIONARY
  5
1A
102
{ACAD_REACTORS
330
C
102
}
330
C
100
AcDbDictionary
281
     1
  3
Layout1
350
1E
  3
Layout2
350
26
  3
Model
350
22
  0
DICTIONARY
  5
EF
102
{ACAD_REACTORS
330
C
102
}
330
C
100
AcDbDictionary
281
     1
  0
DICTIONARY
  5
17
102
{ACAD_REACTORS
330
C
102
}
330
C
100
AcDbDictionary
281
     1
  3
Standard
350
18
  0
DICTIONARY
  5
19
102
{ACAD_REACTORS
330
C
102
}
330
C
100
AcDbDictionary
281
     1
  0
ACDBDICTIONARYWDFLT
  5
E
102
{ACAD_REACTORS
330
C
102
}
330
C
100
AcDbDictionary
281
     1
  3
Normal
350
F
100
AcDbDictionaryWithDefault
340
F
  0
DICTIONARY
  5
3D
102
{ACAD_REACTORS
330
C
102
}
330
C
100
AcDbDictionary
281
     1
  3
A0
350
3E
  3
A1
350
3F
  3
A2
350
40
  3
A3
350
41
  3
A4
350
42
  3
A5
350
43
  3
A6
350
44
  3
A7
350
45
  3
A8
350
46
  3
A9
350
47
  3
B0
350
48
  3
B1
350
49
  3
B2
350
4A
  3
B3
350
4B
  3
B4
350
4C
  3
B5
350
4D
  3
B6
350
4E
  3
B7
350
4F
  3
B8
350
50
  3
B9
350
51
  3
C0
350
52
  3
C1
350
53
  3
C2
350
54
  3
C3
350
55
  3
C4
350
56
  3
C5
350
57
  3
C6
350
58
  3
C7
350
59
  3
C8
350
5A
  3
C9
350
5B
  3
D0
350
5C
  3
D1
350
5D
  3
D2
350
5E
  0
DICTIONARY
  5
EE
102
{ACAD_REACTORS
330
C
102
}
330
C
100
AcDbDictionary
281
     1
  0
DICTIONARY
  5
2A
102
{ACAD_REACTORS
330
C
102
}
330
C
100
AcDbDictionary
281
     1
  3
2dWireframe
350
2F
  3
3D Hidden
350
31
  3
3dWireframe
350
30
  3
Basic
350
32
  3
Brighten
350
36
  3
ColorChange
350
3A
  3
Conceptual
350
34
  3
Dim
350
35
  3
Facepattern
350
39
  3
Flat
350
2B
  3
FlatWithEdges
350
2C
  3
Gouraud
350
2D
  3
GouraudWithEdges
350
2E
  3
Linepattern
350
38
  3
Realistic
350
33
  3
Thicken
350
37
  0
DICTIONARY
  5
EC
102
{ACAD_REACTORS
330
C
102
}
330
C
100
AcDbDictionary
281
     1
  3
CANNOSCALE
350
ED
  0
LAYOUT
  5
1E
102
{ACAD_REACTORS
330
1A
102
}
330
1A
100
AcDbPlotSettings
  1

  2
none_device
  4

  6

 40
0.0
 41
0.0
 42
0.0
 43
0.0
 44
0.0
 45
0.0
 46
0.0
 47
0.0
 48
0.0
 49
0.0
140
0.0
141
0.0
142
1.0
143
1.0
 70
   688
 72
     0
 73
     0
 74
     5
  7

 75
    16
 76
     0
 77
     2
 78
   300
147
1.0
148
0.0
149
0.0
100
AcDbLayout
  1
Layout1
 70
     1
 71
     1
 10
0.0
 20
0.0
 11
12.0
 21
9.0
 12
0.0
 22
0.0
 32
0.0
 14
1.000000000000000E+20
 24
1.000000000000000E+20
 34
1.000000000000000E+20
 15
-1.000000000000000E+20
 25
-1.000000000000000E+20
 35
-1.000000000000000E+20
146
0.0
 13
0.0
 23
0.0
 33
0.0
 16
1.0
 26
0.0
 36
0.0
 17
0.0
 27
1.0
 37
0.0
 76
     0
330
1B
  0
LAYOUT
  5
26
102
{ACAD_REACTORS
330
1A
102
}
330
1A
100
AcDbPlotSettings
  1

  2
none_device
  4

  6

 40
0.0
 41
0.0
 42
0.0
 43
0.0
 44
0.0
 45
0.0
 46
0.0
 47
0.0
 48
0.0
 49
0.0
140
0.0
141
0.0
142
1.0
143
1.0
 70
   688
 72
     0
 73
     0
 74
     5
  7

 75
    16
 76
     0
 77
     2
 78
   300
147
1.0
148
0.0
149
0.0
100
AcDbLayout
  1
Layout2
 70
     1
 71
     2
 10
0.0
 20
0.0
 11
0.0
 21
0.0
 12
0.0
 22
0.0
 32
0.0
 14
0.0
 24
0.0
 34
0.0
 15
0.0
 25
0.0
 35
0.0
146
0.0
 13
0.0
 23
0.0
 33
0.0
 16
1.0
 26
0.0
 36
0.0
 17
0.0
 27
1.0
 37
0.0
 76
     0
330
23
  0
LAYOUT
  5
22
102
{ACAD_REACTORS
330
1A
102
}
330
1A
100
AcDbPlotSettings
  1

  2
none_device
  4

  6

 40
0.0
 41
0.0
 42
0.0
 43
0.0
 44
0.0
 45
0.0
 46
0.0
 47
0.0
 48
0.0
 49
0.0
140
0.0
141
0.0
142
1.0
143
1.0
 70
  1712
 72
     0
 73
     0
 74
     0
  7

 75
     0
 76
     0
 77
     2
 78
   300
147
1.0
148
0.0
149
0.0
100
AcDbLayout
  1
Model
 70
     1
 71
     0
 10
0.0
 20
0.0
 11
12.0
 21
9.0
 12
0.0
 22
0.0
 32
0.0
 14
1547.445136030596
 24
457.0
 34
0.0
 15
2459.905463626803
 25
749.2626441233947
 35
0.0
146
0.0
 13
0.0
 23
0.0
 33
0.0
 16
1.0
 26
0.0
 36
0.0
 17
0.0
 27
1.0
 37
0.0
 76
     0
330
1F
331
29
  0
MLINESTYLE
  5
18
102
{ACAD_REACTORS
330
17
102
}
330
17
100
AcDbMlineStyle
  2
Standard
 70
     0
  3

 62
   256
 51
90.0
 52
90.0
 71
     2
 49
0.5
 62
   256
  6
BYLAYER
 49
-0.5
 62
   256
  6
BYLAYER
  0
ACDBPLACEHOLDER
  5
F
102
{ACAD_REACTORS
330
E
102
}
330
E
  0
SCALE
  5
3E
102
{ACAD_REACTORS
330
3D
102
}
330
3D
100
AcDbScale
 70
     0
300
1:1
140
1.0
141
1.0
290
     1
  0
SCALE
  5
3F
102
{ACAD_REACTORS
330
3D
102
}
330
3D
100
AcDbScale
 70
     0
300
1:2
140
1.0
141
2.0
290
     0
  0
SCALE
  5
40
102
{ACAD_REACTORS
330
3D
102
}
330
3D
100
AcDbScale
 70
     0
300
1:4
140
1.0
141
4.0
290
     0
  0
SCALE
  5
41
102
{ACAD_REACTORS
330
3D
102
}
330
3D
100
AcDbScale
 70
     0
300
1:5
140
1.0
141
5.0
290
     0
  0
SCALE
  5
42
102
{ACAD_REACTORS
330
3D
102
}
330
3D
100
AcDbScale
 70
     0
300
1:8
140
1.0
141
8.0
290
     0
  0
SCALE
  5
43
102
{ACAD_REACTORS
330
3D
102
}
330
3D
100
AcDbScale
 70
     0
300
1:10
140
1.0
141
10.0
290
     0
  0
SCALE
  5
44
102
{ACAD_REACTORS
330
3D
102
}
330
3D
100
AcDbScale
 70
     0
300
1:16
140
1.0
141
16.0
290
     0
  0
SCALE
  5
45
102
{ACAD_REACTORS
330
3D
102
}
330
3D
100
AcDbScale
 70
     0
300
1:20
140
1.0
141
20.0
290
     0
  0
SCALE
  5
46
102
{ACAD_REACTORS
330
3D
102
}
330
3D
100
AcDbScale
 70
     0
300
1:30
140
1.0
141
30.0
290
     0
  0
SCALE
  5
47
102
{ACAD_REACTORS
330
3D
102
}
330
3D
100
AcDbScale
 70
     0
300
1:40
140
1.0
141
40.0
290
     0
  0
SCALE
  5
48
102
{ACAD_REACTORS
330
3D
102
}
330
3D
100
AcDbScale
 70
     0
300
1:50
140
1.0
141
50.0
290
     0
  0
SCALE
  5
49
102
{ACAD_REACTORS
330
3D
102
}
330
3D
100
AcDbScale
 70
     0
300
1:100
140
1.0
141
100.0
290
     0
  0
SCALE
  5
4A
102
{ACAD_REACTORS
330
3D
102
}
330
3D
100
AcDbScale
 70
     0
300
2:1
140
2.0
141
1.0
290
     0
  0
SCALE
  5
4B
102
{ACAD_REACTORS
330
3D
102
}
330
3D
100
AcDbScale
 70
     0
300
4:1
140
4.0
141
1.0
290
     0
  0
SCALE
  5
4C
102
{ACAD_REACTORS
330
3D
102
}
330
3D
100
AcDbScale
 70
     0
300
8:1
140
8.0
141
1.0
290
     0
  0
SCALE
  5
4D
102
{ACAD_REACTORS
330
3D
102
}
330
3D
100
AcDbScale
 70
     0
300
10:1
140
10.0
141
1.0
290
     0
  0
SCALE
  5
4E
102
{ACAD_REACTORS
330
3D
102
}
330
3D
100
AcDbScale
 70
     0
300
100:1
140
100.0
141
1.0
290
     0
  0
SCALE
  5
4F
102
{ACAD_REACTORS
330
3D
102
}
330
3D
100
AcDbScale
 70
     0
300
1/128" = 1'-0"
140
0.0078125
141
12.0
290
     0
  0
SCALE
  5
50
102
{ACAD_REACTORS
330
3D
102
}
330
3D
100
AcDbScale
 70
     0
300
1/64" = 1'-0"
140
0.015625
141
12.0
290
     0
  0
SCALE
  5
51
102
{ACAD_REACTORS
330
3D
102
}
330
3D
100
AcDbScale
 70
     0
300
1/32" = 1'-0"
140
0.03125
141
12.0
290
     0
  0
SCALE
  5
52
102
{ACAD_REACTORS
330
3D
102
}
330
3D
100
AcDbScale
 70
     0
300
1/16" = 1'-0"
140
0.0625
141
12.0
290
     0
  0
SCALE
  5
53
102
{ACAD_REACTORS
330
3D
102
}
330
3D
100
AcDbScale
 70
     0
300
3/32" = 1'-0"
140
0.09375
141
12.0
290
     0
  0
SCALE
  5
54
102
{ACAD_REACTORS
330
3D
102
}
330
3D
100
AcDbScale
 70
     0
300
1/8" = 1'-0"
140
0.125
141
12.0
290
     0
  0
SCALE
  5
55
102
{ACAD_REACTORS
330
3D
102
}
330
3D
100
AcDbScale
 70
     0
300
3/16" = 1'-0"
140
0.1875
141
12.0
290
     0
  0
SCALE
  5
56
102
{ACAD_REACTORS
330
3D
102
}
330
3D
100
AcDbScale
 70
     0
300
1/4" = 1'-0"
140
0.25
141
12.0
290
     0
  0
SCALE
  5
57
102
{ACAD_REACTORS
330
3D
102
}
330
3D
100
AcDbScale
 70
     0
300
3/8" = 1'-0"
140
0.375
141
12.0
290
     0
  0
SCALE
  5
58
102
{ACAD_REACTORS
330
3D
102
}
330
3D
100
AcDbScale
 70
     0
300
1/2" = 1'-0"
140
0.5
141
12.0
290
     0
  0
SCALE
  5
59
102
{ACAD_REACTORS
330
3D
102
}
330
3D
100
AcDbScale
 70
     0
300
3/4" = 1'-0"
140
0.75
141
12.0
290
     0
  0
SCALE
  5
5A
102
{ACAD_REACTORS
330
3D
102
}
330
3D
100
AcDbScale
 70
     0
300
1" = 1'-0"
140
1.0
141
12.0
290
     0
  0
SCALE
  5
5B
102
{ACAD_REACTORS
330
3D
102
}
330
3D
100
AcDbScale
 70
     0
300
1-1/2" = 1'-0"
140
1.5
141
12.0
290
     0
  0
SCALE
  5
5C
102
{ACAD_REACTORS
330
3D
102
}
330
3D
100
AcDbScale
 70
     0
300
3" = 1'-0"
140
3.0
141
12.0
290
     0
  0
SCALE
  5
5D
102
{ACAD_REACTORS
330
3D
102
}
330
3D
100
AcDbScale
 70
     0
300
6" = 1'-0"
140
6.0
141
12.0
290
     0
  0
SCALE
  5
5E
102
{ACAD_REACTORS
330
3D
102
}
330
3D
100
AcDbScale
 70
     0
300
1'-0" = 1'-0"
140
12.0
141
12.0
290
     0
  0
VISUALSTYLE
  5
2F
102
{ACAD_REACTORS
330
2A
102
}
330
2A
100
AcDbVisualStyle
  2
2dWireframe
 70
     4
 71
     0
 72
     2
 73
     0
 90
        0
 40
-0.6
 41
-30.0
 62
     5
 63
     7
421
 16777215
 74
     1
 91
        4
 64
     7
 65
   257
 75
     1
175
     1
 42
1.0
 92
        0
 66
   257
 43
1.0
 76
     1
 77
     6
 78
     2
 67
     7
 79
     5
170
     0
171
     0
290
     0
174
     0
 93
        1
 44
0.0
173
     0
291
     0
 45
0.0
1001
ACAD
1000
AcDbSavedByObjectVersion
1070
     0
  0
VISUALSTYLE
  5
31
102
{ACAD_REACTORS
330
2A
102
}
330
2A
100
AcDbVisualStyle
  2
3D Hidden
 70
     6
 71
     1
 72
     2
 73
     2
 90
        0
 40
-0.6
 41
-30.0
 62
     5
 63
     7
421
 16777215
 74
     2
 91
        2
 64
     7
 65
   257
 75
     2
175
     1
 42
40.0
 92
        0
 66
   257
 43
1.0
 76
     1
 77
     6
 78
     2
 67
     7
 79
     3
170
     0
171
     0
290
     0
174
     0
 93
        1
 44
0.0
173
     0
291
     0
 45
0.0
1001
ACAD
1000
AcDbSavedByObjectVersion
1070
     0
  0
VISUALSTYLE
  5
30
102
{ACAD_REACTORS
330
2A
102
}
330
2A
100
AcDbVisualStyle
  2
3dWireframe
 70
     5
 71
     0
 72
     2
 73
     0
 90
        0
 40
-0.6
 41
-30.0
 62
     5
 63
     7
421
 16777215
 74
     1
 91
        4
 64
     7
 65
   257
 75
     1
175
     1
 42
1.0
 92
        0
 66
   257
 43
1.0
 76
     1
 77
     6
 78
     2
 67
     7
 79
     5
170
     0
171
     0
290
     0
174
     0
 93
        1
 44
0.0
173
     0
291
     0
 45
0.0
1001
ACAD
1000
AcDbSavedByObjectVersion
1070
     0
  0
VISUALSTYLE
  5
32
102
{ACAD_REACTORS
330
2A
102
}
330
2A
100
AcDbVisualStyle
  2
Basic
 70
     7
 71
     1
 72
     0
 73
     1
 90
        0
 40
-0.6
 41
-30.0
 62
     5
 63
     7
421
 16777215
 74
     0
 91
        4
 64
     7
 65
   257
 75
     1
175
     1
 42
1.0
 92
        8
 66
     7
 43
1.0
 76
     1
 77
     6
 78
     2
 67
     7
 79
     5
170
     0
171
     0
290
     0
174
     0
 93
        1
 44
0.0
173
     0
291
     1
 45
0.0
1001
ACAD
1000
AcDbSavedByObjectVersion
1070
     0
  0
VISUALSTYLE
  5
36
102
{ACAD_REACTORS
330
2A
102
}
330
2A
100
AcDbVisualStyle
  2
Brighten
 70
    12
 71
     2
 72
     2
 73
     0
 90
        0
 40
-0.6
 41
-30.0
 62
     5
 63
     7
421
 16777215
 74
     1
 91
        4
 64
     7
 65
   257
 75
     1
175
     1
 42
1.0
 92
        8
 66
     7
 43
1.0
 76
     1
 77
     6
 78
     2
 67
     7
 79
     5
170
     0
171
     0
290
     0
174
     0
 93
        1
 44
50.0
173
     0
291
     1
 45
0.0
1001
ACAD
1000
AcDbSavedByObjectVersion
1070
     0
  0
VISUALSTYLE
  5
3A
102
{ACAD_REACTORS
330
2A
102
}
330
2A
100
AcDbVisualStyle
  2
ColorChange
 70
    16
 71
     2
 72
     2
 73
     3
 90
        0
 40
-0.6
 41
-30.0
 62
     5
 63
     8
421
  8421504
 74
     1
 91
        4
 64
     7
 65
   257
 75
     1
175
     1
 42
1.0
 92
        8
 66
     8
424
  8421504
 43
1.0
 76
     1
 77
     6
 78
     2
 67
     7
 79
     5
170
     0
171
     0
290
     0
174
     0
 93
        1
 44
0.0
173
     0
291
     1
 45
0.0
1001
ACAD
1000
AcDbSavedByObjectVersion
1070
     0
  0
VISUALSTYLE
  5
34
102
{ACAD_REACTORS
330
2A
102
}
330
2A
100
AcDbVisualStyle
  2
Conceptual
 70
     9
 71
     3
 72
     2
 73
     0
 90
        0
 40
-0.6
 41
-30.0
 62
     5
 63
     7
421
 16777215
 74
     2
 91
        2
 64
     7
 65
   257
 75
     1
175
     1
 42
40.0
 92
        8
 66
     7
 43
1.0
 76
     1
 77
     6
 78
     2
 67
     7
 79
     3
170
     0
171
     0
290
     0
174
     0
 93
        1
 44
0.0
173
     0
291
     0
 45
0.0
1001
ACAD
1000
AcDbSavedByObjectVersion
1070
     0
  0
VISUALSTYLE
  5
35
102
{ACAD_REACTORS
330
2A
102
}
330
2A
100
AcDbVisualStyle
  2
Dim
 70
    11
 71
     2
 72
     2
 73
     0
 90
        0
 40
-0.6
 41
-30.0
 62
     5
 63
     7
421
 16777215
 74
     1
 91
        4
 64
     7
 65
   257
 75
     1
175
     1
 42
1.0
 92
        8
 66
     7
 43
1.0
 76
     1
 77
     6
 78
     2
 67
     7
 79
     5
170
     0
171
     0
290
     0
174
     0
 93
        1
 44
-50.0
173
     0
291
     1
 45
0.0
1001
ACAD
1000
AcDbSavedByObjectVersion
1070
     0
  0
VISUALSTYLE
  5
39
102
{ACAD_REACTORS
330
2A
102
}
330
2A
100
AcDbVisualStyle
  2
Facepattern
 70
    15
 71
     2
 72
     2
 73
     0
 90
        0
 40
-0.6
 41
-30.0
 62
     5
 63
     7
421
 16777215
 74
     1
 91
        4
 64
     7
 65
   257
 75
     1
175
     1
 42
1.0
 92
        8
 66
     7
 43
1.0
 76
     1
 77
     6
 78
     2
 67
     7
 79
     5
170
     0
171
     0
290
     0
174
     0
 93
        1
 44
0.0
173
     0
291
     1
 45
0.0
1001
ACAD
1000
AcDbSavedByObjectVersion
1070
     0
  0
VISUALSTYLE
  5
2B
102
{ACAD_REACTORS
330
2A
102
}
330
2A
100
AcDbVisualStyle
  2
Flat
 70
     0
 71
     2
 72
     1
 73
     1
 90
        2
 40
-0.6
 41
30.0
 62
     5
 63
     7
421
 16777215
 74
     0
 91
        4
 64
     7
 65
   257
 75
     1
175
     1
 42
1.0
 92
        8
 66
     7
 43
1.0
 76
     1
 77
     6
 78
     2
 67
     7
 79
     5
170
     0
171
     0
290
     0
174
     0
 93
       13
 44
0.0
173
     0
291
     1
 45
0.0
1001
ACAD
1000
AcDbSavedByObjectVersion
1070
     0
  0
VISUALSTYLE
  5
2C
102
{ACAD_REACTORS
330
2A
102
}
330
2A
100
AcDbVisualStyle
  2
FlatWithEdges
 70
     1
 71
     2
 72
     1
 73
     1
 90
        2
 40
-0.6
 41
30.0
 62
     5
 63
     7
421
 16777215
 74
     1
 91
        4
 64
     7
 65
   257
 75
     1
175
     1
 42
1.0
 92
        0
 66
   257
 43
1.0
 76
     1
 77
     6
 78
     2
 67
     7
 79
     5
170
     0
171
     0
290
     0
174
     0
 93
       13
 44
0.0
173
     0
291
     1
 45
0.0
1001
ACAD
1000
AcDbSavedByObjectVersion
1070
     0
  0
VISUALSTYLE
  5
2D
102
{ACAD_REACTORS
330
2A
102
}
330
2A
100
AcDbVisualStyle
  2
Gouraud
 70
     2
 71
     2
 72
     2
 73
     1
 90
        2
 40
-0.6
 41
30.0
 62
     5
 63
     7
421
 16777215
 74
     0
 91
        4
 64
     7
 65
   257
 75
     1
175
     1
 42
1.0
 92
        0
 66
     7
 43
1.0
 76
     1
 77
     6
 78
     2
 67
     7
 79
     5
170
     0
171
     0
290
     0
174
     0
 93
       13
 44
0.0
173
     0
291
     1
 45
0.0
1001
ACAD
1000
AcDbSavedByObjectVersion
1070
     0
  0
VISUALSTYLE
  5
2E
102
{ACAD_REACTORS
330
2A
102
}
330
2A
100
AcDbVisualStyle
  2
GouraudWithEdges
 70
     3
 71
     2
 72
     2
 73
     1
 90
        2
 40
-0.6
 41
30.0
 62
     5
 63
     7
421
 16777215
 74
     1
 91
        4
 64
     7
 65
   257
 75
     1
175
     1
 42
1.0
 92
        0
 66
   257
 43
1.0
 76
     1
 77
     6
 78
     2
 67
     7
 79
     5
170
     0
171
     0
290
     0
174
     0
 93
       13
 44
0.0
173
     0
291
     1
 45
0.0
1001
ACAD
1000
AcDbSavedByObjectVersion
1070
     0
  0
VISUALSTYLE
  5
38
102
{ACAD_REACTORS
330
2A
102
}
330
2A
100
AcDbVisualStyle
  2
Linepattern
 70
    14
 71
     2
 72
     2
 73
     0
 90
        0
 40
-0.6
 41
-30.0
 62
     5
 63
     7
421
 16777215
 74
     1
 91
        4
 64
     7
 65
   257
 75
     7
175
     7
 42
1.0
 92
        8
 66
     7
 43
1.0
 76
     1
 77
     6
 78
     2
 67
     7
 79
     5
170
     0
171
     0
290
     0
174
     0
 93
        1
 44
0.0
173
     0
291
     1
 45
0.0
1001
ACAD
1000
AcDbSavedByObjectVersion
1070
     0
  0
VISUALSTYLE
  5
33
102
{ACAD_REACTORS
330
2A
102
}
330
2A
100
AcDbVisualStyle
  2
Realistic
 70
     8
 71
     2
 72
     2
 73
     0
 90
        0
 40
-0.6
 41
-30.0
 62
     5
 63
     7
421
 16777215
 74
     1
 91
        0
 64
     7
 65
   257
 75
     1
175
     1
 42
1.0
 92
        8
 66
     8
424
  7895160
 43
1.0
 76
     1
 77
     6
 78
     2
 67
     7
 79
     5
170
     0
171
     0
290
     0
174
     0
 93
       13
 44
0.0
173
     0
291
     0
 45
0.0
1001
ACAD
1000
AcDbSavedByObjectVersion
1070
     0
  0
VISUALSTYLE
  5
37
102
{ACAD_REACTORS
330
2A
102
}
330
2A
100
AcDbVisualStyle
  2
Thicken
 70
    13
 71
     2
 72
     2
 73
     0
 90
        0
 40
-0.6
 41
-30.0
 62
     5
 63
     7
421
 16777215
 74
     1
 91
        4
 64
     7
 65
   257
 75
     1
175
     1
 42
1.0
 92
       12
 66
     7
 43
1.0
 76
     1
 77
     6
 78
     2
 67
     7
 79
     5
170
     0
171
     0
290
     0
174
     0
 93
        1
 44
0.0
173
     0
291
     1
 45
0.0
1001
ACAD
1000
AcDbSavedByObjectVersion
1070
     0
  0
DICTIONARYVAR
  5
ED
102
{ACAD_REACTORS
330
EC
102
}
330
EC
100
DictionaryVariables
280
     0
  1
1:1
  0
ENDSEC
  0
EOF
