  0
SECTION
  2
HEADER
  9
$ACADVER
  1
AC1018
  9
$ACADMAINTVER
 70
     0
  9
$DWGCODEPAGE
  3
ANSI_1252
  9
$INSBASE
 10
0.0
 20
0.0
 30
0.0
  9
$EXTMIN
 10
970.7568152927961
 20
292.0000000234027
 30
0.0
  9
$EXTMAX
 10
1588.105860216309
 20
1082.650700477437
 30
0.0
  9
$LIMMIN
 10
0.0
 20
0.0
  9
$LIMMAX
 10
12.0
 20
9.0
  9
$ORTHOMODE
 70
     0
  9
$REGENMODE
 70
     1
  9
$FILLMODE
 70
     1
  9
$QTEXTMODE
 70
     0
  9
$MIRRTEXT
 70
     1
  9
$LTSCALE
 40
1.0
  9
$ATTMODE
 70
     1
  9
$TEXTSIZE
 40
0.2
  9
$TRACEWID
 40
0.05
  9
$TEXTSTYLE
  7
Standard
  9
$CLAYER
  8
Predefinito
  9
$CELTYPE
  6
ByLayer
  9
$CECOLOR
 62
   256
  9
$CELTSCALE
 40
1.0
  9
$DISPSILH
 70
     0
  9
$DIMSCALE
 40
1.0
  9
$DIMASZ
 40
0.18
  9
$DIMEXO
 40
0.0625
  9
$DIMDLI
 40
0.38
  9
$DIMRND
 40
0.0
  9
$DIMDLE
 40
0.0
  9
$DIMEXE
 40
0.18
  9
$DIMTP
 40
0.0
  9
$DIMTM
 40
0.0
  9
$DIMTXT
 40
0.18
  9
$DIMCEN
 40
0.09
  9
$DIMTSZ
 40
0.0
  9
$DIMTOL
 70
     0
  9
$DIMLIM
 70
     0
  9
$DIMTIH
 70
     1
  9
$DIMTOH
 70
     1
  9
$DIMSE1
 70
     0
  9
$DIMSE2
 70
     0
  9
$DIMTAD
 70
     0
  9
$DIMZIN
 70
     0
  9
$DIMBLK
  1

  9
$DIMASO
 70
     1
  9
$DIMSHO
 70
     1
  9
$DIMPOST
  1

  9
$DIMAPOST
  1

  9
$DIMALT
 70
     0
  9
$DIMALTD
 70
     2
  9
$DIMALTF
 40
25.4
  9
$DIMLFAC
 40
1.0
  9
$DIMTOFL
 70
     0
  9
$DIMTVP
 40
0.0
  9
$DIMTIX
 70
     0
  9
$DIMSOXD
 70
     0
  9
$DIMSAH
 70
     0
  9
$DIMBLK1
  1

  9
$DIMBLK2
  1

  9
$DIMSTYLE
  2
Standard
  9
$DIMCLRD
 70
     0
  9
$DIMCLRE
 70
     0
  9
$DIMCLRT
 70
     0
  9
$DIMTFAC
 40
1.0
  9
$DIMGAP
 40
0.09
  9
$DIMJUST
 70
     0
  9
$DIMSD1
 70
     0
  9
$DIMSD2
 70
     0
  9
$DIMTOLJ
 70
     1
  9
$DIMTZIN
 70
     0
  9
$DIMALTZ
 70
     0
  9
$DIMALTTZ
 70
     0
  9
$DIMUPT
 70
     0
  9
$DIMDEC
 70
     4
  9
$DIMTDEC
 70
     4
  9
$DIMALTU
 70
     2
  9
$DIMALTTD
 70
     2
  9
$DIMTXSTY
  7
Standard
  9
$DIMAUNIT
 70
     0
  9
$DIMADEC
 70
     0
  9
$DIMALTRND
 40
0.0
  9
$DIMAZIN
 70
     0
  9
$DIMDSEP
 70
    46
  9
$DIMATFIT
 70
     3
  9
$DIMFRAC
 70
     0
  9
$DIMLDRBLK
  1

  9
$DIMLUNIT
 70
     2
  9
$DIMLWD
 70
    -2
  9
$DIMLWE
 70
    -2
  9
$DIMTMOVE
 70
     2
  9
$LUNITS
 70
     2
  9
$LUPREC
 70
     3
  9
$SKETCHINC
 40
0.1
  9
$FILLETRAD
 40
0.5
  9
$AUNITS
 70
     0
  9
$AUPREC
 70
     0
  9
$MENU
  1
.
  9
$ELEVATION
 40
0.0
  9
$PELEVATION
 40
0.0
  9
$THICKNESS
 40
0.0
  9
$LIMCHECK
 70
     0
  9
$CHAMFERA
 40
0.5
  9
$CHAMFERB
 40
0.5
  9
$CHAMFERC
 40
1.0
  9
$CHAMFERD
 40
0.0
  9
$SKPOLY
 70
     0
  9
$TDCREATE
 40
2457421.757762002
  9
$TDUCREATE
 40
2457421.716095336
  9
$TDUPDATE
 40
2457421.757762014
  9
$TDUUPDATE
 40
2457421.716095347
  9
$TDINDWG
 40
0.0000000116
  9
$TDUSRTIMER
 40
0.0000000116
  9
$USRTIMER
 70
     1
  9
$ANGBASE
 50
0.0
  9
$ANGDIR
 70
     0
  9
$PDMODE
 70
     0
  9
$PDSIZE
 40
0.0
  9
$PLINEWID
 40
0.0
  9
$SPLFRAME
 70
     0
  9
$SPLINETYPE
 70
     6
  9
$SPLINESEGS
 70
     8
  9
$HANDSEED
  5
1D3
  9
$SURFTAB1
 70
     6
  9
$SURFTAB2
 70
     6
  9
$SURFTYPE
 70
     6
  9
$SURFU
 70
     6
  9
$SURFV
 70
     6
  9
$UCSBASE
  2

  9
$UCSNAME
  2

  9
$UCSORG
 10
0.0
 20
0.0
 30
0.0
  9
$UCSXDIR
 10
1.0
 20
0.0
 30
0.0
  9
$UCSYDIR
 10
0.0
 20
1.0
 30
0.0
  9
$UCSORTHOREF
  2

  9
$UCSORTHOVIEW
 70
     0
  9
$UCSORGTOP
 10
0.0
 20
0.0
 30
0.0
  9
$UCSORGBOTTOM
 10
0.0
 20
0.0
 30
0.0
  9
$UCSORGLEFT
 10
0.0
 20
0.0
 30
0.0
  9
$UCSORGRIGHT
 10
0.0
 20
0.0
 30
0.0
  9
$UCSORGFRONT
 10
0.0
 20
0.0
 30
0.0
  9
$UCSORGBACK
 10
0.0
 20
0.0
 30
0.0
  9
$PUCSBASE
  2

  9
$PUCSNAME
  2

  9
$PUCSORG
 10
0.0
 20
0.0
 30
0.0
  9
$PUCSXDIR
 10
1.0
 20
0.0
 30
0.0
  9
$PUCSYDIR
 10
0.0
 20
1.0
 30
0.0
  9
$PUCSORTHOREF
  2

  9
$PUCSORTHOVIEW
 70
     0
  9
$PUCSORGTOP
 10
0.0
 20
0.0
 30
0.0
  9
$PUCSORGBOTTOM
 10
0.0
 20
0.0
 30
0.0
  9
$PUCSORGLEFT
 10
0.0
 20
0.0
 30
0.0
  9
$PUCSORGRIGHT
 10
0.0
 20
0.0
 30
0.0
  9
$PUCSORGFRONT
 10
0.0
 20
0.0
 30
0.0
  9
$PUCSORGBACK
 10
0.0
 20
0.0
 30
0.0
  9
$USERI1
 70
     0
  9
$USERI2
 70
     0
  9
$USERI3
 70
     0
  9
$USERI4
 70
     0
  9
$USERI5
 70
     0
  9
$USERR1
 40
0.0
  9
$USERR2
 40
0.0
  9
$USERR3
 40
0.0
  9
$USERR4
 40
0.0
  9
$USERR5
 40
0.0
  9
$WORLDVIEW
 70
     1
  9
$SHADEDGE
 70
     3
  9
$SHADEDIF
 70
    70
  9
$TILEMODE
 70
     1
  9
$MAXACTVP
 70
    64
  9
$PINSBASE
 10
0.0
 20
0.0
 30
0.0
  9
$PLIMCHECK
 70
     0
  9
$PEXTMIN
 10
1.000000000000000E+20
 20
1.000000000000000E+20
 30
1.000000000000000E+20
  9
$PEXTMAX
 10
-1.000000000000000E+20
 20
-1.000000000000000E+20
 30
-1.000000000000000E+20
  9
$PLIMMIN
 10
0.0
 20
0.0
  9
$PLIMMAX
 10
12.0
 20
9.0
  9
$UNITMODE
 70
     0
  9
$VISRETAIN
 70
     1
  9
$PLINEGEN
 70
     0
  9
$PSLTSCALE
 70
     1
  9
$TREEDEPTH
 70
  3020
  9
$CMLSTYLE
  2
Standard
  9
$CMLJUST
 70
     0
  9
$CMLSCALE
 40
1.0
  9
$PROXYGRAPHICS
 70
     1
  9
$MEASUREMENT
 70
     0
  9
$CELWEIGHT
370
    -1
  9
$ENDCAPS
280
     0
  9
$JOINSTYLE
280
     0
  9
$LWDISPLAY
290
     0
  9
$INSUNITS
 70
     4
  9
$HYPERLINKBASE
  1

  9
$STYLESHEET
  1

  9
$XEDIT
290
     1
  9
$CEPSNTYPE
380
     0
  9
$PSTYLEMODE
290
     1
  9
$FINGERPRINTGUID
  2
{75FF0BCC-906E-4AF8-AA93-DE8652CEB461}
  9
$VERSIONGUID
  2
{FAEB1C32-E019-11D5-929B-00C0DF256EC4}
  9
$EXTNAMES
290
     1
  9
$PSVPSCALE
 40
0.0
  9
$OLESTARTUP
290
     0
  9
$SORTENTS
280
   127
  9
$INDEXCTL
280
     0
  9
$HIDETEXT
280
     1
  9
$XCLIPFRAME
290
     0
  9
$HALOGAP
280
     0
  9
$OBSCOLOR
 70
   257
  9
$OBSLTYPE
280
     0
  9
$INTERSECTIONDISPLAY
280
     0
  9
$INTERSECTIONCOLOR
 70
   257
  9
$DIMASSOC
280
     2
  9
$PROJECTNAME
  1

  0
ENDSEC
  0
SECTION
  2
CLASSES
  0
CLASS
  1
ACDBDICTIONARYWDFLT
  2
AcDbDictionaryWithDefault
  3
ObjectDBX Classes
 90
        0
 91
        4
280
     0
281
     0
  0
CLASS
  1
VISUALSTYLE
  2
AcDbVisualStyle
  3
ObjectDBX Classes
 90
     4095
 91
        4
280
     0
281
     0
  0
CLASS
  1
SCALE
  2
AcDbScale
  3
ObjectDBX Classes
 90
     1153
 91
        4
280
     0
281
     0
  0
CLASS
  1
DICTIONARYVAR
  2
AcDbDictionaryVar
  3
ObjectDBX Classes
 90
        0
 91
        4
280
     0
281
     0
  0
ENDSEC
  0
SECTION
  2
TABLES
  0
TABLE
  2
VPORT
  5
8
330
0
100
AcDbSymbolTable
 70
     1
  0
VPORT
  5
29
330
8
100
AcDbSymbolTableRecord
100
AcDbViewportTableRecord
  2
*Active
 70
     0
 10
0.0
 20
0.0
 11
1.0
 21
1.0
 12
1279.431337754552
 22
687.32535025042
 13
0.0
 23
0.0
 14
0.5
 24
0.5
 15
0.5
 25
0.5
 16
0.0
 26
0.0
 36
1.0
 17
0.0
 27
0.0
 37
0.0
 40
806.4637144631154
 41
0.7808113552153904
 42
50.0
 43
0.0
 44
0.0
 50
0.0
 51
0.0
 71
     0
 72
   100
 73
     1
 74
     3
 75
     0
 76
     0
 77
     0
 78
     0
281
     0
 65
     1
110
0.0
120
0.0
130
0.0
111
1.0
121
0.0
131
0.0
112
0.0
122
1.0
132
0.0
 79
     0
146
0.0
  0
ENDTAB
  0
TABLE
  2
LTYPE
  5
5
330
0
100
AcDbSymbolTable
 70
     1
  0
LTYPE
  5
14
330
5
100
AcDbSymbolTableRecord
100
AcDbLinetypeTableRecord
  2
ByBlock
 70
     0
  3

 72
    65
 73
     0
 40
0.0
  0
LTYPE
  5
15
330
5
100
AcDbSymbolTableRecord
100
AcDbLinetypeTableRecord
  2
ByLayer
 70
     0
  3

 72
    65
 73
     0
 40
0.0
  0
LTYPE
  5
16
330
5
100
AcDbSymbolTableRecord
100
AcDbLinetypeTableRecord
  2
Continuous
 70
     0
  3
Solid line
 72
    65
 73
     0
 40
0.0
  0
ENDTAB
  0
TABLE
  2
LAYER
  5
2
330
0
100
AcDbSymbolTable
 70
     5
  0
LAYER
  5
10
330
2
100
AcDbSymbolTableRecord
100
AcDbLayerTableRecord
  2
0
 70
     0
 62
     7
  6
Continuous
370
    -3
390
F
  0
LAYER
  5
3B
330
2
100
AcDbSymbolTableRecord
100
AcDbLayerTableRecord
  2
Predefinito
 70
     0
 62
     7
  6
Continuous
370
    -3
390
F
  0
LAYER
  5
61
330
2
100
AcDbSymbolTableRecord
100
AcDbLayerTableRecord
  2
Defpoints
 70
     0
 62
     7
  6
Continuous
290
     0
370
    -3
390
F
  0
LAYER
  5
7B
330
2
100
AcDbSymbolTableRecord
100
AcDbLayerTableRecord
  2
Linee visibili 2D
 70
     0
 62
     7
  6
Continuous
370
    -3
390
F
  0
LAYER
  5
87
330
2
100
AcDbSymbolTableRecord
100
AcDbLayerTableRecord
  2
Linee visibili 2D - Tangent
 70
     0
 62
     7
  6
Continuous
370
    -3
390
F
  0
ENDTAB
  0
TABLE
  2
STYLE
  5
3
330
0
100
AcDbSymbolTable
 70
     2
  0
STYLE
  5
11
330
3
100
AcDbSymbolTableRecord
100
AcDbTextStyleTableRecord
  2
Standard
 70
     0
 40
0.0
 41
1.0
 50
0.0
 71
     0
 42
0.2
  3
txt
  4

  0
STYLE
  5
5F
330
3
100
AcDbSymbolTableRecord
100
AcDbTextStyleTableRecord
  2
Predefinito
 70
     0
 40
0.0
 41
1.0
 50
0.0
 71
     0
 42
0.0
  3

  4

1001
ACAD
1000
Arial
1071
      256
  0
ENDTAB
  0
TABLE
  2
VIEW
  5
6
330
0
100
AcDbSymbolTable
 70
     0
  0
ENDTAB
  0
TABLE
  2
UCS
  5
7
330
0
100
AcDbSymbolTable
 70
     0
  0
ENDTAB
  0
TABLE
  2
APPID
  5
9
330
0
100
AcDbSymbolTable
 70
     1
  0
APPID
  5
12
330
9
100
AcDbSymbolTableRecord
100
AcDbRegAppTableRecord
  2
ACAD
 70
     0
  0
ENDTAB
  0
TABLE
  2
DIMSTYLE
  5
A
330
0
100
AcDbSymbolTable
 70
     2
100
AcDbDimStyleTable
  0
DIMSTYLE
105
27
330
A
100
AcDbSymbolTableRecord
100
AcDbDimStyleTableRecord
  2
Standard
 70
     0
340
11
  0
DIMSTYLE
105
60
102
{ACAD_REACTORS
330
3C
330
6E
102
}
330
A
100
AcDbSymbolTableRecord
100
AcDbDimStyleTableRecord
  2
Stile di quota 01
 70
     0
 40
10.0
 41
1.0
 42
0.5
 44
0.5
 73
     0
 77
     1
 78
     1
140
1.0
141
0.5
172
     1
174
     1
179
     2
271
     2
284
     1
340
5F
  0
ENDTAB
  0
TABLE
  2
BLOCK_RECORD
  5
1
330
0
100
AcDbSymbolTable
 70
     3
  0
BLOCK_RECORD
  5
1F
330
1
100
AcDbSymbolTableRecord
100
AcDbBlockTableRecord
  2
*Model_Space
340
22
  0
BLOCK_RECORD
  5
1B
330
1
100
AcDbSymbolTableRecord
100
AcDbBlockTableRecord
  2
*Paper_Space
340
1E
  0
BLOCK_RECORD
  5
23
330
1
100
AcDbSymbolTableRecord
100
AcDbBlockTableRecord
  2
*Paper_Space0
340
26
  0
BLOCK_RECORD
  5
62
330
1
100
AcDbSymbolTableRecord
100
AcDbBlockTableRecord
  2
*D1
340
0
  0
BLOCK_RECORD
  5
6F
330
1
100
AcDbSymbolTableRecord
100
AcDbBlockTableRecord
  2
*D2
340
0
  0
ENDTAB
  0
ENDSEC
  0
SECTION
  2
BLOCKS
  0
BLOCK
  5
20
330
1F
100
AcDbEntity
  8
0
100
AcDbBlockBegin
  2
*Model_Space
 70
     0
 10
0.0
 20
0.0
 30
0.0
  3
*Model_Space
  1

  0
ENDBLK
  5
21
330
1F
100
AcDbEntity
  8
0
100
AcDbBlockEnd
  0
BLOCK
  5
1C
330
1B
100
AcDbEntity
 67
     1
  8
0
100
AcDbBlockBegin
  2
*Paper_Space
 70
     0
 10
0.0
 20
0.0
 30
0.0
  3
*Paper_Space
  1

  0
ENDBLK
  5
1D
330
1B
100
AcDbEntity
 67
     1
  8
0
100
AcDbBlockEnd
  0
BLOCK
  5
24
330
23
100
AcDbEntity
  8
0
100
AcDbBlockBegin
  2
*Paper_Space0
 70
     0
 10
0.0
 20
0.0
 30
0.0
  3
*Paper_Space0
  1

  0
ENDBLK
  5
25
330
23
100
AcDbEntity
  8
0
100
AcDbBlockEnd
  0
BLOCK
  5
6C
330
62
100
AcDbEntity
  8
0
100
AcDbBlockBegin
  2
*D1
 70
     1
 10
0.0
 20
0.0
 30
0.0
  3
*D1
  1

  0
LINE
  5
63
330
62
100
AcDbEntity
  8
Predefinito
 62
     0
370
    -2
100
AcDbLine
 10
1164.349044923513
 20
849.1607004774371
 30
0.0
 11
1164.349044923513
 21
1076.160700477437
 31
0.0
  0
LINE
  5
64
330
62
100
AcDbEntity
  8
Predefinito
 62
     0
370
    -2
100
AcDbLine
 10
970.7568152927961
 20
849.1607004774371
 30
0.0
 11
970.7568152927961
 21
1076.160700477437
 31
0.0
  0
LINE
  5
65
330
62
100
AcDbEntity
  8
Predefinito
 62
     0
370
    -2
100
AcDbLine
 10
1154.349044923513
 20
1071.160700477437
 30
0.0
 11
980.7568152927961
 21
1071.160700477437
 31
0.0
  0
SOLID
  5
66
330
62
100
AcDbEntity
  8
Predefinito
 62
     0
100
AcDbTrace
 10
1154.349044923513
 20
1069.49403381077
 30
0.0
 11
1154.349044923513
 21
1072.827367144104
 31
0.0
 12
1164.349044923513
 22
1071.160700477437
 32
0.0
 13
1164.349044923513
 23
1071.160700477437
 33
0.0
  0
SOLID
  5
67
330
62
100
AcDbEntity
  8
Predefinito
 62
     0
100
AcDbTrace
 10
980.7568152927961
 20
1072.827367144104
 30
0.0
 11
980.7568152927961
 21
1069.49403381077
 31
0.0
 12
970.7568152927961
 22
1071.160700477437
 32
0.0
 13
970.7568152927961
 23
1071.160700477437
 33
0.0
  0
MTEXT
  5
68
330
62
100
AcDbEntity
  8
Predefinito
 62
     0
100
AcDbMText
 10
1067.552930108154
 20
1077.345700477437
 30
0.0
 40
10.0
 41
0.0
 71
     5
 72
     1
  1
\A1;ø 195
  7
Predefinito
 73
     1
 44
1.0
  0
POINT
  5
69
330
62
100
AcDbEntity
  8
Defpoints
 62
     0
100
AcDbPoint
 10
1164.349044923513
 20
844.1607004774371
 30
0.0
  0
POINT
  5
6A
330
62
100
AcDbEntity
  8
Defpoints
 62
     0
100
AcDbPoint
 10
970.7568152927961
 20
844.1607004774371
 30
0.0
  0
POINT
  5
6B
330
62
100
AcDbEntity
  8
Defpoints
 62
     0
100
AcDbPoint
 10
970.7568152927961
 20
1071.160700477437
 30
0.0
  0
ENDBLK
  5
6D
330
62
100
AcDbEntity
  8
0
100
AcDbBlockEnd
  0
BLOCK
  5
79
330
6F
100
AcDbEntity
  8
0
100
AcDbBlockBegin
  2
*D2
 70
     1
 10
0.0
 20
0.0
 30
0.0
  3
*D2
  1

  0
LINE
  5
70
330
6F
100
AcDbEntity
  8
Predefinito
 62
     0
370
    -2
100
AcDbLine
 10
1326.209745400949
 20
844.3607004774371
 30
0.0
 11
1326.209745400949
 21
1076.160700477437
 31
0.0
  0
LINE
  5
71
330
6F
100
AcDbEntity
  8
Predefinito
 62
     0
370
    -2
100
AcDbLine
 10
1587.792228797131
 20
848.8617986164247
 30
0.0
 11
1587.792228797131
 21
1076.160700477437
 31
0.0
  0
LINE
  5
72
330
6F
100
AcDbEntity
  8
Predefinito
 62
     0
370
    -2
100
AcDbLine
 10
1336.209745400949
 20
1071.160700477437
 30
0.0
 11
1577.792228797131
 21
1071.160700477437
 31
0.0
  0
SOLID
  5
73
330
6F
100
AcDbEntity
  8
Predefinito
 62
     0
100
AcDbTrace
 10
1336.209745400949
 20
1072.827367144104
 30
0.0
 11
1336.209745400949
 21
1069.49403381077
 31
0.0
 12
1326.209745400949
 22
1071.160700477437
 32
0.0
 13
1326.209745400949
 23
1071.160700477437
 33
0.0
  0
SOLID
  5
74
330
6F
100
AcDbEntity
  8
Predefinito
 62
     0
100
AcDbTrace
 10
1577.792228797131
 20
1069.49403381077
 30
0.0
 11
1577.792228797131
 21
1072.827367144104
 31
0.0
 12
1587.792228797131
 22
1071.160700477437
 32
0.0
 13
1587.792228797131
 23
1071.160700477437
 33
0.0
  0
MTEXT
  5
75
330
6F
100
AcDbEntity
  8
Predefinito
 62
     0
100
AcDbMText
 10
1457.00098709904
 20
1077.165700477437
 30
0.0
 40
10.0
 41
0.0
 71
     5
 72
     1
  1
\A1;260
  7
Predefinito
 73
     1
 44
1.0
  0
POINT
  5
76
330
6F
100
AcDbEntity
  8
Defpoints
 62
     0
100
AcDbPoint
 10
1326.209745400949
 20
839.3607004774371
 30
0.0
  0
POINT
  5
77
330
6F
100
AcDbEntity
  8
Defpoints
 62
     0
100
AcDbPoint
 10
1587.792228797131
 20
843.8617986164247
 30
0.0
  0
POINT
  5
78
330
6F
100
AcDbEntity
  8
Defpoints
 62
     0
100
AcDbPoint
 10
1587.792228797131
 20
1071.160700477437
 30
0.0
  0
ENDBLK
  5
7A
330
6F
100
AcDbEntity
  8
0
100
AcDbBlockEnd
  0
ENDSEC
  0
SECTION
  2
ENTITIES
  0
DIMENSION
  5
3C
330
1F
100
AcDbEntity
  8
Predefinito
100
AcDbDimension
  2
*D1
 10
970.7568152927961
 20
1071.160700477437
 30
0.0
 11
1067.552930108154
 21
1077.345700477437
 31
0.0
 70
    32
  1
ø 195
 71
     5
 42
193.5922296307167
  3
Stile di quota 01
100
AcDbAlignedDimension
 13
1164.349044923513
 23
844.1607004774371
 33
0.0
 14
970.7568152927961
 24
844.1607004774371
 34
0.0
100
AcDbRotatedDimension
1001
ACAD
1000
DSTYLE
1002
{
1070
   279
1070
     1
1002
}
  0
DIMENSION
  5
6E
330
1F
100
AcDbEntity
  8
Predefinito
100
AcDbDimension
  2
*D2
 10
1587.792228797131
 20
1071.160700477437
 30
0.0
 11
1457.00098709904
 21
1077.165700477437
 31
0.0
 70
    32
  1
260
 71
     5
 42
261.582483396181
  3
Stile di quota 01
100
AcDbAlignedDimension
 13
1326.209745400949
 23
839.3607004774371
 33
0.0
 14
1587.792228797131
 24
843.8617986164247
 34
0.0
100
AcDbRotatedDimension
1001
ACAD
1000
DSTYLE
1002
{
1070
   279
1070
     1
1002
}
  0
SPLINE
  5
7C
330
1F
100
AcDbEntity
  8
Linee visibili 2D
100
AcDbSpline
210
0.0
220
0.0
230
1.0
 70
    24
 71
     2
 72
     6
 73
     3
 74
     0
 42
0.0000000001
 43
0.0000000001
 40
0.0
 40
0.0
 40
0.0
 40
4.0
 40
4.0
 40
4.0
 10
1345.20974540095
 20
846.3607004774371
 30
0.0
 10
1343.20974540095
 20
846.3607004774371
 30
0.0
 10
1341.20974540095
 20
846.3607004774371
 30
0.0
  0
SPLINE
  5
7D
330
1F
100
AcDbEntity
  8
Linee visibili 2D
100
AcDbSpline
210
0.0
220
0.0
230
1.0
 70
    24
 71
     2
 72
     6
 73
     3
 74
     0
 42
0.0000000001
 43
0.0000000001
 40
0.0
 40
0.0
 40
0.0
 40
4.0
 40
4.0
 40
4.0
 10
1341.20974540095
 20
716.3607004774371
 30
0.0
 10
1343.20974540095
 20
716.3607004774371
 30
0.0
 10
1345.20974540095
 20
716.3607004774371
 30
0.0
  0
SPLINE
  5
7E
330
1F
100
AcDbEntity
  8
Linee visibili 2D
100
AcDbSpline
210
0.0
220
0.0
230
1.0
 70
    24
 71
     2
 72
     6
 73
     3
 74
     0
 42
0.0000000001
 43
0.0000000001
 40
0.0
 40
0.0
 40
0.0
 40
15.00000000000003
 40
15.00000000000003
 40
15.00000000000003
 10
1341.209745400949
 20
839.3607004774371
 30
0.0
 10
1333.709745400949
 20
839.3607004774371
 30
0.0
 10
1326.209745400949
 20
839.3607004774371
 30
0.0
  0
SPLINE
  5
7F
330
1F
100
AcDbEntity
  8
Linee visibili 2D
100
AcDbSpline
210
0.0
220
0.0
230
1.0
 70
    24
 71
     2
 72
     6
 73
     3
 74
     0
 42
0.0000000001
 43
0.0000000001
 40
0.0
 40
0.0
 40
0.0
 40
15.00000000000003
 40
15.00000000000003
 40
15.00000000000003
 10
1326.209745400949
 20
723.3607004774371
 30
0.0
 10
1333.709745400949
 20
723.3607004774371
 30
0.0
 10
1341.209745400949
 20
723.3607004774371
 30
0.0
  0
SPLINE
  5
80
330
1F
100
AcDbEntity
  8
Linee visibili 2D
100
AcDbSpline
210
0.0
220
0.0
230
1.0
 70
    12
 71
     2
 72
     8
 73
     5
 74
     0
 42
0.0000000001
 43
0.0000000001
 40
0.0
 40
0.0
 40
0.0
 40
0.2421322207174197
 40
0.2421322207174197
 40
0.4842644414348395
 40
0.4842644414348395
 40
0.4842644414348395
 10
1587.792228797131
 20
843.8617986164247
 30
0.0
 41
1.0
 10
1587.920204019548
 20
843.8558110884117
 30
0.0
 41
0.9194746546911587
 10
1588.012946786132
 20
843.9441982327869
 30
0.0
 41
1.0
 10
1588.105689552717
 20
844.032585377162
 30
0.0
 41
0.9194746546911587
 10
1588.105860216309
 20
844.1607004774371
 30
0.0
 41
1.0
  0
SPLINE
  5
81
330
1F
100
AcDbEntity
  8
Linee visibili 2D
100
AcDbSpline
210
0.0
220
0.0
230
1.0
 70
    12
 71
     2
 72
     6
 73
     3
 74
     0
 42
0.0000000001
 43
0.0000000001
 40
0.0
 40
0.0
 40
0.0
 40
0.6117392487365887
 40
0.6117392487365887
 40
0.6117392487365887
 10
1443.491247329975
 20
978.860700477437
 30
0.0
 41
1.0
 10
1443.140935638678
 20
978.8596680761547
 30
0.0
 41
0.8201236764913392
 10
1443.020974986285
 20
978.5305346855831
 30
0.0
 41
1.0
  0
SPLINE
  5
82
330
1F
100
AcDbEntity
  8
Linee visibili 2D
100
AcDbSpline
210
0.0
220
0.0
230
1.0
 70
    24
 71
     2
 72
     6
 73
     3
 74
     0
 42
0.0000000001
 43
0.0000000001
 40
0.0
 40
0.0
 40
0.0
 40
130.1920965278946
 40
130.1920965278946
 40
130.1920965278946
 10
1443.020974986285
 20
978.5305346855831
 30
0.0
 10
1420.909903365608
 20
917.3047557083624
 30
0.0
 10
1398.798831744932
 20
856.0789767311418
 30
0.0
  0
SPLINE
  5
83
330
1F
100
AcDbEntity
  8
Linee visibili 2D
100
AcDbSpline
210
0.0
220
0.0
230
1.0
 70
    24
 71
     2
 72
     6
 73
     3
 74
     0
 42
0.0000000001
 43
0.0000000001
 40
0.0
 40
0.0
 40
0.0
 40
0.323560422804519
 40
0.323560422804519
 40
0.323560422804519
 10
1433.174560959104
 20
743.8607004774366
 30
0.0
 10
1433.012780747702
 20
743.8607004774364
 30
0.0
 10
1432.8510005363
 20
743.8607004774361
 30
0.0
  0
SPLINE
  5
84
330
1F
100
AcDbEntity
  8
Linee visibili 2D
100
AcDbSpline
210
0.0
220
0.0
230
1.0
 70
    24
 71
     2
 72
     6
 73
     3
 74
     0
 42
0.0000000001
 43
0.0000000001
 40
0.0
 40
0.0
 40
0.0
 40
0.3235604228044622
 40
0.3235604228044622
 40
0.3235604228044622
 10
1442.5578132204
 20
743.8607004774371
 30
0.0
 10
1442.396033008998
 20
743.8607004774369
 30
0.0
 10
1442.234252797596
 20
743.8607004774366
 30
0.0
  0
SPLINE
  5
85
330
1F
100
AcDbEntity
  8
Linee visibili 2D
100
AcDbSpline
210
0.0
220
0.0
230
1.0
 70
    24
 71
     2
 72
     6
 73
     3
 74
     0
 42
0.0000000001
 43
0.0000000001
 40
0.0
 40
0.0
 40
0.0
 40
253.455664529232
 40
253.455664529232
 40
253.455664529232
 10
1432.8510005363
 20
743.8607004774361
 30
0.0
 10
1385.37791900067
 20
861.3607004774365
 30
0.0
 10
1337.90483746504
 20
978.8607004774369
 30
0.0
  0
SPLINE
  5
86
330
1F
100
AcDbEntity
  8
Linee visibili 2D
100
AcDbSpline
210
0.0
220
0.0
230
1.0
 70
    24
 71
     2
 72
     6
 73
     3
 74
     0
 42
0.0000000001
 43
0.0000000001
 40
0.0
 40
0.0
 40
0.0
 40
9.059691838491688
 40
9.059691838491688
 40
9.059691838491688
 10
1433.174560959104
 20
743.8607004774366
 30
0.0
 10
1437.70440687835
 20
743.8607004774366
 30
0.0
 10
1442.234252797596
 20
743.8607004774366
 30
0.0
  0
SPLINE
  5
88
330
1F
100
AcDbEntity
  8
Linee visibili 2D - Tangent
100
AcDbSpline
210
0.0
220
0.0
230
1.0
 70
    24
 71
     2
 72
     6
 73
     3
 74
     0
 42
0.0000000001
 43
0.0000000001
 40
0.0
 40
0.0
 40
0.0
 40
253.4556645292322
 40
253.4556645292322
 40
253.4556645292322
 10
1338.228397887844
 20
978.8607004774371
 30
0.0
 10
1385.701479423474
 20
861.3607004774369
 30
0.0
 10
1433.174560959104
 20
743.8607004774366
 30
0.0
  0
SPLINE
  5
89
330
1F
100
AcDbEntity
  8
Linee visibili 2D - Tangent
100
AcDbSpline
210
0.0
220
0.0
230
1.0
 70
    24
 71
     2
 72
     6
 73
     3
 74
     0
 42
0.0000000001
 43
0.0000000001
 40
0.0
 40
0.0
 40
0.0
 40
135.7375721710632
 40
135.7375721710632
 40
135.7375721710632
 10
1398.136279235883
 20
853.007015102333
 30
0.0
 10
1372.712184481109
 20
915.933857789885
 30
0.0
 10
1347.288089726335
 20
978.8607004774371
 30
0.0
  0
SPLINE
  5
8A
330
1F
100
AcDbEntity
  8
Linee visibili 2D - Tangent
100
AcDbSpline
210
0.0
220
0.0
230
1.0
 70
    24
 71
     2
 72
     6
 73
     3
 74
     0
 42
0.0000000001
 43
0.0000000001
 40
0.0
 40
0.0
 40
0.0
 40
107.8534742676606
 40
107.8534742676606
 40
107.8534742676606
 10
1442.234252797596
 20
743.8607004774366
 30
0.0
 10
1422.032941505857
 20
793.8607004773914
 30
0.0
 10
1401.831630214117
 20
843.8607004773462
 30
0.0
  0
SPLINE
  5
8B
330
1F
100
AcDbEntity
  8
Linee visibili 2D
100
AcDbSpline
210
0.0
220
0.0
230
1.0
 70
    24
 71
     2
 72
     6
 73
     3
 74
     0
 42
0.0000000001
 43
0.0000000001
 40
0.0
 40
0.0
 40
0.0
 40
0.3235604228031264
 40
0.3235604228031264
 40
0.3235604228031264
 10
1347.288089726335
 20
978.860700477437
 30
0.0
 10
1347.449869937737
 20
978.8607004774371
 30
0.0
 10
1347.611650149139
 20
978.8607004774371
 30
0.0
  0
SPLINE
  5
8C
330
1F
100
AcDbEntity
  8
Linee visibili 2D
100
AcDbSpline
210
0.0
220
0.0
230
1.0
 70
    24
 71
     2
 72
     6
 73
     3
 74
     0
 42
0.0000000001
 43
0.0000000001
 40
0.0
 40
0.0
 40
0.0
 40
9.059691838491972
 40
9.059691838491972
 40
9.059691838491972
 10
1338.228397887844
 20
978.8607004774371
 30
0.0
 10
1342.758243807089
 20
978.8607004774371
 30
0.0
 10
1347.288089726335
 20
978.8607004774371
 30
0.0
  0
SPLINE
  5
8D
330
1F
100
AcDbEntity
  8
Linee visibili 2D
100
AcDbSpline
210
0.0
220
0.0
230
1.0
 70
    24
 71
     2
 72
     6
 73
     3
 74
     0
 42
0.0000000001
 43
0.0000000001
 40
0.0
 40
0.0
 40
0.0
 40
0.3235604228033822
 40
0.3235604228033822
 40
0.3235604228033822
 10
1337.90483746504
 20
978.8607004774369
 30
0.0
 10
1338.066617676442
 20
978.860700477437
 30
0.0
 10
1338.228397887844
 20
978.8607004774371
 30
0.0
  0
SPLINE
  5
8E
330
1F
100
AcDbEntity
  8
Linee visibili 2D
100
AcDbSpline
210
0.0
220
0.0
230
1.0
 70
    24
 71
     2
 72
     6
 73
     3
 74
     0
 42
0.0000000001
 43
0.0000000001
 40
0.0
 40
0.0
 40
0.0
 40
107.8534742675377
 40
107.8534742675377
 40
107.8534742675377
 10
1402.155190636967
 20
843.8607004772325
 30
0.0
 10
1422.356501928684
 20
793.8607004773348
 30
0.0
 10
1442.5578132204
 20
743.8607004774371
 30
0.0
  0
SPLINE
  5
8F
330
1F
100
AcDbEntity
  8
Linee visibili 2D
100
AcDbSpline
210
0.0
220
0.0
230
1.0
 70
    24
 71
     2
 72
     6
 73
     3
 74
     0
 42
0.0000000001
 43
0.0000000001
 40
0.0
 40
0.0
 40
0.0
 40
135.2438642132603
 40
135.2438642132603
 40
135.2438642132603
 10
1347.611650149139
 20
978.8607004774371
 30
0.0
 10
1372.943271775805
 20
916.1627368135582
 30
0.0
 10
1398.274893402472
 20
853.4647731496792
 30
0.0
  0
SPLINE
  5
90
330
1F
100
AcDbEntity
  8
Linee visibili 2D - Tangent
100
AcDbSpline
210
0.0
220
0.0
230
1.0
 70
    24
 71
     2
 72
     6
 73
     3
 74
     0
 42
0.0000000001
 43
0.0000000001
 40
0.0
 40
0.0
 40
0.0
 40
0.3172531406710277
 40
0.3172531406710277
 40
0.3172531406710277
 10
1398.100825912417
 20
853.8956052925954
 30
0.0
 10
1398.259452482752
 20
853.8956052924345
 30
0.0
 10
1398.418079053088
 20
853.8956052922737
 30
0.0
  0
SPLINE
  5
91
330
1F
100
AcDbEntity
  8
Linee visibili 2D
100
AcDbSpline
210
0.0
220
0.0
230
1.0
 70
    24
 71
     2
 72
     6
 73
     3
 74
     0
 42
0.0000000001
 43
0.0000000001
 40
0.0
 40
0.0
 40
0.0
 40
1.710963635551906
 40
1.710963635551906
 40
1.710963635551906
 10
1399.01783956241
 20
855.8607004774371
 30
0.0
 10
1398.162357744633
 20
855.8607004774371
 30
0.0
 10
1397.306875926858
 20
855.860700477437
 30
0.0
  0
SPLINE
  5
92
330
1F
100
AcDbEntity
  8
Linee visibili 2D
100
AcDbSpline
210
0.0
220
0.0
230
1.0
 70
    24
 71
     2
 72
     6
 73
     3
 74
     0
 42
0.0000000001
 43
0.0000000001
 40
0.0
 40
0.0
 40
0.0
 40
65.00000000000011
 40
65.00000000000011
 40
65.00000000000011
 10
1341.209745400949
 20
846.3607004774371
 30
0.0
 10
1341.209745400949
 20
813.8607004774371
 30
0.0
 10
1341.209745400949
 20
781.360700477437
 30
0.0
  0
SPLINE
  5
93
330
1F
100
AcDbEntity
  8
Linee visibili 2D
100
AcDbSpline
210
0.0
220
0.0
230
1.0
 70
    24
 71
     2
 72
     6
 73
     3
 74
     0
 42
0.0000000001
 43
0.0000000001
 40
0.0
 40
0.0
 40
0.0
 40
64.99999999999994
 40
64.99999999999994
 40
64.99999999999994
 10
1341.209745400949
 20
781.360700477437
 30
0.0
 10
1341.209745400949
 20
748.8607004774371
 30
0.0
 10
1341.209745400949
 20
716.3607004774371
 30
0.0
  0
SPLINE
  5
94
330
1F
100
AcDbEntity
  8
Linee visibili 2D
100
AcDbSpline
210
0.0
220
0.0
230
1.0
 70
    24
 71
     2
 72
     6
 73
     3
 74
     0
 42
0.0000000001
 43
0.0000000001
 40
0.0
 40
0.0
 40
0.0
 40
65.0
 40
65.0
 40
65.0
 10
1345.209745400949
 20
716.3607004774371
 30
0.0
 10
1345.209745400949
 20
748.8607004774371
 30
0.0
 10
1345.209745400949
 20
781.3607004774371
 30
0.0
  0
SPLINE
  5
95
330
1F
100
AcDbEntity
  8
Linee visibili 2D
100
AcDbSpline
210
0.0
220
0.0
230
1.0
 70
    24
 71
     2
 72
     6
 73
     3
 74
     0
 42
0.0000000001
 43
0.0000000001
 40
0.0
 40
0.0
 40
0.0
 40
65.00000000000006
 40
65.00000000000006
 40
65.00000000000006
 10
1345.209745400949
 20
781.3607004774371
 30
0.0
 10
1345.209745400949
 20
813.8607004774371
 30
0.0
 10
1345.209745400949
 20
846.3607004774371
 30
0.0
  0
SPLINE
  5
96
330
1F
100
AcDbEntity
  8
Linee visibili 2D
100
AcDbSpline
210
0.0
220
0.0
230
1.0
 70
    24
 71
     2
 72
     6
 73
     3
 74
     0
 42
0.0000000001
 43
0.0000000001
 40
0.0
 40
0.0
 40
0.0
 40
58.0
 40
58.0
 40
58.0
 10
1326.209745400949
 20
781.3607004774371
 30
0.0
 10
1326.209745400949
 20
752.3607004774371
 30
0.0
 10
1326.209745400949
 20
723.3607004774371
 30
0.0
  0
SPLINE
  5
97
330
1F
100
AcDbEntity
  8
Linee visibili 2D
100
AcDbSpline
210
0.0
220
0.0
230
1.0
 70
    24
 71
     2
 72
     6
 73
     3
 74
     0
 42
0.0000000001
 43
0.0000000001
 40
0.0
 40
0.0
 40
0.0
 40
58.00000000000006
 40
58.00000000000006
 40
58.00000000000006
 10
1326.209745400949
 20
839.3607004774371
 30
0.0
 10
1326.209745400949
 20
810.3607004774371
 30
0.0
 10
1326.209745400949
 20
781.3607004774371
 30
0.0
  0
SPLINE
  5
98
330
1F
100
AcDbEntity
  8
Linee visibili 2D
100
AcDbSpline
210
0.0
220
0.0
230
1.0
 70
    12
 71
     2
 72
     8
 73
     5
 74
     0
 42
0.0000000001
 43
0.0000000001
 40
0.0
 40
0.0
 40
0.0
 40
0.1954768762232711
 40
0.1954768762232711
 40
0.3909537524465421
 40
0.3909537524465421
 40
0.3909537524465421
 10
1419.207150496496
 20
777.1356217961202
 30
0.0
 41
1.0
 10
1419.246986868272
 20
777.0370233160487
 30
0.0
 41
0.8829475928590338
 10
1419.187521240093
 20
776.9488618967429
 30
0.0
 41
1.0
 10
1419.128055611915
 20
776.860700477437
 30
0.0
 41
0.8829475928590338
 10
1419.021713725582
 20
776.8607004774371
 30
0.0
 41
1.0
  0
SPLINE
  5
99
330
1F
100
AcDbEntity
  8
Linee visibili 2D - Tangent
100
AcDbSpline
210
0.0
220
0.0
230
1.0
 70
    24
 71
     2
 72
     6
 73
     3
 74
     0
 42
0.0000000001
 43
0.0000000001
 40
0.0
 40
0.0
 40
0.0
 40
0.1999999998559868
 40
0.1999999998559868
 40
0.1999999998559868
 10
1418.900505857832
 20
777.3607004774371
 30
0.0
 10
1418.993224243221
 20
777.3981611367517
 30
0.0
 10
1419.085942628612
 20
777.4356217960662
 30
0.0
  0
SPLINE
  5
9A
330
1F
100
AcDbEntity
  8
Linee visibili 2D - Tangent
100
AcDbSpline
210
0.0
220
0.0
230
1.0
 70
    24
 71
     2
 72
     6
 73
     3
 74
     0
 42
0.0000000001
 43
0.0000000001
 40
0.0
 40
0.0
 40
0.0
 40
0.5144816296085213
 40
0.5144816296085213
 40
0.5144816296085213
 10
1419.021713725582
 20
776.8607004774371
 30
0.0
 10
1418.961109791707
 20
777.1107004774371
 30
0.0
 10
1418.900505857832
 20
777.3607004774371
 30
0.0
  0
SPLINE
  5
9B
330
1F
100
AcDbEntity
  8
Linee visibili 2D - Tangent
100
AcDbSpline
210
0.0
220
0.0
230
1.0
 70
    24
 71
     2
 72
     6
 73
     3
 74
     0
 42
0.0000000001
 43
0.0000000001
 40
0.0
 40
0.0
 40
0.0
 40
0.1999999999998755
 40
0.1999999999998755
 40
0.1999999999998755
 10
1415.853732822064
 20
785.43562179612
 30
0.0
 10
1415.761014436607
 20
785.3981611367785
 30
0.0
 10
1415.66829605115
 20
785.3607004774371
 30
0.0
  0
SPLINE
  5
9C
330
1F
100
AcDbEntity
  8
Linee visibili 2D
100
AcDbSpline
210
0.0
220
0.0
230
1.0
 70
    12
 71
     2
 72
     6
 73
     3
 74
     0
 42
0.0000000001
 43
0.0000000001
 40
0.0
 40
0.0
 40
0.0
 40
0.2373647782713755
 40
0.2373647782713755
 40
0.2373647782713755
 10
1415.5470881834
 20
785.8607004774371
 30
0.0
 41
1.0
 10
1415.681989886768
 20
785.860700477437
 30
0.0
 41
0.8290375725548178
 10
1415.732524954313
 20
785.7356217961201
 30
0.0
 41
1.0
  0
SPLINE
  5
9D
330
1F
100
AcDbEntity
  8
Linee visibili 2D
100
AcDbSpline
210
0.0
220
0.0
230
1.0
 70
    24
 71
     2
 72
     6
 73
     3
 74
     0
 42
0.0000000001
 43
0.0000000001
 40
0.0
 40
0.0
 40
0.0
 40
0.5144816296085213
 40
0.5144816296085213
 40
0.5144816296085213
 10
1415.66829605115
 20
785.3607004774371
 30
0.0
 10
1415.607692117275
 20
785.6107004774371
 30
0.0
 10
1415.5470881834
 20
785.8607004774371
 30
0.0
  0
SPLINE
  5
9E
330
1F
100
AcDbEntity
  8
Linee visibili 2D
100
AcDbSpline
210
0.0
220
0.0
230
1.0
 70
    24
 71
     2
 72
     6
 73
     3
 74
     0
 42
0.0000000001
 43
0.0000000001
 40
0.0
 40
0.0
 40
0.0
 40
70.33734278245024
 40
70.33734278245024
 40
70.33734278245024
 10
1415.5470881834
 20
785.8607004774371
 30
0.0
 10
1380.378416792175
 20
785.8607004774371
 30
0.0
 10
1345.209745400949
 20
785.8607004774371
 30
0.0
  0
SPLINE
  5
9F
330
1F
100
AcDbEntity
  8
Linee visibili 2D
100
AcDbSpline
210
0.0
220
0.0
230
1.0
 70
    24
 71
     2
 72
     6
 73
     3
 74
     0
 42
0.0000000001
 43
0.0000000001
 40
0.0
 40
0.0
 40
0.0
 40
73.8119683246326
 40
73.8119683246326
 40
73.8119683246326
 10
1345.209745400949
 20
776.8607004774371
 30
0.0
 10
1382.115729563266
 20
776.8607004774371
 30
0.0
 10
1419.021713725582
 20
776.8607004774371
 30
0.0
  0
SPLINE
  5
A0
330
1F
100
AcDbEntity
  8
Linee visibili 2D - Tangent
100
AcDbSpline
210
0.0
220
0.0
230
1.0
 70
    24
 71
     2
 72
     6
 73
     3
 74
     0
 42
0.0000000001
 43
0.0000000001
 40
0.0
 40
0.0
 40
0.0
 40
73.69076045688203
 40
73.69076045688203
 40
73.69076045688203
 10
1418.900505857832
 20
777.3607004774371
 30
0.0
 10
1382.055125629391
 20
777.3607004774371
 30
0.0
 10
1345.209745400949
 20
777.3607004774371
 30
0.0
  0
SPLINE
  5
A1
330
1F
100
AcDbEntity
  8
Linee visibili 2D - Tangent
100
AcDbSpline
210
0.0
220
0.0
230
1.0
 70
    24
 71
     2
 72
     6
 73
     3
 74
     0
 42
0.0000000001
 43
0.0000000001
 40
0.0
 40
0.0
 40
0.0
 40
8.628277941420658
 40
8.628277941420658
 40
8.628277941420658
 10
1415.66829605115
 20
785.3607004774371
 30
0.0
 10
1417.284400954491
 20
781.3607004774371
 30
0.0
 10
1418.900505857832
 20
777.3607004774371
 30
0.0
  0
SPLINE
  5
A2
330
1F
100
AcDbEntity
  8
Linee visibili 2D - Tangent
100
AcDbSpline
210
0.0
220
0.0
230
1.0
 70
    24
 71
     2
 72
     6
 73
     3
 74
     0
 42
0.0000000001
 43
0.0000000001
 40
0.0
 40
0.0
 40
0.0
 40
70.4585506502008
 40
70.4585506502008
 40
70.4585506502008
 10
1345.209745400949
 20
785.3607004774371
 30
0.0
 10
1380.43902072605
 20
785.3607004774371
 30
0.0
 10
1415.66829605115
 20
785.3607004774371
 30
0.0
  0
SPLINE
  5
A3
330
1F
100
AcDbEntity
  8
Linee visibili 2D
100
AcDbSpline
210
0.0
220
0.0
230
1.0
 70
    24
 71
     2
 72
     6
 73
     3
 74
     0
 42
0.0000000001
 43
0.0000000001
 40
0.0
 40
0.0
 40
0.0
 40
0.3235604228032309
 40
0.3235604228032309
 40
0.3235604228032309
 10
1415.853732822064
 20
785.4356217961201
 30
0.0
 10
1415.793128888188
 20
785.5856217961201
 30
0.0
 10
1415.732524954313
 20
785.7356217961201
 30
0.0
  0
SPLINE
  5
A4
330
1F
100
AcDbEntity
  8
Linee visibili 2D
100
AcDbSpline
210
0.0
220
0.0
230
1.0
 70
    24
 71
     2
 72
     6
 73
     3
 74
     0
 42
0.0000000001
 43
0.0000000001
 40
0.0
 40
0.0
 40
0.0
 40
8.628277941420658
 40
8.628277941420658
 40
8.628277941420658
 10
1419.085942628745
 20
777.4356217961201
 30
0.0
 10
1417.469837725404
 20
781.4356217961201
 30
0.0
 10
1415.853732822064
 20
785.4356217961201
 30
0.0
  0
SPLINE
  5
A5
330
1F
100
AcDbEntity
  8
Linee visibili 2D
100
AcDbSpline
210
0.0
220
0.0
230
1.0
 70
    24
 71
     2
 72
     6
 73
     3
 74
     0
 42
0.0000000001
 43
0.0000000001
 40
0.0
 40
0.0
 40
0.0
 40
0.2966819147739861
 40
0.2966819147739861
 40
0.2966819147739861
 10
1419.207150496496
 20
777.1356217961202
 30
0.0
 10
1419.151580995785
 20
777.2731611367803
 30
0.0
 10
1419.096011495074
 20
777.4107004774405
 30
0.0
  0
SPLINE
  5
A6
330
1F
100
AcDbEntity
  8
Linee visibili 2D
100
AcDbSpline
210
0.0
220
0.0
230
1.0
 70
    24
 71
     2
 72
     6
 73
     3
 74
     0
 42
0.0000000001
 43
0.0000000001
 40
0.0
 40
0.0
 40
0.0
 40
0.1989371008306478
 40
0.1989371008306478
 40
0.1989371008306478
 10
1416.103141411808
 20
785.3107004774371
 30
0.0
 10
1416.003672861393
 20
785.3107004774371
 30
0.0
 10
1415.904204310978
 20
785.3107004774371
 30
0.0
  0
SPLINE
  5
A7
330
1F
100
AcDbEntity
  8
Linee visibili 2D
100
AcDbSpline
210
0.0
220
0.0
230
1.0
 70
    24
 71
     2
 72
     6
 73
     3
 74
     0
 42
0.0000000001
 43
0.0000000001
 40
0.0
 40
0.0
 40
0.0
 40
0.2008718657574207
 40
0.2008718657574207
 40
0.2008718657574207
 10
1419.096011495075
 20
777.4107004774371
 30
0.0
 10
1419.196447427954
 20
777.4107004774371
 30
0.0
 10
1419.296883360833
 20
777.4107004774371
 30
0.0
  0
SPLINE
  5
A8
330
1F
100
AcDbEntity
  8
Linee visibili 2D - Tangent
100
AcDbSpline
210
0.0
220
0.0
230
1.0
 70
    24
 71
     2
 72
     6
 73
     3
 74
     0
 42
0.0000000001
 43
0.0000000001
 40
0.0
 40
0.0
 40
0.0
 40
0.2004380269386843
 40
0.2004380269386843
 40
0.2004380269386843
 10
1418.892423296179
 20
778.4107004774371
 30
0.0
 10
1418.79220428271
 20
778.4107004774371
 30
0.0
 10
1418.69198526924
 20
778.4107004774371
 30
0.0
  0
SPLINE
  5
A9
330
1F
100
AcDbEntity
  8
Linee visibili 2D - Tangent
100
AcDbSpline
210
0.0
220
0.0
230
1.0
 70
    24
 71
     2
 72
     6
 73
     3
 74
     0
 42
0.0000000001
 43
0.0000000001
 40
0.0
 40
0.0
 40
0.0
 40
0.1999110488179383
 40
0.1999110488179383
 40
0.1999110488179383
 10
1416.308230536813
 20
784.3107004774371
 30
0.0
 10
1416.408186061222
 20
784.3107004774371
 30
0.0
 10
1416.508141585631
 20
784.3107004774371
 30
0.0
  0
SPLINE
  5
AA
330
1F
100
AcDbEntity
  8
Linee visibili 2D
100
AcDbSpline
210
0.0
220
0.0
230
1.0
 70
    12
 71
     2
 72
     6
 73
     3
 74
     0
 42
0.0000000001
 43
0.0000000001
 40
0.0
 40
0.0
 40
0.0
 40
0.5941979025571538
 40
0.5941979025571538
 40
0.5941979025571538
 10
1539.128243190703
 20
978.8607004774371
 30
0.0
 41
1.0
 10
1539.466069521111
 20
978.8607004774371
 30
0.0
 41
0.8285978150311368
 10
1539.592128969746
 20
978.5472748165114
 30
0.0
 41
1.0
  0
SPLINE
  5
AB
330
1F
100
AcDbEntity
  8
Linee visibili 2D
100
AcDbSpline
210
0.0
220
0.0
230
1.0
 70
    24
 71
     2
 72
     6
 73
     3
 74
     0
 42
0.0000000001
 43
0.0000000001
 40
0.0
 40
0.0
 40
0.0
 40
0.228617610927472
 40
0.228617610927472
 40
0.228617610927472
 10
1398.792231460519
 20
856.0607004774371
 30
0.0
 10
1398.906540265983
 20
856.0607004774371
 30
0.0
 10
1399.020849071447
 20
856.0607004774371
 30
0.0
  0
SPLINE
  5
AC
330
1F
100
AcDbEntity
  8
Linee visibili 2D
100
AcDbSpline
210
0.0
220
0.0
230
1.0
 70
    24
 71
     2
 72
     6
 73
     3
 74
     0
 42
0.0000000001
 43
0.0000000001
 40
0.0
 40
0.0
 40
0.0
 40
95.58945474965688
 40
95.58945474965688
 40
95.58945474965688
 10
1443.491247611199
 20
978.8607004774371
 30
0.0
 10
1491.285974986027
 20
978.8607004774371
 30
0.0
 10
1539.080702360855
 20
978.8607004774371
 30
0.0
  0
SPLINE
  5
AD
330
1F
100
AcDbEntity
  8
Linee visibili 2D
100
AcDbSpline
210
0.0
220
0.0
230
1.0
 70
    24
 71
     2
 72
     6
 73
     3
 74
     0
 42
0.0000000001
 43
0.0000000001
 40
0.0
 40
0.0
 40
0.0
 40
192.4995195758635
 40
192.4995195758635
 40
192.4995195758635
 10
1587.79247715594
 20
843.8607004774371
 30
0.0
 10
1491.542717368008
 20
843.8607004774371
 30
0.0
 10
1395.292957580076
 20
843.8607004774371
 30
0.0
  0
SPLINE
  5
AE
330
1F
100
AcDbEntity
  8
Linee visibili 2D
100
AcDbSpline
210
0.0
220
0.0
230
1.0
 70
    12
 71
     2
 72
    16
 73
    13
 74
     0
 42
0.0000000001
 43
0.0000000001
 40
0.0
 40
0.0
 40
0.0
 40
0.0961038325520293
 40
0.0961038325520293
 40
0.1912133915870271
 40
0.1912133915870271
 40
0.2869309120414782
 40
0.2869309120414782
 40
0.3846234590549036
 40
0.3846234590549036
 40
0.4847415112947199
 40
0.4847415112947199
 40
0.5546302076869648
 40
0.5546302076869648
 40
0.5546302076869648
 10
1395.004387741884
 20
844.2286341606957
 30
0.0
 41
1.0
 10
1394.98758874452
 20
844.1830789229828
 30
0.0
 41
0.9845623759431347
 10
1394.987520333857
 20
844.1345250218471
 30
0.0
 41
1.0
 10
1394.98762329739
 20
844.0864528652473
 30
0.0
 41
0.9839307742983975
 10
1395.004610443744
 20
844.0414819891117
 30
0.0
 41
1.0
 10
1395.021866126349
 20
843.9962982938921
 30
0.0
 41
0.9843254294895641
 10
1395.053735921917
 20
843.9599164161745
 30
0.0
 41
1.0
 10
1395.086350012413
 20
843.9229113417864
 30
0.0
 41
0.985475149849692
 10
1395.129468832163
 20
843.8989567636688
 30
0.0
 41
1.0
 10
1395.173674025173
 20
843.8745256508091
 30
0.0
 41
0.9867424743473717
 10
1395.223375456829
 20
843.8655397698845
 30
0.0
 41
1.0
 10
1395.257901548311
 20
843.8593102309449
 30
0.0
 41
0.9940574148946789
 10
1395.292957580076
 20
843.8607004774371
 30
0.0
 41
1.0
  0
SPLINE
  5
AF
330
1F
100
AcDbEntity
  8
Linee visibili 2D
100
AcDbSpline
210
0.0
220
0.0
230
1.0
 70
    12
 71
     2
 72
     6
 73
     3
 74
     0
 42
0.0000000001
 43
0.0000000001
 40
0.0
 40
0.0
 40
0.0
 40
0.1430676580921022
 40
0.1430676580921022
 40
0.1430676580921022
 10
1398.369489987394
 20
853.7645318184514
 30
0.0
 41
1.0
 10
1398.393784555967
 20
853.8318137821268
 30
0.0
 41
0.999999999999859
 10
1398.418079053088
 20
853.8990957716028
 30
0.0
 41
1.0
  0
SPLINE
  5
B0
330
1F
100
AcDbEntity
  8
Linee visibili 2D
100
AcDbSpline
210
0.0
220
0.0
230
1.0
 70
    12
 71
     2
 72
     6
 73
     3
 74
     0
 42
0.0000000001
 43
0.0000000001
 40
0.0
 40
0.0
 40
0.0
 40
0.7667138279949102
 40
0.7667138279949102
 40
0.7667138279949102
 10
1398.157877346751
 20
853.0157413055522
 30
0.0
 41
1.0
 10
1398.30223231492
 20
853.3721718183194
 30
0.0
 41
0.9953407415378878
 10
1398.375489421888
 20
853.7496826970307
 30
0.0
 41
1.0
  0
SPLINE
  5
B1
330
1F
100
AcDbEntity
  8
Linee visibili 2D
100
AcDbSpline
210
0.0
220
0.0
230
1.0
 70
    12
 71
     2
 72
     6
 73
     3
 74
     0
 42
0.0000000001
 43
0.0000000001
 40
0.0
 40
0.0
 40
0.0
 40
9.335831439396843
 40
9.335831439396843
 40
9.335831439396843
 10
1395.004387741907
 20
844.2286341606814
 30
0.0
 41
1.0
 10
1396.581168237976
 20
848.6221749235158
 30
0.0
 41
0.9999999999669996
 10
1398.157877346792
 20
853.0157413055264
 30
0.0
 41
1.0
  0
SPLINE
  5
B2
330
1F
100
AcDbEntity
  8
Linee visibili 2D
100
AcDbSpline
210
0.0
220
0.0
230
1.0
 70
    12
 71
     2
 72
     8
 73
     5
 74
     0
 42
0.0000000001
 43
0.0000000001
 40
0.0
 40
0.0
 40
0.0
 40
91.96728936581822
 40
91.96728936581822
 40
193.0836390518734
 40
193.0836390518734
 40
193.0836390518734
 10
1588.088023791259
 20
844.2626010021195
 30
0.0
 41
1.0
 10
1542.104380046449
 20
844.2532884496162
 30
0.0
 41
0.999999999840641
 10
1496.120735998441
 20
844.2456177591035
 30
0.0
 41
1.0
 10
1445.562561987306
 20
844.2364285162438
 30
0.0
 41
0.9999999999048506
 10
1395.004387741884
 20
844.2286341613697
 30
0.0
 41
1.0
  0
SPLINE
  5
B3
330
1F
100
AcDbEntity
  8
Linee visibili 2D
100
AcDbSpline
210
0.0
220
0.0
230
1.0
 70
    24
 71
     2
 72
     6
 73
     3
 74
     0
 42
0.0000000001
 43
0.0000000001
 40
0.0
 40
0.0
 40
0.0
 40
142.7554216108499
 40
142.7554216108499
 40
142.7554216108499
 10
1539.598515815617
 20
978.5305346855831
 30
0.0
 10
1563.843269803437
 20
911.396567843954
 30
0.0
 10
1588.088023791257
 20
844.262601002325
 30
0.0
  0
SPLINE
  5
B4
330
1F
100
AcDbEntity
  8
Linee visibili 2D - Tangent
100
AcDbSpline
210
0.0
220
0.0
230
1.0
 70
    24
 71
     2
 72
     6
 73
     3
 74
     0
 42
0.0000000001
 43
0.0000000001
 40
0.0
 40
0.0
 40
0.0
 40
96.52953245759443
 40
96.52953245759443
 40
96.52953245759443
 10
1443.020974986285
 20
978.5305346855831
 30
0.0
 10
1491.285741215082
 20
978.530534685583
 30
0.0
 10
1539.550507443879
 20
978.530534685583
 30
0.0
  0
SPLINE
  5
B5
330
1F
100
AcDbEntity
  8
Linee visibili 2D
100
AcDbSpline
210
0.0
220
0.0
230
1.0
 70
    12
 71
     2
 72
     6
 73
     3
 74
     0
 42
0.0000000001
 43
0.0000000001
 40
0.0
 40
0.0
 40
0.0
 40
2.202680211241495
 40
2.202680211241495
 40
2.202680211241495
 10
1398.418079053091
 20
853.8990957715991
 30
0.0
 41
1.0
 10
1398.822648072668
 20
854.9266230906355
 30
0.0
 41
0.9959782274131024
 10
1399.037338503992
 20
856.0098573689268
 30
0.0
 41
1.0
  0
SPLINE
  5
B6
330
1F
100
AcDbEntity
  8
Linee visibili 2D
100
AcDbSpline
210
0.0
220
0.0
230
1.0
 70
    12
 71
     2
 72
     6
 73
     3
 74
     0
 42
0.0000000001
 43
0.0000000001
 40
0.0
 40
0.0
 40
0.0
 40
0.4706134411609857
 40
0.4706134411609857
 40
0.4706134411609857
 10
971.056812188959
 20
843.8614117628273
 30
0.0
 41
1.0
 10
970.7573199496176
 20
843.8612085943674
 30
0.0
 41
0.7074626016143041
 10
970.7568152927961
 20
844.1607004774371
 30
0.0
 41
1.0
  0
SPLINE
  5
B7
330
1F
100
AcDbEntity
  8
Linee visibili 2D
100
AcDbSpline
210
0.0
220
0.0
230
1.0
 70
    12
 71
     2
 72
     6
 73
     3
 74
     0
 42
0.0000000001
 43
0.0000000001
 40
0.0
 40
0.0
 40
0.0
 40
0.4708272185572117
 40
0.4708272185572117
 40
0.4708272185572117
 10
1164.349044923513
 20
844.1607004774371
 30
0.0
 41
1.0
 10
1164.348377032414
 20
843.8613682063625
 30
0.0
 41
0.7084234940636693
 10
1164.049044351369
 20
843.8609202737453
 30
0.0
 41
1.0
  0
SPLINE
  5
B8
330
1F
100
AcDbEntity
  8
Linee visibili 2D
100
AcDbSpline
210
0.0
220
0.0
230
1.0
 70
    12
 71
     2
 72
     6
 73
     3
 74
     0
 42
0.0000000001
 43
0.0000000001
 40
0.0
 40
0.0
 40
0.0
 40
0.5937601217511634
 40
0.5937601217511634
 40
0.5937601217511634
 10
1019.270598137252
 20
978.5473551634541
 30
0.0
 41
1.0
 10
1019.39731139474
 20
978.8597570967104
 30
0.0
 41
0.8301985831185018
 10
1019.734432037179
 20
978.8607004774369
 30
0.0
 41
1.0
  0
SPLINE
  5
B9
330
1F
100
AcDbEntity
  8
Linee visibili 2D
100
AcDbSpline
210
0.0
220
0.0
230
1.0
 70
    12
 71
     2
 72
     6
 73
     3
 74
     0
 42
0.0000000001
 43
0.0000000001
 40
0.0
 40
0.0
 40
0.0
 40
0.5937740069581859
 40
0.5937740069581859
 40
0.5937740069581859
 10
1115.37142817913
 20
978.860700477437
 30
0.0
 41
1.0
 10
1115.708493637339
 20
978.8596087992487
 30
0.0
 41
0.8304191288874633
 10
1115.835295965569
 20
978.5473020839272
 30
0.0
 41
1.0
  0
SPLINE
  5
BA
330
1F
100
AcDbEntity
  8
Linee visibili 2D
100
AcDbSpline
210
0.0
220
0.0
230
1.0
 70
    24
 71
     2
 72
     6
 73
     3
 74
     0
 42
0.0000000001
 43
0.0000000001
 40
0.0
 40
0.0
 40
0.0
 40
142.7554216108499
 40
142.7554216108499
 40
142.7554216108499
 10
970.7746517178479
 20
844.262601002325
 30
0.0
 10
995.0194057056681
 20
911.396567843954
 30
0.0
 10
1019.264159693488
 20
978.5305346855831
 30
0.0
  0
SPLINE
  5
BB
330
1F
100
AcDbEntity
  8
Linee visibili 2D
100
AcDbSpline
210
0.0
220
0.0
230
1.0
 70
    24
 71
     2
 72
     6
 73
     3
 74
     0
 42
0.0000000001
 43
0.0000000001
 40
0.0
 40
0.0
 40
0.0
 40
142.7554216108499
 40
142.7554216108499
 40
142.7554216108499
 10
1115.84170052282
 20
978.5305346855831
 30
0.0
 10
1140.086454510641
 20
911.396567843954
 30
0.0
 10
1164.331208498461
 20
844.262601002325
 30
0.0
  0
SPLINE
  5
BC
330
1F
100
AcDbEntity
  8
Linee visibili 2D
100
AcDbSpline
210
0.0
220
0.0
230
1.0
 70
    24
 71
     2
 72
     6
 73
     3
 74
     0
 42
0.0000000001
 43
0.0000000001
 40
0.0
 40
0.0
 40
0.0
 40
0.3000000000013188
 40
0.3000000000013188
 40
0.3000000000013188
 10
1076.252930108154
 20
743.8607004774371
 30
0.0
 10
1076.402930108155
 20
743.8607004774369
 30
0.0
 10
1076.552930108156
 20
743.8607004774366
 30
0.0
  0
SPLINE
  5
BD
330
1F
100
AcDbEntity
  8
Linee visibili 2D
100
AcDbSpline
210
0.0
220
0.0
230
1.0
 70
    24
 71
     2
 72
     6
 73
     3
 74
     0
 42
0.0000000001
 43
0.0000000001
 40
0.0
 40
0.0
 40
0.0
 40
0.3000000000012619
 40
0.3000000000012619
 40
0.3000000000012619
 10
1058.552930108153
 20
743.8607004774367
 30
0.0
 10
1058.702930108154
 20
743.8607004774369
 30
0.0
 10
1058.852930108154
 20
743.8607004774371
 30
0.0
  0
SPLINE
  5
BE
330
1F
100
AcDbEntity
  8
Linee visibili 2D
100
AcDbSpline
210
0.0
220
0.0
230
1.0
 70
    24
 71
     2
 72
     6
 73
     3
 74
     0
 42
0.0000000001
 43
0.0000000001
 40
0.0
 40
0.0
 40
0.0
 40
100.0000000000006
 40
100.0000000000006
 40
100.0000000000006
 10
1076.552930108156
 20
743.8607004774366
 30
0.0
 10
1076.552930108156
 20
793.8607004774369
 30
0.0
 10
1076.552930108155
 20
843.8607004774371
 30
0.0
  0
SPLINE
  5
BF
330
1F
100
AcDbEntity
  8
Linee visibili 2D
100
AcDbSpline
210
0.0
220
0.0
230
1.0
 70
    24
 71
     2
 72
     6
 73
     3
 74
     0
 42
0.0000000001
 43
0.0000000001
 40
0.0
 40
0.0
 40
0.0
 40
100.0000000000005
 40
100.0000000000005
 40
100.0000000000005
 10
1058.552930108154
 20
843.8607004774371
 30
0.0
 10
1058.552930108154
 20
793.8607004774369
 30
0.0
 10
1058.552930108153
 20
743.8607004774367
 30
0.0
  0
SPLINE
  5
C0
330
1F
100
AcDbEntity
  8
Linee visibili 2D - Tangent
100
AcDbSpline
210
0.0
220
0.0
230
1.0
 70
    24
 71
     2
 72
     6
 73
     3
 74
     0
 42
0.0000000001
 43
0.0000000001
 40
0.0
 40
0.0
 40
0.0
 40
100.0000000000001
 40
100.0000000000001
 40
100.0000000000001
 10
1058.852930108154
 20
743.8607004774371
 30
0.0
 10
1058.852930108154
 20
793.8607004774371
 30
0.0
 10
1058.852930108154
 20
843.8607004774371
 30
0.0
  0
SPLINE
  5
C1
330
1F
100
AcDbEntity
  8
Linee visibili 2D
100
AcDbSpline
210
0.0
220
0.0
230
1.0
 70
    24
 71
     2
 72
     6
 73
     3
 74
     0
 42
0.0000000001
 43
0.0000000001
 40
0.0
 40
0.0
 40
0.0
 40
17.40000000000003
 40
17.40000000000003
 40
17.40000000000003
 10
1076.252930108154
 20
743.8607004774371
 30
0.0
 10
1067.552930108154
 20
743.8607004774371
 30
0.0
 10
1058.852930108154
 20
743.8607004774371
 30
0.0
  0
SPLINE
  5
C2
330
1F
100
AcDbEntity
  8
Linee visibili 2D - Tangent
100
AcDbSpline
210
0.0
220
0.0
230
1.0
 70
    24
 71
     2
 72
     6
 73
     3
 74
     0
 42
0.0000000001
 43
0.0000000001
 40
0.0
 40
0.0
 40
0.0
 40
100.0000000000001
 40
100.0000000000001
 40
100.0000000000001
 10
1076.252930108154
 20
843.8607004774371
 30
0.0
 10
1076.252930108154
 20
793.8607004774371
 30
0.0
 10
1076.252930108154
 20
743.8607004774371
 30
0.0
  0
SPLINE
  5
C3
330
1F
100
AcDbEntity
  8
Linee visibili 2D
100
AcDbSpline
210
0.0
220
0.0
230
1.0
 70
    12
 71
     2
 72
     6
 73
     3
 74
     0
 42
0.0000000001
 43
0.0000000001
 40
0.0
 40
0.0
 40
0.0
 40
0.3613671275060965
 40
0.3613671275060965
 40
0.3613671275060965
 10
1076.552930105774
 20
785.9414193940197
 30
0.0
 41
1.0
 10
1076.677930108154
 20
785.7996827159985
 30
0.0
 41
0.9354143454210232
 10
1076.677930108154
 20
785.6107004774371
 30
0.0
 41
1.0
  0
SPLINE
  5
C4
330
1F
100
AcDbEntity
  8
Linee visibili 2D
100
AcDbSpline
210
0.0
220
0.0
230
1.0
 70
    12
 71
     2
 72
     6
 73
     3
 74
     0
 42
0.0000000001
 43
0.0000000001
 40
0.0
 40
0.0
 40
0.0
 40
0.3613671275061513
 40
0.3613671275061513
 40
0.3613671275061513
 10
1058.427930108154
 20
785.6107004774371
 30
0.0
 41
1.0
 10
1058.427930108154
 20
785.7996827159985
 30
0.0
 41
0.9354143454208899
 10
1058.552930110535
 20
785.9414193940197
 30
0.0
 41
1.0
  0
SPLINE
  5
C5
330
1F
100
AcDbEntity
  8
Linee visibili 2D
100
AcDbSpline
210
0.0
220
0.0
230
1.0
 70
    24
 71
     2
 72
     6
 73
     3
 74
     0
 42
0.0000000001
 43
0.0000000001
 40
0.0
 40
0.0
 40
0.0
 40
8.5
 40
8.5
 40
8.5
 10
1058.427930108154
 20
777.1107004774371
 30
0.0
 10
1058.427930108154
 20
781.3607004774371
 30
0.0
 10
1058.427930108154
 20
785.6107004774371
 30
0.0
  0
SPLINE
  5
C6
330
1F
100
AcDbEntity
  8
Linee visibili 2D
100
AcDbSpline
210
0.0
220
0.0
230
1.0
 70
    12
 71
     2
 72
     6
 73
     3
 74
     0
 42
0.0000000001
 43
0.0000000001
 40
0.0
 40
0.0
 40
0.0
 40
0.361367127506158
 40
0.361367127506158
 40
0.361367127506158
 10
1058.552930110535
 20
776.7799815608545
 30
0.0
 41
1.0
 10
1058.427930108154
 20
776.9217182388757
 30
0.0
 41
0.9354143454205375
 10
1058.427930108154
 20
777.1107004774371
 30
0.0
 41
1.0
  0
SPLINE
  5
C7
330
1F
100
AcDbEntity
  8
Linee visibili 2D
100
AcDbSpline
210
0.0
220
0.0
230
1.0
 70
    12
 71
     2
 72
     6
 73
     3
 74
     0
 42
0.0000000001
 43
0.0000000001
 40
0.0
 40
0.0
 40
0.0
 40
0.3613671275059777
 40
0.3613671275059777
 40
0.3613671275059777
 10
1076.677930108154
 20
777.1107004774371
 30
0.0
 41
1.0
 10
1076.677930108154
 20
776.9217182388758
 30
0.0
 41
0.9354143454211546
 10
1076.552930105774
 20
776.7799815608546
 30
0.0
 41
1.0
  0
SPLINE
  5
C8
330
1F
100
AcDbEntity
  8
Linee visibili 2D
100
AcDbSpline
210
0.0
220
0.0
230
1.0
 70
    24
 71
     2
 72
     6
 73
     3
 74
     0
 42
0.0000000001
 43
0.0000000001
 40
0.0
 40
0.0
 40
0.0
 40
8.5
 40
8.5
 40
8.5
 10
1076.677930108154
 20
785.6107004774371
 30
0.0
 10
1076.677930108154
 20
781.3607004774371
 30
0.0
 10
1076.677930108154
 20
777.1107004774371
 30
0.0
  0
SPLINE
  5
C9
330
1F
100
AcDbEntity
  8
Linee visibili 2D
100
AcDbSpline
210
0.0
220
0.0
230
1.0
 70
    12
 71
     2
 72
     8
 73
     5
 74
     0
 42
0.0000000001
 43
0.0000000001
 40
0.0
 40
0.0
 40
0.0
 40
102.1017612416682
 40
102.1017612416682
 40
204.2035224833365
 40
204.2035224833365
 40
204.2035224833365
 10
1002.552930108154
 20
781.3607004774371
 30
0.0
 41
1.0
 10
1002.552930108154
 20
716.3607004774373
 30
0.0
 41
0.7071067811865487
 10
1067.552930108154
 20
716.3607004774371
 30
0.0
 41
1.0
 10
1132.552930108154
 20
716.3607004774371
 30
0.0
 41
0.7071067811865476
 10
1132.552930108154
 20
781.3607004774371
 30
0.0
 41
1.0
  0
SPLINE
  5
CA
330
1F
100
AcDbEntity
  8
Linee visibili 2D
100
AcDbSpline
210
0.0
220
0.0
230
1.0
 70
    12
 71
     2
 72
     6
 73
     3
 74
     0
 42
0.0000000001
 43
0.0000000001
 40
0.0
 40
0.0
 40
0.0
 40
83.90323802754321
 40
83.90323802754321
 40
83.90323802754321
 10
1049.591232229219
 20
843.8297120696327
 30
0.0
 41
1.0
 10
1002.552930108155
 20
830.3048018797266
 30
0.0
 41
0.7988534951798361
 10
1002.552930108154
 20
781.3607004774371
 30
0.0
 41
1.0
  0
SPLINE
  5
CB
330
1F
100
AcDbEntity
  8
Linee visibili 2D
100
AcDbSpline
210
0.0
220
0.0
230
1.0
 70
    12
 71
     2
 72
     6
 73
     3
 74
     0
 42
0.0000000001
 43
0.0000000001
 40
0.0
 40
0.0
 40
0.0
 40
83.90323802754304
 40
83.90323802754304
 40
83.90323802754304
 10
1132.552930108154
 20
781.3607004774371
 30
0.0
 41
1.0
 10
1132.552930108154
 20
830.3048018797265
 30
0.0
 41
0.7988534951798351
 10
1085.51462798709
 20
843.8297120696326
 30
0.0
 41
1.0
  0
SPLINE
  5
CC
330
1F
100
AcDbEntity
  8
Linee visibili 2D
100
AcDbSpline
210
0.0
220
0.0
230
1.0
 70
    24
 71
     2
 72
     6
 73
     3
 74
     0
 42
0.0000000001
 43
0.0000000001
 40
0.0
 40
0.0
 40
0.0
 40
47.77095695990471
 40
47.77095695990471
 40
47.77095695990471
 10
1067.552930108154
 20
978.8607004774371
 30
0.0
 10
1043.667451628202
 20
978.8607004774371
 30
0.0
 10
1019.78197314825
 20
978.8607004774371
 30
0.0
  0
SPLINE
  5
CD
330
1F
100
AcDbEntity
  8
Linee visibili 2D
100
AcDbSpline
210
0.0
220
0.0
230
1.0
 70
    28
 71
     2
 72
     8
 73
     5
 74
     0
 42
0.0000000001
 43
0.0000000001
 40
-77.46040570227366
 40
-77.46040570227366
 40
-77.46040570227366
 40
-75.11312068099264
 40
-75.11312068099264
 40
0.0
 40
0.0
 40
0.0
 10
1115.323887068059
 20
978.8607004774373
 30
0.0
 41
0.9822662308921541
 10
1115.371427897907
 20
978.8607004774371
 30
0.0
 41
0.9908470869120796
 10
1115.371427897907
 20
978.8607004774371
 30
0.0
 41
1.0
 10
1115.371427897907
 20
978.860700477437
 30
0.0
 41
0.7071067811865476
 10
1067.552930108154
 20
978.8607004774371
 30
0.0
 41
1.0
  0
SPLINE
  5
CE
330
1F
100
AcDbEntity
  8
Linee visibili 2D
100
AcDbSpline
210
0.0
220
0.0
230
1.0
 70
    24
 71
     2
 72
     6
 73
     3
 74
     0
 42
0.0000000001
 43
0.0000000001
 40
0.0
 40
0.0
 40
0.0
 40
192.9882637301646
 40
192.9882637301646
 40
192.9882637301646
 10
971.0587982430723
 20
843.8607004774371
 30
0.0
 10
1067.552930108155
 20
843.8607004774371
 30
0.0
 10
1164.047061973237
 20
843.8607004774371
 30
0.0
  0
SPLINE
  5
CF
330
1F
100
AcDbEntity
  8
Linee visibili 2D - Tangent
100
AcDbSpline
210
0.0
220
0.0
230
1.0
 70
    24
 71
     2
 72
     6
 73
     3
 74
     0
 42
0.0000000001
 43
0.0000000001
 40
0.0
 40
0.0
 40
0.0
 40
48.24076204292834
 40
48.24076204292834
 40
48.24076204292834
 10
1067.552930108154
 20
978.5305346855831
 30
0.0
 10
1043.43254908669
 20
978.5305346855832
 30
0.0
 10
1019.312168065226
 20
978.5305346855832
 30
0.0
  0
SPLINE
  5
D0
330
1F
100
AcDbEntity
  8
Linee visibili 2D
100
AcDbSpline
210
0.0
220
0.0
230
1.0
 70
    12
 71
     2
 72
     8
 73
     5
 74
     0
 42
0.0000000001
 43
0.0000000001
 40
0.0
 40
0.0
 40
0.0
 40
0.1177893555454956
 40
0.1177893555454956
 40
96.77961393791101
 40
96.77961393791101
 40
96.77961393791101
 10
970.7733221877274
 20
844.2448790156549
 30
0.0
 41
1.0
 10
970.8322132861047
 20
844.2455837162693
 30
0.0
 41
0.999983783114007
 10
970.8911085908617
 20
844.2456176074344
 30
0.0
 41
1.0
 10
1019.222016696006
 20
844.2692118393587
 30
0.0
 41
0.9999999511775368
 10
1067.552930108154
 20
844.262601002304
 30
0.0
 41
1.0
  0
SPLINE
  5
D1
330
1F
100
AcDbEntity
  8
Linee visibili 2D
100
AcDbSpline
210
0.0
220
0.0
230
1.0
 70
    12
 71
     2
 72
     8
 73
     5
 74
     0
 42
0.0000000001
 43
0.0000000001
 40
0.0
 40
0.0
 40
0.0
 40
96.66349119731736
 40
96.66349119731736
 40
96.78136081335889
 40
96.78136081335889
 40
96.78136081335889
 10
1067.552930108154
 20
844.2626010023232
 30
0.0
 41
1.0
 10
1115.884676827715
 20
844.269211440182
 30
0.0
 41
0.9999999511822919
 10
1164.216418240577
 20
844.2456177591861
 30
0.0
 41
1.0
 10
1164.275353673807
 20
844.245583559443
 30
0.0
 41
0.9999838349655565
 10
1164.334284907386
 20
844.2448791671521
 30
0.0
 41
1.0
  0
SPLINE
  5
D2
330
1F
100
AcDbEntity
  8
Linee visibili 2D - Tangent
100
AcDbSpline
210
0.0
220
0.0
230
1.0
 70
    12
 71
     2
 72
     8
 73
     5
 74
     0
 42
0.0000000001
 43
0.0000000001
 40
0.0
 40
0.0
 40
0.0
 40
0.0480083717377511
 40
0.0480083717377511
 40
75.89983156453732
 40
75.89983156453732
 40
75.89983156453732
 10
1115.793692151083
 20
978.5305347442627
 30
0.0
 41
1.0
 10
1115.817696336951
 20
978.5305347442626
 30
0.0
 41
1.0
 10
1115.84170052282
 20
978.5305347442625
 30
0.0
 41
1.0
 10
1115.84170052282
 20
978.5305346855831
 30
0.0
 41
0.7071067811865476
 10
1067.552930108154
 20
978.5305346855831
 30
0.0
 41
1.0
  0
SPLINE
  5
D3
330
1F
100
AcDbEntity
  8
Linee visibili 2D
100
AcDbSpline
210
0.0
220
0.0
230
1.0
 70
    24
 71
     2
 72
     6
 73
     3
 74
     0
 42
0.0000000001
 43
0.0000000001
 40
0.0
 40
0.0
 40
0.0
 40
4.0
 40
4.0
 40
4.0
 10
1002.538339089222
 20
534.8782784137102
 30
0.0
 10
1002.538339089222
 20
536.8782784137102
 30
0.0
 10
1002.538339089222
 20
538.8782784137102
 30
0.0
  0
SPLINE
  5
D4
330
1F
100
AcDbEntity
  8
Linee visibili 2D
100
AcDbSpline
210
0.0
220
0.0
230
1.0
 70
    24
 71
     2
 72
     6
 73
     3
 74
     0
 42
0.0000000001
 43
0.0000000001
 40
0.0
 40
0.0
 40
0.0
 40
15.0
 40
15.0
 40
15.0
 10
1009.538339089222
 20
538.8782784137102
 30
0.0
 10
1009.538339089222
 20
546.3782784137102
 30
0.0
 10
1009.538339089222
 20
553.8782784137102
 30
0.0
  0
SPLINE
  5
D5
330
1F
100
AcDbEntity
  8
Linee visibili 2D
100
AcDbSpline
210
0.0
220
0.0
230
1.0
 70
    12
 71
     2
 72
     6
 73
     3
 74
     0
 42
0.0000000001
 43
0.0000000001
 40
0.0
 40
0.0
 40
0.0
 40
0.3488841960384925
 40
0.3488841960384925
 40
0.3488841960384925
 10
1076.538339089223
 20
482.231858040732
 30
0.0
 41
1.0
 10
1076.711978777014
 20
482.2151435456594
 30
0.0
 41
0.9999982757096456
 10
1076.885555188499
 20
482.1977842571432
 30
0.0
 41
1.0
  0
SPLINE
  5
D6
330
1F
100
AcDbEntity
  8
Linee visibili 2D
100
AcDbSpline
210
0.0
220
0.0
230
1.0
 70
    12
 71
     2
 72
     6
 73
     3
 74
     0
 42
0.0000000001
 43
0.0000000001
 40
0.0
 40
0.0
 40
0.0
 40
0.3485809887635041
 40
0.3485809887635041
 40
0.3485809887635041
 10
1058.191424239636
 20
482.1979386997432
 30
0.0
 41
1.0
 10
1058.364850086042
 20
482.215280036132
 30
0.0
 41
0.9999982787054249
 10
1058.538339089221
 20
482.2319776983996
 30
0.0
 41
1.0
  0
SPLINE
  5
D7
330
1F
100
AcDbEntity
  8
Linee visibili 2D
100
AcDbSpline
210
0.0
220
0.0
230
1.0
 70
    12
 71
     2
 72
     6
 73
     3
 74
     0
 42
0.0000000001
 43
0.0000000001
 40
0.0
 40
0.0
 40
0.0
 40
0.3561041369727831
 40
0.3561041369727831
 40
0.3561041369727831
 10
1058.538339089221
 20
482.3139730715918
 30
0.0
 41
1.0
 10
1058.361105357096
 20
482.2969196504891
 30
0.0
 41
0.9999982048247644
 10
1058.183937523881
 20
482.2791947005937
 30
0.0
 41
1.0
  0
SPLINE
  5
D8
330
1F
100
AcDbEntity
  8
Linee visibili 2D
100
AcDbSpline
210
0.0
220
0.0
230
1.0
 70
    12
 71
     2
 72
     6
 73
     3
 74
     0
 42
0.0000000001
 43
0.0000000001
 40
0.0
 40
0.0
 40
0.0
 40
0.3565138098112499
 40
0.3565138098112499
 40
0.3565138098112499
 10
1076.893148292324
 20
482.2791539171301
 30
0.0
 41
1.0
 10
1076.715776716818
 20
482.2969000316769
 30
0.0
 41
0.9999982006919429
 10
1076.538339089223
 20
482.3139730715918
 30
0.0
 41
1.0
  0
SPLINE
  5
D9
330
1F
100
AcDbEntity
  8
Linee visibili 2D
100
AcDbSpline
210
0.0
220
0.0
230
1.0
 70
    12
 71
     2
 72
     6
 73
     3
 74
     0
 42
0.0000000001
 43
0.0000000001
 40
0.0
 40
0.0
 40
0.0
 40
2.449508592699594
 40
2.449508592699594
 40
2.449508592699594
 10
1060.738339089222
 20
541.1049910490771
 30
0.0
 41
1.0
 10
1059.181744327504
 20
541.0439516323117
 30
0.0
 41
0.7081155311261783
 10
1059.238339089222
 20
539.4871889350611
 30
0.0
 41
1.0
  0
SPLINE
  5
DA
330
1F
100
AcDbEntity
  8
Linee visibili 2D
100
AcDbSpline
210
0.0
220
0.0
230
1.0
 70
    12
 71
     2
 72
     6
 73
     3
 74
     0
 42
0.0000000001
 43
0.0000000001
 40
0.0
 40
0.0
 40
0.0
 40
2.449508592699696
 40
2.449508592699696
 40
2.449508592699696
 10
1075.838339089222
 20
539.4871889350611
 30
0.0
 41
1.0
 10
1075.894933850939
 20
541.0439516323119
 30
0.0
 41
0.7081155311261461
 10
1074.338339089222
 20
541.104991049077
 30
0.0
 41
1.0
  0
SPLINE
  5
DB
330
1F
100
AcDbEntity
  8
Linee visibili 2D - Tangent
100
AcDbSpline
210
0.0
220
0.0
230
1.0
 70
    24
 71
     2
 72
     6
 73
     3
 74
     0
 42
0.0000000001
 43
0.0000000001
 40
0.0
 40
0.0
 40
0.0
 40
0.3232209806680544
 40
0.3232209806680544
 40
0.3232209806680544
 10
1060.738339089222
 20
541.428212029745
 30
0.0
 10
1060.738339089222
 20
541.2666015394111
 30
0.0
 10
1060.738339089222
 20
541.1049910490771
 30
0.0
  0
SPLINE
  5
DC
330
1F
100
AcDbEntity
  8
Linee visibili 2D - Tangent
100
AcDbSpline
210
0.0
220
0.0
230
1.0
 70
    24
 71
     2
 72
     6
 73
     3
 74
     0
 42
0.0000000001
 43
0.0000000001
 40
0.0
 40
0.0
 40
0.0
 40
0.3232209806681112
 40
0.3232209806681112
 40
0.3232209806681112
 10
1074.338339089222
 20
541.1049910490771
 30
0.0
 10
1074.338339089222
 20
541.2666015394111
 30
0.0
 10
1074.338339089222
 20
541.4282120297452
 30
0.0
  0
SPLINE
  5
DD
330
1F
100
AcDbEntity
  8
Linee visibili 2D
100
AcDbSpline
210
0.0
220
0.0
230
1.0
 70
    24
 71
     2
 72
     6
 73
     3
 74
     0
 42
0.0000000001
 43
0.0000000001
 40
0.0
 40
0.0
 40
0.0
 40
13.59999999999991
 40
13.59999999999991
 40
13.59999999999991
 10
1060.738339089222
 20
541.1049910490771
 30
0.0
 10
1067.538339089222
 20
541.1049910490771
 30
0.0
 10
1074.338339089222
 20
541.1049910490771
 30
0.0
  0
SPLINE
  5
DE
330
1F
100
AcDbEntity
  8
Linee visibili 2D
100
AcDbSpline
210
0.0
220
0.0
230
1.0
 70
    24
 71
     2
 72
     6
 73
     3
 74
     0
 42
0.0000000001
 43
0.0000000001
 40
0.0
 40
0.0
 40
0.0
 40
51.08141568975219
 40
51.08141568975219
 40
51.08141568975219
 10
1076.538339089223
 20
481.7185183985723
 30
0.0
 10
1076.538339089223
 20
507.2592262434483
 30
0.0
 10
1076.538339089222
 20
532.7999340883244
 30
0.0
  0
SPLINE
  5
DF
330
1F
100
AcDbEntity
  8
Linee visibili 2D
100
AcDbSpline
210
0.0
220
0.0
230
1.0
 70
    24
 71
     2
 72
     6
 73
     3
 74
     0
 42
0.0000000001
 43
0.0000000001
 40
0.0
 40
0.0
 40
0.0
 40
51.08139783244141
 40
51.08139783244141
 40
51.08139783244141
 10
1058.538339089222
 20
532.7999340883246
 30
0.0
 10
1058.538339089222
 20
507.2592351721038
 30
0.0
 10
1058.538339089221
 20
481.7185362558831
 30
0.0
  0
SPLINE
  5
E0
330
1F
100
AcDbEntity
  8
Linee visibili 2D
100
AcDbSpline
210
0.0
220
0.0
230
1.0
 70
    24
 71
     2
 72
     6
 73
     3
 74
     0
 42
0.0000000001
 43
0.0000000001
 40
0.0
 40
0.0
 40
0.0
 40
13.59999999999991
 40
13.59999999999991
 40
13.59999999999991
 10
1074.338339089222
 20
541.4282120297452
 30
0.0
 10
1067.538339089222
 20
541.428212029745
 30
0.0
 10
1060.738339089222
 20
541.428212029745
 30
0.0
  0
SPLINE
  5
E1
330
1F
100
AcDbEntity
  8
Linee visibili 2D
100
AcDbSpline
210
0.0
220
0.0
230
1.0
 70
    12
 71
     2
 72
     6
 73
     3
 74
     0
 42
0.0000000001
 43
0.0000000001
 40
0.0
 40
0.0
 40
0.0
 40
2.449508592699623
 40
2.449508592699623
 40
2.449508592699623
 10
1075.838339089222
 20
539.810409915729
 30
0.0
 41
1.0
 10
1075.894933850939
 20
541.3671726129796
 30
0.0
 41
0.7081155311262813
 10
1074.338339089222
 20
541.4282120297452
 30
0.0
 41
1.0
  0
SPLINE
  5
E2
330
1F
100
AcDbEntity
  8
Linee visibili 2D
100
AcDbSpline
210
0.0
220
0.0
230
1.0
 70
    24
 71
     2
 72
     6
 73
     3
 74
     0
 42
0.0000000001
 43
0.0000000001
 40
0.0
 40
0.0
 40
0.0
 40
4.94669565916783
 40
4.94669565916783
 40
4.94669565916783
 10
1075.838339089222
 20
534.8637142565613
 30
0.0
 10
1075.838339089222
 20
537.3370620861451
 30
0.0
 10
1075.838339089222
 20
539.810409915729
 30
0.0
  0
SPLINE
  5
E3
330
1F
100
AcDbEntity
  8
Linee visibili 2D
100
AcDbSpline
210
0.0
220
0.0
230
1.0
 70
    12
 71
     2
 72
     6
 73
     3
 74
     0
 42
0.0000000001
 43
0.0000000001
 40
0.0
 40
0.0
 40
0.0
 40
2.449508592700086
 40
2.449508592700086
 40
2.449508592700086
 10
1074.338339089222
 20
533.2313479853956
 30
0.0
 41
1.0
 10
1075.89493385094
 20
533.2923874021614
 30
0.0
 41
0.7081155311262546
 10
1075.838339089222
 20
534.8491500994122
 30
0.0
 41
1.0
  0
SPLINE
  5
E4
330
1F
100
AcDbEntity
  8
Linee visibili 2D
100
AcDbSpline
210
0.0
220
0.0
230
1.0
 70
    24
 71
     2
 72
     6
 73
     3
 74
     0
 42
0.0000000001
 43
0.0000000001
 40
0.0
 40
0.0
 40
0.0
 40
13.59999999999991
 40
13.59999999999991
 40
13.59999999999991
 10
1060.738339089222
 20
533.2313479853956
 30
0.0
 10
1067.538339089222
 20
533.2313479853956
 30
0.0
 10
1074.338339089222
 20
533.2313479853956
 30
0.0
  0
SPLINE
  5
E5
330
1F
100
AcDbEntity
  8
Linee visibili 2D
100
AcDbSpline
210
0.0
220
0.0
230
1.0
 70
    12
 71
     2
 72
     6
 73
     3
 74
     0
 42
0.0000000001
 43
0.0000000001
 40
0.0
 40
0.0
 40
0.0
 40
2.449508592699856
 40
2.449508592699856
 40
2.449508592699856
 10
1059.238339089222
 20
534.8491500994122
 30
0.0
 41
1.0
 10
1059.181744327505
 20
533.2923874021618
 30
0.0
 41
0.7081155311264289
 10
1060.738339089222
 20
533.2313479853956
 30
0.0
 41
1.0
  0
SPLINE
  5
E6
330
1F
100
AcDbEntity
  8
Linee visibili 2D
100
AcDbSpline
210
0.0
220
0.0
230
1.0
 70
    24
 71
     2
 72
     6
 73
     3
 74
     0
 42
0.0000000001
 43
0.0000000001
 40
0.0
 40
0.0
 40
0.0
 40
4.94669565916783
 40
4.94669565916783
 40
4.94669565916783
 10
1059.238339089222
 20
539.810409915729
 30
0.0
 10
1059.238339089222
 20
537.3370620861451
 30
0.0
 10
1059.238339089222
 20
534.8637142565613
 30
0.0
  0
SPLINE
  5
E7
330
1F
100
AcDbEntity
  8
Linee visibili 2D
100
AcDbSpline
210
0.0
220
0.0
230
1.0
 70
    12
 71
     2
 72
     6
 73
     3
 74
     0
 42
0.0000000001
 43
0.0000000001
 40
0.0
 40
0.0
 40
0.0
 40
2.449508592699649
 40
2.449508592699649
 40
2.449508592699649
 10
1060.738339089222
 20
541.428212029745
 30
0.0
 41
1.0
 10
1059.181744327505
 20
541.3671726129797
 30
0.0
 41
0.7081155311261979
 10
1059.238339089222
 20
539.810409915729
 30
0.0
 41
1.0
  0
SPLINE
  5
E8
330
1F
100
AcDbEntity
  8
Linee visibili 2D
100
AcDbSpline
210
0.0
220
0.0
230
1.0
 70
    24
 71
     2
 72
     6
 73
     3
 74
     0
 42
0.0000000001
 43
0.0000000001
 40
0.0
 40
0.0
 40
0.0
 40
17.40000000000003
 40
17.40000000000003
 40
17.40000000000003
 10
1058.838339089222
 20
542.1831863496197
 30
0.0
 10
1067.538339089222
 20
542.1831863496197
 30
0.0
 10
1076.238339089222
 20
542.1831863496197
 30
0.0
  0
SPLINE
  5
E9
330
1F
100
AcDbEntity
  8
Linee visibili 2D
100
AcDbSpline
210
0.0
220
0.0
230
1.0
 70
    12
 71
     2
 72
     6
 73
     3
 74
     0
 42
0.0000000001
 43
0.0000000001
 40
0.0
 40
0.0
 40
0.0
 40
0.4899017185400613
 40
0.4899017185400613
 40
0.4899017185400613
 10
1058.538339089222
 20
541.8596259268164
 30
0.0
 41
1.0
 10
1058.527020136879
 20
542.1709784662665
 30
0.0
 41
0.708115531126542
 10
1058.838339089222
 20
542.1831863496197
 30
0.0
 41
1.0
  0
SPLINE
  5
EA
330
1F
100
AcDbEntity
  8
Linee visibili 2D
100
AcDbSpline
210
0.0
220
0.0
230
1.0
 70
    24
 71
     2
 72
     6
 73
     3
 74
     0
 42
0.0000000001
 43
0.0000000001
 40
0.0
 40
0.0
 40
0.0
 40
9.059691082475013
 40
9.059691082475013
 40
9.059691082475013
 10
1058.538339089222
 20
532.7999348443414
 30
0.0
 10
1058.538339089222
 20
537.3297803855789
 30
0.0
 10
1058.538339089222
 20
541.8596259268164
 30
0.0
  0
SPLINE
  5
EB
330
1F
100
AcDbEntity
  8
Linee visibili 2D
100
AcDbSpline
210
0.0
220
0.0
230
1.0
 70
    12
 71
     2
 72
     6
 73
     3
 74
     0
 42
0.0000000001
 43
0.0000000001
 40
0.0
 40
0.0
 40
0.0
 40
0.4899017185399138
 40
0.4899017185399138
 40
0.4899017185399138
 10
1058.838339089222
 20
532.4763736655214
 30
0.0
 41
1.0
 10
1058.527020136879
 20
532.4885815488744
 30
0.0
 41
0.7081155311264807
 10
1058.538339089222
 20
532.7999340883246
 30
0.0
 41
1.0
  0
SPLINE
  5
EC
330
1F
100
AcDbEntity
  8
Linee visibili 2D
100
AcDbSpline
210
0.0
220
0.0
230
1.0
 70
    12
 71
     2
 72
     6
 73
     3
 74
     0
 42
0.0000000001
 43
0.0000000001
 40
0.0
 40
0.0
 40
0.0
 40
0.4899017185400127
 40
0.4899017185400127
 40
0.4899017185400127
 10
1076.538339089222
 20
532.7999340883246
 30
0.0
 41
1.0
 10
1076.549658041566
 20
532.4885815488741
 30
0.0
 41
0.7081155311257092
 10
1076.238339089222
 20
532.4763736655214
 30
0.0
 41
1.0
  0
SPLINE
  5
ED
330
1F
100
AcDbEntity
  8
Linee visibili 2D
100
AcDbSpline
210
0.0
220
0.0
230
1.0
 70
    24
 71
     2
 72
     6
 73
     3
 74
     0
 42
0.0000000001
 43
0.0000000001
 40
0.0
 40
0.0
 40
0.0
 40
9.059691079505797
 40
9.059691079505797
 40
9.059691079505797
 10
1076.538339089222
 20
541.8596259268164
 30
0.0
 10
1076.538339089222
 20
537.3297803870635
 30
0.0
 10
1076.538339089222
 20
532.7999348473106
 30
0.0
  0
SPLINE
  5
EE
330
1F
100
AcDbEntity
  8
Linee visibili 2D
100
AcDbSpline
210
0.0
220
0.0
230
1.0
 70
    12
 71
     2
 72
     6
 73
     3
 74
     0
 42
0.0000000001
 43
0.0000000001
 40
0.0
 40
0.0
 40
0.0
 40
0.4899017185400077
 40
0.4899017185400077
 40
0.4899017185400077
 10
1076.238339089222
 20
542.1831863496197
 30
0.0
 41
1.0
 10
1076.549658041565
 20
542.1709784662664
 30
0.0
 41
0.7081155311266418
 10
1076.538339089222
 20
541.8596259268164
 30
0.0
 41
1.0
  0
SPLINE
  5
EF
330
1F
100
AcDbEntity
  8
Linee visibili 2D - Tangent
100
AcDbSpline
210
0.0
220
0.0
230
1.0
 70
    24
 71
     2
 72
     6
 73
     3
 74
     0
 42
0.0000000001
 43
0.0000000001
 40
0.0
 40
0.0
 40
0.0
 40
50.80642890395276
 40
50.80642890395276
 40
50.80642890395276
 10
1058.838339089222
 20
481.6699447615686
 30
0.0
 10
1058.838339089222
 20
507.073159213545
 30
0.0
 10
1058.838339089222
 20
532.4763736655214
 30
0.0
  0
SPLINE
  5
F0
330
1F
100
AcDbEntity
  8
Linee visibili 2D - Tangent
100
AcDbSpline
210
0.0
220
0.0
230
1.0
 70
    24
 71
     2
 72
     6
 73
     3
 74
     0
 42
0.0000000001
 43
0.0000000001
 40
0.0
 40
0.0
 40
0.0
 40
50.80642890395274
 40
50.80642890395274
 40
50.80642890395274
 10
1076.238339089222
 20
532.4763736655214
 30
0.0
 10
1076.238339089222
 20
507.073159213545
 30
0.0
 10
1076.238339089222
 20
481.6699447615686
 30
0.0
  0
SPLINE
  5
F1
330
1F
100
AcDbEntity
  8
Linee visibili 2D
100
AcDbSpline
210
0.0
220
0.0
230
1.0
 70
    24
 71
     2
 72
     6
 73
     3
 74
     0
 42
0.0000000001
 43
0.0000000001
 40
0.0
 40
0.0
 40
0.0
 40
17.40000000000003
 40
17.40000000000003
 40
17.40000000000003
 10
1058.838339089222
 20
532.4763736655214
 30
0.0
 10
1067.538339089222
 20
532.4763736655214
 30
0.0
 10
1076.238339089222
 20
532.4763736655214
 30
0.0
  0
SPLINE
  5
F2
330
1F
100
AcDbEntity
  8
Linee visibili 2D
100
AcDbSpline
210
0.0
220
0.0
230
1.0
 70
    24
 71
     2
 72
     6
 73
     3
 74
     0
 42
0.0000000001
 43
0.0000000001
 40
0.0
 40
0.0
 40
0.0
 40
0.3049107392988691
 40
0.3049107392988691
 40
0.3049107392988691
 10
1074.613374891324
 20
343.3495117367878
 30
0.0
 10
1074.637224165518
 20
343.198933345724
 30
0.0
 10
1074.661073439712
 20
343.0483549546601
 30
0.0
  0
SPLINE
  5
F3
330
1F
100
AcDbEntity
  8
Linee visibili 2D
100
AcDbSpline
210
0.0
220
0.0
230
1.0
 70
    24
 71
     2
 72
     6
 73
     3
 74
     0
 42
0.0000000001
 43
0.0000000001
 40
0.0
 40
0.0
 40
0.0
 40
0.3049107392987708
 40
0.3049107392987708
 40
0.3049107392987708
 10
1110.702981693122
 20
405.4747712513016
 30
0.0
 10
1110.560652344102
 20
405.4201361330832
 30
0.0
 10
1110.418322995083
 20
405.3655010148648
 30
0.0
  0
SPLINE
  5
F4
330
1F
100
AcDbEntity
  8
Linee visibili 2D
100
AcDbSpline
210
0.0
220
0.0
230
1.0
 70
    24
 71
     2
 72
     6
 73
     3
 74
     0
 42
0.0000000001
 43
0.0000000001
 40
0.0
 40
0.0
 40
0.0
 40
0.3076657002096264
 40
0.3076657002096264
 40
0.3076657002096264
 10
1103.341146186235
 20
417.6180887363974
 30
0.0
 10
1103.460696764434
 20
417.7148988857817
 30
0.0
 10
1103.580247342632
 20
417.811709035166
 30
0.0
  0
SPLINE
  5
F5
330
1F
100
AcDbEntity
  8
Linee visibili 2D
100
AcDbSpline
210
0.0
220
0.0
230
1.0
 70
    24
 71
     2
 72
     6
 73
     3
 74
     0
 42
0.0000000001
 43
0.0000000001
 40
0.0
 40
0.0
 40
0.0
 40
0.3003579334682315
 40
0.3003579334682315
 40
0.3003579334682315
 10
1031.496430835813
 20
417.8117090351661
 30
0.0
 10
1031.613141813306
 20
417.7171983490936
 30
0.0
 10
1031.729852790799
 20
417.622687663021
 30
0.0
  0
SPLINE
  5
F6
330
1F
100
AcDbEntity
  8
Linee visibili 2D
100
AcDbSpline
210
0.0
220
0.0
230
1.0
 70
    24
 71
     2
 72
     6
 73
     3
 74
     0
 42
0.0000000001
 43
0.0000000001
 40
0.0
 40
0.0
 40
0.0
 40
0.300357933468286
 40
0.300357933468286
 40
0.300357933468286
 10
1024.654104772952
 20
405.3671325945552
 30
0.0
 10
1024.513900629137
 20
405.4209519229285
 30
0.0
 10
1024.373696485323
 20
405.4747712513018
 30
0.0
  0
SPLINE
  5
F7
330
1F
100
AcDbEntity
  8
Linee visibili 2D
100
AcDbSpline
210
0.0
220
0.0
230
1.0
 70
    24
 71
     2
 72
     6
 73
     3
 74
     0
 42
0.0000000001
 43
0.0000000001
 40
0.0
 40
0.0
 40
0.0
 40
0.3076657002096297
 40
0.3076657002096297
 40
0.3076657002096297
 10
1060.415604738732
 20
343.0483549546601
 30
0.0
 10
1060.439669498344
 20
343.2002938671091
 30
0.0
 10
1060.463734257956
 20
343.3522327795582
 30
0.0
  0
SPLINE
  5
F8
330
1F
100
AcDbEntity
  8
Linee visibili 2D - Tangent
100
AcDbSpline
210
0.0
220
0.0
230
1.0
 70
    12
 71
     2
 72
     6
 73
     3
 74
     0
 42
0.0000000001
 43
0.0000000001
 40
0.0
 40
0.0
 40
0.0
 40
0.6529683732839444
 40
0.6529683732839444
 40
0.6529683732839444
 10
1075.915965655586
 20
481.9871979022428
 30
0.0
 41
1.0
 10
1075.931678601416
 20
481.661092049077
 30
0.0
 41
0.9999999999999868
 10
1075.947391653146
 20
481.3349862010282
 30
0.0
 41
1.0
  0
SPLINE
  5
F9
330
1F
100
AcDbEntity
  8
Linee visibili 2D
100
AcDbSpline
210
0.0
220
0.0
230
1.0
 70
    12
 71
     2
 72
     6
 73
     3
 74
     0
 42
0.0000000001
 43
0.0000000001
 40
0.0
 40
0.0
 40
0.0
 40
0.6517996921213766
 40
0.6517996921213766
 40
0.6517996921213766
 10
1059.16071252292
 20
481.9871979022428
 30
0.0
 41
1.0
 10
1059.145027700121
 20
481.6616757125306
 30
0.0
 41
0.9999999999999868
 10
1059.129342771601
 20
481.3361535279122
 30
0.0
 41
1.0
  0
SPLINE
  5
FA
330
1F
100
AcDbEntity
  8
Linee visibili 2D - Tangent
100
AcDbSpline
210
0.0
220
0.0
230
1.0
 70
    24
 71
     2
 72
     6
 73
     3
 74
     0
 42
0.0000000001
 43
0.0000000001
 40
0.0
 40
0.0
 40
0.0
 40
1.710332511406246
 40
1.710332511406246
 40
1.710332511406246
 10
1073.958009230451
 20
481.0727973251375
 30
0.0
 10
1073.916852048161
 20
481.9269726064698
 30
0.0
 10
1073.875694865871
 20
482.7811478878022
 30
0.0
  0
SPLINE
  5
FB
330
1F
100
AcDbEntity
  8
Linee visibili 2D - Tangent
100
AcDbSpline
210
0.0
220
0.0
230
1.0
 70
    12
 71
     2
 72
     6
 73
     3
 74
     0
 42
0.0000000001
 43
0.0000000001
 40
0.0
 40
0.0
 40
0.0
 40
1.71033259344813
 40
1.71033259344813
 40
1.71033259344813
 10
1061.200983315706
 20
482.7811478876974
 30
0.0
 41
1.0
 10
1061.159825758576
 20
481.9269725831978
 30
0.0
 41
0.9999999999999996
 10
1061.118668255941
 20
481.0727972763441
 30
0.0
 41
1.0
  0
SPLINE
  5
FC
330
1F
100
AcDbEntity
  8
Linee visibili 2D
100
AcDbSpline
210
0.0
220
0.0
230
1.0
 70
    12
 71
     2
 72
    14
 73
    11
 74
     0
 42
0.0000000001
 43
0.0000000001
 40
0.0
 40
0.0
 40
0.0
 40
0.6374534126489686
 40
0.6374534126489686
 40
1.213399379344936
 40
1.213399379344936
 40
1.705540296119864
 40
1.705540296119864
 40
2.096339683346779
 40
2.096339683346779
 40
2.321934924942353
 40
2.321934924942353
 40
2.321934924942353
 10
1073.875694865871
 20
482.7811478878022
 30
0.0
 41
1.0
 10
1074.194879165556
 20
482.7812546504869
 30
0.0
 41
0.9978508524806098
 10
1074.511336478603
 20
482.7396205588871
 30
0.0
 41
1.0
 10
1074.79745384354
 20
482.7024360247622
 30
0.0
 41
0.9971401502805518
 10
1075.074698538662
 20
482.6225535165161
 30
0.0
 41
1.0
 10
1075.312419315405
 20
482.5552822723645
 30
0.0
 41
0.9940279787313402
 10
1075.529884017971
 20
482.4380402529245
 30
0.0
 41
1.0
 10
1075.705788955832
 20
482.3467607967336
 30
0.0
 41
0.9791038051538581
 10
1075.830794933587
 20
482.1929817610632
 30
0.0
 41
1.0
 10
1075.902678628521
 20
482.1022159540268
 30
0.0
 41
0.961768896106918
 10
1075.915965655587
 20
481.9871979022432
 30
0.0
 41
1.0
  0
SPLINE
  5
FD
330
1F
100
AcDbEntity
  8
Linee visibili 2D
100
AcDbSpline
210
0.0
220
0.0
230
1.0
 70
    24
 71
     2
 72
     6
 73
     3
 74
     0
 42
0.0000000001
 43
0.0000000001
 40
0.0
 40
0.0
 40
0.0
 40
12.67471155330611
 40
12.67471155330611
 40
12.67471155330611
 10
1061.200983312564
 20
482.7811478878022
 30
0.0
 10
1067.538339089218
 20
482.7811478878022
 30
0.0
 10
1073.875694865871
 20
482.7811478878022
 30
0.0
  0
SPLINE
  5
FE
330
1F
100
AcDbEntity
  8
Linee visibili 2D
100
AcDbSpline
210
0.0
220
0.0
230
1.0
 70
    12
 71
     2
 72
    14
 73
    11
 74
     0
 42
0.0000000001
 43
0.0000000001
 40
0.0
 40
0.0
 40
0.0
 40
0.3318181551412929
 40
0.3318181551412929
 40
0.8071212815170641
 40
0.8071212815170641
 40
1.423090476886926
 40
1.423090476886926
 40
2.09450173165675
 40
2.09450173165675
 40
2.321900030877159
 40
2.321900030877159
 40
2.321900030877159
 10
1059.160712522907
 20
481.9871979022422
 30
0.0
 41
1.0
 10
1059.185490484182
 20
482.1587325728519
 30
0.0
 41
0.9371188666480799
 10
1059.316437822745
 20
482.2722706066081
 30
0.0
 41
1.0
 10
1059.495009028803
 20
482.4328660678568
 30
0.0
 41
0.9843837665845376
 10
1059.718171030931
 20
482.5216202148753
 30
0.0
 41
1.0
 10
1060.003860015626
 20
482.6395132509306
 30
0.0
 41
0.9947975108484102
 10
1060.307514333997
 20
482.6970547043467
 30
0.0
 41
1.0
 10
1060.637679212344
 20
482.7610726001077
 30
0.0
 41
0.9972885873753787
 10
1060.973664686275
 20
482.7759352774875
 30
0.0
 41
1.0
 10
1061.087264242263
 20
482.7811475543183
 30
0.0
 41
0.999737258820975
 10
1061.200983312564
 20
482.7811478878022
 30
0.0
 41
1.0
  0
SPLINE
  5
FF
330
1F
100
AcDbEntity
  8
Linee visibili 2D
100
AcDbSpline
210
0.0
220
0.0
230
1.0
 70
    12
 71
     2
 72
     6
 73
     3
 74
     0
 42
0.0000000001
 43
0.0000000001
 40
0.0
 40
0.0
 40
0.0
 40
14.30231181085377
 40
14.30231181085377
 40
14.30231181085377
 10
1074.661073439712
 20
343.04835495466
 30
0.0
 41
1.0
 10
1067.538339089222
 20
341.9389425439203
 30
0.0
 41
0.98808628899325
 10
1060.415604738732
 20
343.0483549546601
 30
0.0
 41
1.0
  0
SPLINE
  5
100
330
1F
100
AcDbEntity
  8
Linee visibili 2D
100
AcDbSpline
210
0.0
220
0.0
230
1.0
 70
    12
 71
     2
 72
     6
 73
     3
 74
     0
 42
0.0000000001
 43
0.0000000001
 40
0.0
 40
0.0
 40
0.0
 40
14.30231181085373
 40
14.30231181085373
 40
14.30231181085373
 10
1103.580247342632
 20
417.8117090351665
 30
0.0
 41
1.0
 10
1108.102393848851
 20
412.1979463486043
 30
0.0
 41
0.9880862889932492
 10
1110.702981693121
 20
405.4747712513022
 30
0.0
 41
1.0
  0
SPLINE
  5
101
330
1F
100
AcDbEntity
  8
Linee visibili 2D
100
AcDbSpline
210
0.0
220
0.0
230
1.0
 70
    12
 71
     2
 72
     6
 73
     3
 74
     0
 42
0.0000000001
 43
0.0000000001
 40
0.0
 40
0.0
 40
0.0
 40
14.30231181085379
 40
14.30231181085379
 40
14.30231181085379
 10
1024.373696485323
 20
405.4747712513018
 30
0.0
 41
1.0
 10
1026.974284329593
 20
412.1979463486038
 30
0.0
 41
0.9880862889932498
 10
1031.496430835813
 20
417.8117090351661
 30
0.0
 41
1.0
  0
SPLINE
  5
102
330
1F
100
AcDbEntity
  8
Linee visibili 2D
100
AcDbSpline
210
0.0
220
0.0
230
1.0
 70
    24
 71
     2
 72
     6
 73
     3
 74
     0
 42
0.0000000001
 43
0.0000000001
 40
0.0
 40
0.0
 40
0.0
 40
0.1591206604338115
 40
0.1591206604338115
 40
0.1591206604338115
 10
1110.403697350091
 20
406.2287885886451
 30
0.0
 10
1110.329930296449
 20
406.1989847643715
 30
0.0
 10
1110.256163242808
 20
406.1691809400979
 30
0.0
  0
SPLINE
  5
103
330
1F
100
AcDbEntity
  8
Linee visibili 2D
100
AcDbSpline
210
0.0
220
0.0
230
1.0
 70
    24
 71
     2
 72
     6
 73
     3
 74
     0
 42
0.0000000001
 43
0.0000000001
 40
0.0
 40
0.0
 40
0.0
 40
0.1591206604338023
 40
0.1591206604338023
 40
0.1591206604338023
 10
1103.958214548607
 20
417.0775480619168
 30
0.0
 10
1104.020908944378
 20
417.1265302921956
 30
0.0
 10
1104.08360334015
 20
417.1755125224743
 30
0.0
  0
SPLINE
  5
104
330
1F
100
AcDbEntity
  8
Linee visibili 2D
100
AcDbSpline
210
0.0
220
0.0
230
1.0
 70
    24
 71
     2
 72
     6
 73
     3
 74
     0
 42
0.0000000001
 43
0.0000000001
 40
0.0
 40
0.0
 40
0.0
 40
0.159120660433811
 40
0.159120660433811
 40
0.159120660433811
 10
1061.218245079281
 20
342.9305341300081
 30
0.0
 10
1061.229317737151
 20
343.0093201845604
 30
0.0
 10
1061.240390395021
 20
343.0881062391127
 30
0.0
  0
SPLINE
  5
105
330
1F
100
AcDbEntity
  8
Linee visibili 2D
100
AcDbSpline
210
0.0
220
0.0
230
1.0
 70
    24
 71
     2
 72
     6
 73
     3
 74
     0
 42
0.0000000001
 43
0.0000000001
 40
0.0
 40
0.0
 40
0.0
 40
0.159120660434008
 40
0.159120660434008
 40
0.159120660434008
 10
1073.836287783423
 20
343.0881062391127
 30
0.0
 10
1073.847360441293
 20
343.0093201845603
 30
0.0
 10
1073.858433099163
 20
342.9305341300079
 30
0.0
  0
SPLINE
  5
106
330
1F
100
AcDbEntity
  8
Linee visibili 2D
100
AcDbSpline
210
0.0
220
0.0
230
1.0
 70
    24
 71
     2
 72
     6
 73
     3
 74
     0
 42
0.0000000001
 43
0.0000000001
 40
0.0
 40
0.0
 40
0.0
 40
0.1591206604338646
 40
0.1591206604338646
 40
0.1591206604338646
 10
1030.993074838294
 20
417.1755125224745
 30
0.0
 10
1031.055769234066
 20
417.1265302921958
 30
0.0
 10
1031.118463629837
 20
417.077548061917
 30
0.0
  0
SPLINE
  5
107
330
1F
100
AcDbEntity
  8
Linee visibili 2D
100
AcDbSpline
210
0.0
220
0.0
230
1.0
 70
    24
 71
     2
 72
     6
 73
     3
 74
     0
 42
0.0000000001
 43
0.0000000001
 40
0.0
 40
0.0
 40
0.0
 40
0.1591206604337589
 40
0.1591206604337589
 40
0.1591206604337589
 10
1024.820514935636
 20
406.1691809400979
 30
0.0
 10
1024.746747881995
 20
406.1989847643715
 30
0.0
 10
1024.672980828354
 20
406.2287885886451
 30
0.0
  0
SPLINE
  5
108
330
1F
100
AcDbEntity
  8
Linee visibili 2D - Tangent
100
AcDbSpline
210
0.0
220
0.0
230
1.0
 70
    12
 71
     2
 72
    12
 73
     9
 74
     0
 42
0.0000000001
 43
0.0000000001
 40
0.0
 40
0.0
 40
0.0
 40
35.82498769823208
 40
35.82498769823208
 40
71.64997539646416
 40
71.64997539646416
 40
107.4749630946962
 40
107.4749630946962
 40
143.2999507929283
 40
143.2999507929283
 40
143.2999507929283
 10
1107.041034836101
 20
365.9713863905332
 30
0.0
 41
1.0
 10
1097.594113172145
 20
349.6088290095382
 30
0.0
 41
0.9238795095126762
 10
1079.344054932796
 20
344.7187382913971
 30
0.0
 41
1.0
 10
1061.093996693447
 20
339.8286475732561
 30
0.0
 41
0.9238795095126762
 10
1044.731441583427
 20
349.2755731706565
 30
0.0
 41
1.0
 10
1028.368886473407
 20
358.7224987680568
 30
0.0
 41
0.9238795095126762
 10
1023.478800142453
 20
376.9725581829487
 30
0.0
 41
1.0
 10
1018.588713811499
 20
395.2226175978407
 30
0.0
 41
0.9238795095126762
 10
1028.035643342344
 20
411.5851704368853
 30
0.0
 41
1.0
  0
SPLINE
  5
109
330
1F
100
AcDbEntity
  8
Linee visibili 2D - Tangent
100
AcDbSpline
210
0.0
220
0.0
230
1.0
 70
    12
 71
     2
 72
    12
 73
     9
 74
     0
 42
0.0000000001
 43
0.0000000001
 40
0.0
 40
0.0
 40
0.0
 40
35.82498769823248
 40
35.82498769823248
 40
71.64997539646497
 40
71.64997539646497
 40
107.4749630946974
 40
107.4749630946974
 40
143.2999507929299
 40
143.2999507929299
 40
143.2999507929299
 10
1028.035643342344
 20
411.5851704368853
 30
0.0
 41
1.0
 10
1037.482565006299
 20
427.9477278178808
 30
0.0
 41
0.9238795095126741
 10
1055.732623245648
 20
432.837818536022
 30
0.0
 41
1.0
 10
1073.982681484997
 20
437.7279092541633
 30
0.0
 41
0.9238795095126741
 10
1090.345236595017
 20
428.2809836567628
 30
0.0
 41
1.0
 10
1106.707791705038
 20
418.8340580593624
 30
0.0
 41
0.9238795095126741
 10
1111.597878035992
 20
400.5839986444702
 30
0.0
 41
1.0
 10
1116.487964366946
 20
382.3339392295779
 30
0.0
 41
0.9238795095126741
 10
1107.0410348361
 20
365.9713863905333
 30
0.0
 41
1.0
  0
SPLINE
  5
10A
330
1F
100
AcDbEntity
  8
Linee visibili 2D
100
AcDbSpline
210
0.0
220
0.0
230
1.0
 70
    12
 71
     2
 72
     8
 73
     5
 74
     0
 42
0.0000000001
 43
0.0000000001
 40
0.0
 40
0.0
 40
0.0
 40
72.19783300656232
 40
72.19783300656232
 40
144.3956660131245
 40
144.3956660131245
 40
144.3956660131245
 10
1027.733599448477
 20
411.7595555603174
 30
0.0
 41
1.0
 10
1050.714883443891
 20
451.5643070903817
 30
0.0
 41
0.707106781186548
 10
1090.519634973955
 20
428.5830230949674
 30
0.0
 41
1.0
 10
1130.3243864906
 20
405.6017390763099
 30
0.0
 41
0.7071067811865527
 10
1107.343102471943
 20
365.7969875596651
 30
0.0
 41
1.0
  0
SPLINE
  5
10B
330
1F
100
AcDbEntity
  8
Linee visibili 2D
100
AcDbSpline
210
0.0
220
0.0
230
1.0
 70
    12
 71
     2
 72
     6
 73
     3
 74
     0
 42
0.0000000001
 43
0.0000000001
 40
0.0
 40
0.0
 40
0.0
 40
6.317686357755187
 40
6.317686357755187
 40
6.317686357755187
 10
1031.118463629837
 20
417.0775480619162
 30
0.0
 41
1.0
 10
1029.177250562988
 20
414.5792949616197
 30
0.0
 41
0.9976555735507873
 10
1027.595354807569
 20
411.8393711409572
 30
0.0
 41
1.0
  0
SPLINE
  5
10C
330
1F
100
AcDbEntity
  8
Linee visibili 2D
100
AcDbSpline
210
0.0
220
0.0
230
1.0
 70
    12
 71
     2
 72
     6
 73
     3
 74
     0
 42
0.0000000001
 43
0.0000000001
 40
0.0
 40
0.0
 40
0.0
 40
0.172681935561167
 40
0.172681935561167
 40
0.172681935561167
 10
1031.289844423313
 20
417.0987062786895
 30
0.0
 41
1.0
 10
1031.204147020094
 20
417.0881839225464
 30
0.0
 41
0.9999997806833432
 10
1031.118463629837
 20
417.077548061917
 30
0.0
 41
1.0
  0
SPLINE
  5
10D
330
1F
100
AcDbEntity
  8
Linee visibili 2D
100
AcDbSpline
210
0.0
220
0.0
230
1.0
 70
    12
 71
     2
 72
     6
 73
     3
 74
     0
 42
0.0000000001
 43
0.0000000001
 40
0.0
 40
0.0
 40
0.0
 40
0.1726819355611644
 40
0.1726819355611644
 40
0.1726819355611644
 10
1103.958214548607
 20
417.0775480619168
 30
0.0
 41
1.0
 10
1103.87253115835
 20
417.0881839225461
 30
0.0
 41
0.9999997806833437
 10
1103.786833755131
 20
417.0987062786894
 30
0.0
 41
1.0
  0
SPLINE
  5
10E
330
1F
100
AcDbEntity
  8
Linee visibili 2D
100
AcDbSpline
210
0.0
220
0.0
230
1.0
 70
    12
 71
     2
 72
     6
 73
     3
 74
     0
 42
0.0000000001
 43
0.0000000001
 40
0.0
 40
0.0
 40
0.0
 40
12.63537271551024
 40
12.63537271551024
 40
12.63537271551024
 10
1110.256163242809
 20
406.1691809400962
 30
0.0
 41
1.0
 10
1107.858995391515
 20
412.0574201837379
 30
0.0
 41
0.9906332868739004
 10
1103.958214548608
 20
417.0775480619154
 30
0.0
 41
1.0
  0
SPLINE
  5
10F
330
1F
100
AcDbEntity
  8
Linee visibili 2D
100
AcDbSpline
210
0.0
220
0.0
230
1.0
 70
    12
 71
     2
 72
     6
 73
     3
 74
     0
 42
0.0000000001
 43
0.0000000001
 40
0.0
 40
0.0
 40
0.0
 40
0.172681935561231
 40
0.172681935561231
 40
0.172681935561231
 10
1110.188796399294
 20
406.0101817108411
 30
0.0
 41
1.0
 10
1110.222532473176
 20
406.0896590171385
 30
0.0
 41
0.9999997806833436
 10
1110.256163242808
 20
406.1691809400979
 30
0.0
 41
1.0
  0
SPLINE
  5
110
330
1F
100
AcDbEntity
  8
Linee visibili 2D
100
AcDbSpline
210
0.0
220
0.0
230
1.0
 70
    12
 71
     2
 72
     6
 73
     3
 74
     0
 42
0.0000000001
 43
0.0000000001
 40
0.0
 40
0.0
 40
0.0
 40
0.1726819355612192
 40
0.1726819355612192
 40
0.1726819355612192
 10
1073.836287783423
 20
343.0881062391127
 30
0.0
 41
1.0
 10
1073.888340404048
 20
343.156992301443
 30
0.0
 41
0.9999997806833449
 10
1073.940301733385
 20
343.225947251597
 30
0.0
 41
1.0
  0
SPLINE
  5
111
330
1F
100
AcDbEntity
  8
Linee visibili 2D
100
AcDbSpline
210
0.0
220
0.0
230
1.0
 70
    12
 71
     2
 72
     6
 73
     3
 74
     0
 42
0.0000000001
 43
0.0000000001
 40
0.0
 40
0.0
 40
0.0
 40
12.63537271551039
 40
12.63537271551039
 40
12.63537271551039
 10
1061.240390395021
 20
343.0881062391128
 30
0.0
 41
1.0
 10
1067.538339089222
 20
342.2199948736484
 30
0.0
 41
0.9906332868739014
 10
1073.836287783423
 20
343.0881062391128
 30
0.0
 41
1.0
  0
SPLINE
  5
112
330
1F
100
AcDbEntity
  8
Linee visibili 2D
100
AcDbSpline
210
0.0
220
0.0
230
1.0
 70
    12
 71
     2
 72
     6
 73
     3
 74
     0
 42
0.0000000001
 43
0.0000000001
 40
0.0
 40
0.0
 40
0.0
 40
0.1726819355612176
 40
0.1726819355612176
 40
0.1726819355612176
 10
1061.136376445059
 20
343.225947251597
 30
0.0
 41
1.0
 10
1061.188337774396
 20
343.1569923014429
 30
0.0
 41
0.9999997806833436
 10
1061.240390395021
 20
343.0881062391128
 30
0.0
 41
1.0
  0
SPLINE
  5
113
330
1F
100
AcDbEntity
  8
Linee visibili 2D
100
AcDbSpline
210
0.0
220
0.0
230
1.0
 70
    12
 71
     2
 72
     6
 73
     3
 74
     0
 42
0.0000000001
 43
0.0000000001
 40
0.0
 40
0.0
 40
0.0
 40
0.172681935561202
 40
0.172681935561202
 40
0.172681935561202
 10
1024.820514935636
 20
406.1691809400979
 30
0.0
 41
1.0
 10
1024.854145705268
 20
406.0896590171385
 30
0.0
 41
0.9999997806833439
 10
1024.88788177915
 20
406.0101817108412
 30
0.0
 41
1.0
  0
SPLINE
  5
114
330
1F
100
AcDbEntity
  8
Linee visibili 2D
100
AcDbSpline
210
0.0
220
0.0
230
1.0
 70
    12
 71
     2
 72
     6
 73
     3
 74
     0
 42
0.0000000001
 43
0.0000000001
 40
0.0
 40
0.0
 40
0.0
 40
6.317686357755197
 40
6.317686357755197
 40
6.317686357755197
 10
1027.59535480757
 20
411.8393711409583
 30
0.0
 41
1.0
 10
1026.013459052152
 20
409.0994473202957
 30
0.0
 41
0.9976555735507894
 10
1024.820514935636
 20
406.1691809400983
 30
0.0
 41
1.0
  0
SPLINE
  5
115
330
1F
100
AcDbEntity
  8
Linee visibili 2D
100
AcDbSpline
210
0.0
220
0.0
230
1.0
 70
    24
 71
     2
 72
     6
 73
     3
 74
     0
 42
0.0000000001
 43
0.0000000001
 40
0.0
 40
0.0
 40
0.0
 40
0.1596311612824846
 40
0.1596311612824846
 40
0.1596311612824846
 10
1027.733599448476
 20
411.7595555603167
 30
0.0
 10
1027.664477128023
 20
411.7994633506373
 30
0.0
 10
1027.59535480757
 20
411.839371140958
 30
0.0
  0
SPLINE
  5
116
330
1F
100
AcDbEntity
  8
Linee visibili 2D
100
AcDbSpline
210
0.0
220
0.0
230
1.0
 70
    12
 71
     2
 72
     8
 73
     5
 74
     0
 42
0.0000000001
 43
0.0000000001
 40
0.0
 40
0.0
 40
0.0
 40
72.19783300656242
 40
72.19783300656242
 40
144.3956660131247
 40
144.3956660131247
 40
144.3956660131247
 10
1107.343102471943
 20
365.7969875596651
 30
0.0
 41
1.0
 10
1084.361818476528
 20
325.9922360296007
 30
0.0
 41
0.7071067811865471
 10
1044.557066946464
 20
348.9735200250151
 30
0.0
 41
1.0
 10
1004.752315429819
 20
371.9548040436726
 30
0.0
 41
0.7071067811865479
 10
1027.733599448477
 20
411.7595555603175
 30
0.0
 41
1.0
  0
SPLINE
  5
117
330
1F
100
AcDbEntity
  8
Linee visibili 2D
100
AcDbSpline
210
0.0
220
0.0
230
1.0
 70
    12
 71
     2
 72
     6
 73
     3
 74
     0
 42
0.0000000001
 43
0.0000000001
 40
0.0
 40
0.0
 40
0.0
 40
1.853333677038176
 40
1.853333677038176
 40
1.853333677038176
 10
1060.538950092535
 20
434.2426441705639
 30
0.0
 41
1.0
 10
1059.622949655779
 20
434.1016228834249
 30
0.0
 41
0.9997970977339458
 10
1058.713372769091
 20
433.923820490957
 30
0.0
 41
1.0
  0
SPLINE
  5
118
330
1F
100
AcDbEntity
  8
Linee visibili 2D
100
AcDbSpline
210
0.0
220
0.0
230
1.0
 70
    12
 71
     2
 72
     6
 73
     3
 74
     0
 42
0.0000000001
 43
0.0000000001
 40
0.0
 40
0.0
 40
0.0
 40
1.205696727912724
 40
1.205696727912724
 40
1.205696727912724
 10
1062.446564805304
 20
434.495603736191
 30
0.0
 41
1.0
 10
1061.847386702208
 20
434.4288701809073
 30
0.0
 41
0.9999141254847892
 10
1061.250163346287
 20
434.3464564091697
 30
0.0
 41
1.0
  0
SPLINE
  5
119
330
1F
100
AcDbEntity
  8
Linee visibili 2D
100
AcDbSpline
210
0.0
220
0.0
230
1.0
 70
    12
 71
     2
 72
     6
 73
     3
 74
     0
 42
0.0000000001
 43
0.0000000001
 40
0.0
 40
0.0
 40
0.0
 40
0.3784472369585811
 40
0.3784472369585811
 40
0.3784472369585811
 10
1063.851564795467
 20
434.6302979472795
 30
0.0
 41
1.0
 10
1063.66294883918
 20
434.6151321058158
 30
0.0
 41
0.9999915393366506
 10
1063.474464035827
 20
434.598415030162
 30
0.0
 41
1.0
  0
SPLINE
  5
11A
330
1F
100
AcDbEntity
  8
Linee visibili 2D
100
AcDbSpline
210
0.0
220
0.0
230
1.0
 70
    12
 71
     2
 72
     6
 73
     3
 74
     0
 42
0.0000000001
 43
0.0000000001
 40
0.0
 40
0.0
 40
0.0
 40
0.4833289145713804
 40
0.4833289145713804
 40
0.4833289145713804
 10
1069.671542720055
 20
434.7287892081433
 30
0.0
 41
1.0
 10
1069.43013603708
 20
434.7399962568513
 30
0.0
 41
0.9999862000057672
 10
1069.188624927679
 20
434.7486662373005
 30
0.0
 41
1.0
  0
SPLINE
  5
11B
330
1F
100
AcDbEntity
  8
Linee visibili 2D
100
AcDbSpline
210
0.0
220
0.0
230
1.0
 70
    12
 71
     2
 72
     6
 73
     3
 74
     0
 42
0.0000000001
 43
0.0000000001
 40
0.0
 40
0.0
 40
0.0
 40
0.319088431379157
 40
0.319088431379157
 40
0.319088431379157
 10
1070.391631672202
 20
434.6897009731978
 30
0.0
 41
1.0
 10
1070.232394035786
 20
434.6995972373863
 30
0.0
 41
0.9999939852714457
 10
1070.073091583528
 20
434.7083886878269
 30
0.0
 41
1.0
  0
SPLINE
  5
11C
330
1F
100
AcDbEntity
  8
Linee visibili 2D
100
AcDbSpline
210
0.0
220
0.0
230
1.0
 70
    24
 71
     2
 72
     6
 73
     3
 74
     0
 42
0.0000000001
 43
0.0000000001
 40
0.0
 40
0.0
 40
0.0
 40
4.0
 40
4.0
 40
4.0
 10
1132.538339089222
 20
538.8782784137102
 30
0.0
 10
1132.538339089222
 20
536.8782784137102
 30
0.0
 10
1132.538339089222
 20
534.8782784137102
 30
0.0
  0
SPLINE
  5
11D
330
1F
100
AcDbEntity
  8
Linee visibili 2D
100
AcDbSpline
210
0.0
220
0.0
230
1.0
 70
    24
 71
     2
 72
     6
 73
     3
 74
     0
 42
0.0000000001
 43
0.0000000001
 40
0.0
 40
0.0
 40
0.0
 40
55.99999999951137
 40
55.99999999951137
 40
55.99999999951137
 10
1076.538339089711
 20
538.8782784137102
 30
0.0
 10
1104.538339089466
 20
538.8782784137102
 30
0.0
 10
1132.538339089222
 20
538.8782784137102
 30
0.0
  0
SPLINE
  5
11E
330
1F
100
AcDbEntity
  8
Linee visibili 2D
100
AcDbSpline
210
0.0
220
0.0
230
1.0
 70
    24
 71
     2
 72
     6
 73
     3
 74
     0
 42
0.0000000001
 43
0.0000000001
 40
0.0
 40
0.0
 40
0.0
 40
55.99999999950933
 40
55.99999999950933
 40
55.99999999950933
 10
1002.538339089222
 20
538.8782784137102
 30
0.0
 10
1030.538339088977
 20
538.8782784137102
 30
0.0
 10
1058.538339088731
 20
538.8782784137103
 30
0.0
  0
SPLINE
  5
11F
330
1F
100
AcDbEntity
  8
Linee visibili 2D
100
AcDbSpline
210
0.0
220
0.0
230
1.0
 70
    24
 71
     2
 72
     6
 73
     3
 74
     0
 42
0.0000000001
 43
0.0000000001
 40
0.0
 40
0.0
 40
0.0
 40
55.9999999999917
 40
55.9999999999917
 40
55.9999999999917
 10
1058.538339089214
 20
534.8782784137103
 30
0.0
 10
1030.538339089218
 20
534.8782784137102
 30
0.0
 10
1002.538339089222
 20
534.8782784137102
 30
0.0
  0
SPLINE
  5
120
330
1F
100
AcDbEntity
  8
Linee visibili 2D
100
AcDbSpline
210
0.0
220
0.0
230
1.0
 70
    24
 71
     2
 72
     6
 73
     3
 74
     0
 42
0.0000000001
 43
0.0000000001
 40
0.0
 40
0.0
 40
0.0
 40
55.99999999999113
 40
55.99999999999113
 40
55.99999999999113
 10
1132.538339089222
 20
534.8782784137102
 30
0.0
 10
1104.538339089227
 20
534.8782784137102
 30
0.0
 10
1076.538339089231
 20
534.8782784137102
 30
0.0
  0
SPLINE
  5
121
330
1F
100
AcDbEntity
  8
Linee visibili 2D
100
AcDbSpline
210
0.0
220
0.0
230
1.0
 70
    24
 71
     2
 72
     6
 73
     3
 74
     0
 42
0.0000000001
 43
0.0000000001
 40
0.0
 40
0.0
 40
0.0
 40
15.0
 40
15.0
 40
15.0
 10
1125.538339089222
 20
553.8782784137102
 30
0.0
 10
1125.538339089222
 20
546.3782784137102
 30
0.0
 10
1125.538339089222
 20
538.8782784137102
 30
0.0
  0
SPLINE
  5
122
330
1F
100
AcDbEntity
  8
Linee visibili 2D
100
AcDbSpline
210
0.0
220
0.0
230
1.0
 70
    24
 71
     2
 72
     6
 73
     3
 74
     0
 42
0.0000000001
 43
0.0000000001
 40
0.0
 40
0.0
 40
0.0
 40
116.0
 40
116.0
 40
116.0
 10
1009.538339089222
 20
553.8782784137102
 30
0.0
 10
1067.538339089222
 20
553.8782784137102
 30
0.0
 10
1125.538339089222
 20
553.8782784137102
 30
0.0
  0
SPLINE
  5
123
330
1F
100
AcDbEntity
  8
Linee visibili 2D
100
AcDbSpline
210
0.0
220
0.0
230
1.0
 70
    12
 71
     2
 72
     6
 73
     3
 74
     0
 42
0.0000000001
 43
0.0000000001
 40
0.0
 40
0.0
 40
0.0
 40
13.01071858206821
 40
13.01071858206821
 40
13.01071858206821
 10
1061.038339089222
 20
481.0671747432131
 30
0.0
 41
1.0
 10
1067.538339089222
 20
481.5249762955162
 30
0.0
 41
0.9975289261331142
 10
1074.038339089222
 20
481.0671747432131
 30
0.0
 41
1.0
  0
SPLINE
  5
124
330
1F
100
AcDbEntity
  8
Linee visibili 2D
100
AcDbSpline
210
0.0
220
0.0
230
1.0
 70
    12
 71
     2
 72
     8
 73
     5
 74
     0
 42
0.0000000001
 43
0.0000000001
 40
0.0
 40
0.0
 40
0.0
 40
72.9672046189029
 40
72.9672046189029
 40
145.9344092378057
 40
145.9344092378057
 40
145.9344092378057
 10
1067.538339089222
 20
435.2306436084939
 30
0.0
 41
1.0
 10
1021.085973894437
 20
435.2306436084939
 30
0.0
 41
0.7071067811865476
 10
1021.085973894437
 20
388.7782784137092
 30
0.0
 41
1.0
 10
1021.085973894437
 20
342.3259132189246
 30
0.0
 41
0.7071067811865474
 10
1067.538339089222
 20
342.3259132189246
 30
0.0
 41
1.0
  0
SPLINE
  5
125
330
1F
100
AcDbEntity
  8
Linee visibili 2D
100
AcDbSpline
210
0.0
220
0.0
230
1.0
 70
    12
 71
     2
 72
     8
 73
     5
 74
     0
 42
0.0000000001
 43
0.0000000001
 40
0.0
 40
0.0
 40
0.0
 40
72.96720461890283
 40
72.96720461890283
 40
145.9344092378058
 40
145.9344092378058
 40
145.9344092378058
 10
1067.538339089222
 20
342.3259132189245
 30
0.0
 41
1.0
 10
1113.990704284007
 20
342.3259132189247
 30
0.0
 41
0.7071067811865487
 10
1113.990704284007
 20
388.7782784137092
 30
0.0
 41
1.0
 10
1113.990704284007
 20
435.2306436084939
 30
0.0
 41
0.7071067811865479
 10
1067.538339089222
 20
435.230643608494
 30
0.0
 41
1.0
  0
SPLINE
  5
126
330
1F
100
AcDbEntity
  8
Linee visibili 2D - Tangent
100
AcDbSpline
210
0.0
220
0.0
230
1.0
 70
    12
 71
     2
 72
     8
 73
     5
 74
     0
 42
0.0000000001
 43
0.0000000001
 40
0.0
 40
0.0
 40
0.0
 40
75.11312068099264
 40
75.11312068099264
 40
150.2262413619852
 40
150.2262413619852
 40
150.2262413619852
 10
1067.538339089222
 20
340.959780623957
 30
0.0
 41
1.0
 10
1019.71984129947
 20
340.959780623957
 30
0.0
 41
0.7071067811865474
 10
1019.71984129947
 20
388.7782784137092
 30
0.0
 41
1.0
 10
1019.71984129947
 20
436.5967762034614
 30
0.0
 41
0.7071067811865479
 10
1067.538339089222
 20
436.5967762034614
 30
0.0
 41
1.0
  0
SPLINE
  5
127
330
1F
100
AcDbEntity
  8
Linee visibili 2D - Tangent
100
AcDbSpline
210
0.0
220
0.0
230
1.0
 70
    12
 71
     2
 72
     8
 73
     5
 74
     0
 42
0.0000000001
 43
0.0000000001
 40
0.0
 40
0.0
 40
0.0
 40
75.11312068099261
 40
75.11312068099261
 40
150.2262413619853
 40
150.2262413619853
 40
150.2262413619853
 10
1067.538339089222
 20
436.5967762034614
 30
0.0
 41
1.0
 10
1115.356836878974
 20
436.5967762034614
 30
0.0
 41
0.7071067811865476
 10
1115.356836878974
 20
388.7782784137092
 30
0.0
 41
1.0
 10
1115.356836878974
 20
340.9597806239571
 30
0.0
 41
0.7071067811865486
 10
1067.538339089222
 20
340.959780623957
 30
0.0
 41
1.0
  0
SPLINE
  5
128
330
1F
100
AcDbEntity
  8
Linee visibili 2D - Tangent
100
AcDbSpline
210
0.0
220
0.0
230
1.0
 70
    12
 71
     2
 72
     8
 73
     5
 74
     0
 42
0.0000000001
 43
0.0000000001
 40
0.0
 40
0.0
 40
0.0
 40
75.85182319279949
 40
75.85182319279949
 40
151.7036463855989
 40
151.7036463855989
 40
151.7036463855989
 10
1067.538339089222
 20
340.4895079990432
 30
0.0
 41
1.0
 10
1019.249568674556
 20
340.4895079990433
 30
0.0
 41
0.7071067811865489
 10
1019.249568674556
 20
388.7782784137092
 30
0.0
 41
1.0
 10
1019.249568674556
 20
437.0670488283752
 30
0.0
 41
0.7071067811865489
 10
1067.538339089222
 20
437.0670488283753
 30
0.0
 41
1.0
  0
SPLINE
  5
129
330
1F
100
AcDbEntity
  8
Linee visibili 2D
100
AcDbSpline
210
0.0
220
0.0
230
1.0
 70
    12
 71
     2
 72
     8
 73
     5
 74
     0
 42
0.0000000001
 43
0.0000000001
 40
0.0
 40
0.0
 40
0.0
 40
147.2098969075929
 40
147.2098969075929
 40
294.4197938151899
 40
294.4197938151899
 40
294.4197938151899
 10
1057.926199728807
 20
485.0840039236417
 30
0.0
 41
1.0
 10
966.2980781391702
 20
475.9387129519657
 30
0.0
 41
0.7244714362240118
 10
970.8765175719292
 20
383.9692239604396
 30
0.0
 41
1.0
 10
975.4549583252021
 20
291.9997350346529
 30
0.0
 41
0.7244714362240524
 10
1067.538339089222
 20
292.0000000234027
 30
0.0
 41
1.0
  0
SPLINE
  5
12A
330
1F
100
AcDbEntity
  8
Linee visibili 2D
100
AcDbSpline
210
0.0
220
0.0
230
1.0
 70
    12
 71
     2
 72
     6
 73
     3
 74
     0
 42
0.0000000001
 43
0.0000000001
 40
0.0
 40
0.0
 40
0.0
 40
3.167153717119859
 40
3.167153717119859
 40
3.167153717119859
 10
1058.216105884614
 20
481.9301464679088
 30
0.0
 41
1.0
 10
1058.070732433558
 20
483.5070365545981
 30
0.0
 41
0.9999999644683157
 10
1057.926199728806
 20
485.0840039236416
 30
0.0
 41
1.0
  0
SPLINE
  5
12B
330
1F
100
AcDbEntity
  8
Linee visibili 2D
100
AcDbSpline
210
0.0
220
0.0
230
1.0
 70
    12
 71
     2
 72
     6
 73
     3
 74
     0
 42
0.0000000001
 43
0.0000000001
 40
0.0
 40
0.0
 40
0.0
 40
0.5927965411252603
 40
0.5927965411252603
 40
0.5927965411252603
 10
1058.715562964837
 20
481.7125343927721
 30
0.0
 41
1.0
 10
1058.373124390926
 20
481.6085549828426
 30
0.0
 41
0.7611623853848835
 10
1058.216105884615
 20
481.9301464679088
 30
0.0
 41
1.0
  0
SPLINE
  5
12C
330
1F
100
AcDbEntity
  8
Linee visibili 2D
100
AcDbSpline
210
0.0
220
0.0
230
1.0
 70
    12
 71
     2
 72
     6
 73
     3
 74
     0
 42
0.0000000001
 43
0.0000000001
 40
0.0
 40
0.0
 40
0.0
 40
0.1208778462497741
 40
0.1208778462497741
 40
0.1208778462497741
 10
1058.836291909656
 20
481.7185321883013
 30
0.0
 41
1.0
 10
1058.77592549371
 20
481.715572411754
 30
0.0
 41
0.9999997899939688
 10
1058.715562964837
 20
481.712534392772
 30
0.0
 41
1.0
  0
SPLINE
  5
12D
330
1F
100
AcDbEntity
  8
Linee visibili 2D
100
AcDbSpline
210
0.0
220
0.0
230
1.0
 70
    12
 71
     2
 72
     6
 73
     3
 74
     0
 42
0.0000000001
 43
0.0000000001
 40
0.0
 40
0.0
 40
0.0
 40
0.1208778462495474
 40
0.1208778462495474
 40
0.1208778462495474
 10
1076.361115213607
 20
481.7125343927721
 30
0.0
 41
1.0
 10
1076.300752684734
 20
481.7155724117539
 30
0.0
 41
0.9999997899939689
 10
1076.240386268789
 20
481.7185321883013
 30
0.0
 41
1.0
  0
SPLINE
  5
12E
330
1F
100
AcDbEntity
  8
Linee visibili 2D
100
AcDbSpline
210
0.0
220
0.0
230
1.0
 70
    12
 71
     2
 72
     6
 73
     3
 74
     0
 42
0.0000000001
 43
0.0000000001
 40
0.0
 40
0.0
 40
0.0
 40
0.5928568614192408
 40
0.5928568614192408
 40
0.5928568614192408
 10
1076.86057229383
 20
481.9301464679088
 30
0.0
 41
1.0
 10
1076.703632288686
 20
481.608374809182
 30
0.0
 41
0.7608913159131829
 10
1076.361115213607
 20
481.7125343927722
 30
0.0
 41
1.0
  0
SPLINE
  5
12F
330
1F
100
AcDbEntity
  8
Linee visibili 2D
100
AcDbSpline
210
0.0
220
0.0
230
1.0
 70
    12
 71
     2
 72
     6
 73
     3
 74
     0
 42
0.0000000001
 43
0.0000000001
 40
0.0
 40
0.0
 40
0.0
 40
3.167126718381336
 40
3.167126718381336
 40
3.167126718381336
 10
1077.154161674887
 20
485.0836360727759
 30
0.0
 41
1.0
 10
1077.007787313477
 20
483.5068521377682
 30
0.0
 41
0.9999999644674711
 10
1076.860572293829
 20
481.9301464679088
 30
0.0
 41
1.0
  0
SPLINE
  5
130
330
1F
100
AcDbEntity
  8
Linee visibili 2D
100
AcDbSpline
210
0.0
220
0.0
230
1.0
 70
    12
 71
     2
 72
     8
 73
     5
 74
     0
 42
0.0000000001
 43
0.0000000001
 40
0.0
 40
0.0
 40
0.0
 40
147.2097566230653
 40
147.2097566230653
 40
294.4195132460989
 40
294.4195132460989
 40
294.4195132460989
 10
1067.538339089222
 20
292.0000000234027
 30
0.0
 41
1.0
 10
1159.621632079928
 20
291.9979741046314
 30
0.0
 41
0.7244714362241941
 10
1164.201827221645
 20
383.9672878162186
 30
0.0
 41
1.0
 10
1168.782021042847
 20
475.936601593579
 30
0.0
 41
0.7244714362238719
 10
1077.154161674887
 20
485.083636072776
 30
0.0
 41
1.0
  0
SPLINE
  5
131
330
1F
100
AcDbEntity
  8
Linee visibili 2D - Tangent
100
AcDbSpline
210
0.0
220
0.0
230
1.0
 70
    12
 71
     2
 72
     8
 73
     5
 74
     0
 42
0.0000000001
 43
0.0000000001
 40
0.0
 40
0.0
 40
0.0
 40
75.85182319279942
 40
75.85182319279942
 40
151.703646385599
 40
151.703646385599
 40
151.703646385599
 10
1067.538339089222
 20
437.0670488283753
 30
0.0
 41
1.0
 10
1115.827109503888
 20
437.0670488283752
 30
0.0
 41
0.7071067811865483
 10
1115.827109503888
 20
388.7782784137092
 30
0.0
 41
1.0
 10
1115.827109503888
 20
340.489507999043
 30
0.0
 41
0.7071067811865455
 10
1067.538339089222
 20
340.4895079990432
 30
0.0
 41
1.0
  0
SPLINE
  5
132
330
1F
100
AcDbEntity
  8
Linee visibili 2D
100
AcDbSpline
210
0.0
220
0.0
230
1.0
 70
    12
 71
     3
 72
    10
 73
     6
 74
     0
 42
0.0000000001
 43
0.0000000001
 40
-1.0
 40
-1.0
 40
-1.0
 40
-1.0
 40
-0.489321486268318
 40
-0.489321486268318
 40
0.0
 40
0.0
 40
0.0
 40
0.0
 10
1061.038339089222
 20
481.0671747432131
 30
0.0
 41
1.0
 10
1060.373816105576
 20
481.0203717196046
 30
0.0
 41
1.0
 10
1059.807680846625
 20
481.0750608950487
 30
0.0
 41
1.0
 10
1059.021468204121
 20
481.3206335295562
 30
0.0
 41
1.0
 10
1058.847310005098
 20
481.4912987093433
 30
0.0
 41
1.0
 10
1058.838674159878
 20
481.6699447615686
 30
0.0
 41
1.0
  0
SPLINE
  5
133
330
1F
100
AcDbEntity
  8
Linee visibili 2D
100
AcDbSpline
210
0.0
220
0.0
230
1.0
 70
    12
 71
     3
 72
    10
 73
     6
 74
     0
 42
0.0000000001
 43
0.0000000001
 40
-1.0
 40
-1.0
 40
-1.0
 40
-1.0
 40
-0.5065038831771874
 40
-0.5065038831771874
 40
0.0
 40
0.0
 40
0.0
 40
0.0
 10
1076.238004018566
 20
481.6699447615686
 30
0.0
 41
1.0
 10
1076.229320254679
 20
481.4903074362919
 30
0.0
 41
1.0
 10
1076.061354419318
 20
481.3222362400119
 30
0.0
 41
1.0
 10
1075.26935737047
 20
481.0755611934542
 30
0.0
 41
1.0
 10
1074.703097878559
 20
481.0203551115723
 30
0.0
 41
1.0
 10
1074.038339089222
 20
481.0671747432131
 30
0.0
 41
1.0
  0
SPLINE
  5
134
330
1F
100
AcDbEntity
  8
Linee visibili 2D
100
AcDbSpline
210
0.0
220
0.0
230
1.0
 70
    12
 71
     2
 72
     6
 73
     3
 74
     0
 42
0.0000000001
 43
0.0000000001
 40
0.0
 40
0.0
 40
0.0
 40
0.7136297849972505
 40
0.7136297849972505
 40
0.7136297849972505
 10
1060.722078225759
 20
537.3890436039802
 30
0.0
 41
1.0
 10
1060.723176645175
 20
537.0315130153112
 30
0.0
 41
0.9969929869025458
 10
1060.669017094607
 20
536.678106632458
 30
0.0
 41
1.0
  0
SPLINE
  5
135
330
1F
100
AcDbEntity
  8
Linee visibili 2D
100
AcDbSpline
210
0.0
220
0.0
230
1.0
 70
    12
 71
     2
 72
     6
 73
     3
 74
     0
 42
0.0000000001
 43
0.0000000001
 40
0.0
 40
0.0
 40
0.0
 40
0.334501132194563
 40
0.334501132194563
 40
0.334501132194563
 10
1060.532599063676
 20
538.3090905038007
 30
0.0
 41
1.0
 10
1060.677343488423
 20
538.2045078631695
 30
0.0
 41
0.9075470517241574
 10
1060.6913160703
 20
538.0264818982872
 30
0.0
 41
1.0
  0
SPLINE
  5
136
330
1F
100
AcDbEntity
  8
Linee visibili 2D
100
AcDbSpline
210
0.0
220
0.0
230
1.0
 70
    12
 71
     2
 72
     6
 73
     3
 74
     0
 42
0.0000000001
 43
0.0000000001
 40
0.0
 40
0.0
 40
0.0
 40
0.3599949525653865
 40
0.3599949525653865
 40
0.3599949525653865
 10
1060.160290124006
 20
538.312702237949
 30
0.0
 41
1.0
 10
1060.331356651536
 20
538.4046397453449
 30
0.0
 41
0.8937795927535208
 10
1060.507309590689
 20
538.3224398346928
 30
0.0
 41
1.0
  0
SPLINE
  5
137
330
1F
100
AcDbEntity
  8
Linee visibili 2D
100
AcDbSpline
210
0.0
220
0.0
230
1.0
 70
    12
 71
     2
 72
    12
 73
     9
 74
     0
 42
0.0000000001
 43
0.0000000001
 40
0.0
 40
0.0
 40
0.0
 40
1.44520489251982
 40
1.44520489251982
 40
2.890409785039558
 40
2.890409785039558
 40
4.335614677559264
 40
4.335614677559264
 40
5.748563785406176
 40
5.748563785406176
 40
5.748563785406176
 10
1060.532599063676
 20
538.3090905038007
 30
0.0
 41
1.0
 10
1061.452645073376
 20
538.3090905038009
 30
0.0
 41
0.7071067811863946
 10
1061.452645073376
 20
537.3890444941003
 30
0.0
 41
1.0
 10
1061.452645073376
 20
536.4689984843998
 30
0.0
 41
0.7071067811864602
 10
1060.532599063676
 20
536.4689984843999
 30
0.0
 41
1.0
 10
1059.612553053975
 20
536.4689984843998
 30
0.0
 41
0.7071067811865585
 10
1059.612553053975
 20
537.3890444941003
 30
0.0
 41
1.0
 10
1059.612553053975
 20
538.2773872127582
 30
0.0
 41
0.7193926955014609
 10
1060.50034988633
 20
538.3085251358356
 30
0.0
 41
1.0
  0
SPLINE
  5
138
330
1F
100
AcDbEntity
  8
Linee visibili 2D
100
AcDbSpline
210
0.0
220
0.0
230
1.0
 70
    24
 71
     2
 72
     6
 73
     3
 74
     0
 42
0.0000000001
 43
0.0000000001
 40
0.0
 40
0.0
 40
0.0
 40
0.3789475697940622
 40
0.3789475697940622
 40
0.3789475697940622
 10
1060.343130655966
 20
537.3890444957469
 30
0.0
 10
1060.532604440863
 20
537.3890440498635
 30
0.0
 10
1060.722078225759
 20
537.3890436039802
 30
0.0
  0
SPLINE
  5
139
330
1F
100
AcDbEntity
  8
Linee visibili 2D
100
AcDbSpline
210
0.0
220
0.0
230
1.0
 70
    12
 71
     2
 72
     6
 73
     3
 74
     0
 42
0.0000000001
 43
0.0000000001
 40
0.0
 40
0.0
 40
0.0
 40
0.7136306150263405
 40
0.7136306150263405
 40
0.7136306150263405
 10
1060.396186208414
 20
536.6781061852673
 30
0.0
 41
1.0
 10
1060.342031157123
 20
537.031513585894
 30
0.0
 41
0.9969933686894609
 10
1060.343130655966
 20
537.389044495747
 30
0.0
 41
1.0
  0
SPLINE
  5
13A
330
1F
100
AcDbEntity
  8
Linee visibili 2D
100
AcDbSpline
210
0.0
220
0.0
230
1.0
 70
    12
 71
     2
 72
     8
 73
     5
 74
     0
 42
0.0000000001
 43
0.0000000001
 40
0.0
 40
0.0
 40
0.0
 40
0.1957970792015537
 40
0.1957970792015537
 40
0.3915941584030998
 40
0.3915941584030998
 40
0.3915941584030998
 10
1060.669017094607
 20
536.678106632458
 30
0.0
 41
1.0
 10
1060.65107229641
 20
536.5610031208035
 30
0.0
 41
0.758772786925408
 10
1060.532601843452
 20
536.5610029266214
 30
0.0
 41
1.0
 10
1060.414131390494
 20
536.5610027324393
 30
0.0
 41
0.7587727869258553
 10
1060.396186208414
 20
536.6781061852673
 30
0.0
 41
1.0
  0
SPLINE
  5
13B
330
1F
100
AcDbEntity
  8
Linee visibili 2D
100
AcDbSpline
210
0.0
220
0.0
230
1.0
 70
    24
 71
     2
 72
     6
 73
     3
 74
     0
 42
0.0000000001
 43
0.0000000001
 40
0.0
 40
0.0
 40
0.0
 40
1.062309503021766
 40
1.062309503021766
 40
1.062309503021766
 10
1059.659768182668
 20
537.4810492522131
 30
0.0
 10
1060.190922934179
 20
537.4810492513898
 30
0.0
 10
1060.72207768569
 20
537.4810492505663
 30
0.0
  0
SPLINE
  5
13C
330
1F
100
AcDbEntity
  8
Linee visibili 2D
100
AcDbSpline
210
0.0
220
0.0
230
1.0
 70
    12
 71
     2
 72
     6
 73
     3
 74
     0
 42
0.0000000001
 43
0.0000000001
 40
0.0
 40
0.0
 40
0.0
 40
0.5466209373689889
 40
0.5466209373689889
 40
0.5466209373689889
 10
1060.6913160703
 20
538.0264818982873
 30
0.0
 41
1.0
 10
1060.722918690087
 20
537.7546804612541
 30
0.0
 41
0.9982356047346395
 10
1060.72207768569
 20
537.4810492505665
 30
0.0
 41
1.0
  0
SPLINE
  5
13D
330
1F
100
AcDbEntity
  8
Linee visibili 2D
100
AcDbSpline
210
0.0
220
0.0
230
1.0
 70
    12
 71
     2
 72
     6
 73
     3
 74
     0
 42
0.0000000001
 43
0.0000000001
 40
0.0
 40
0.0
 40
0.0
 40
0.4354790661567168
 40
0.4354790661567168
 40
0.4354790661567168
 10
1059.839308123794
 20
538.0258548728166
 30
0.0
 41
1.0
 10
1059.9611897184
 20
538.2124824530333
 30
0.0
 41
0.9656236389605407
 10
1060.160290124006
 20
538.3127022379491
 30
0.0
 41
1.0
  0
SPLINE
  5
13E
330
1F
100
AcDbEntity
  8
Linee visibili 2D
100
AcDbSpline
210
0.0
220
0.0
230
1.0
 70
    12
 71
     2
 72
     6
 73
     3
 74
     0
 42
0.0000000001
 43
0.0000000001
 40
0.0
 40
0.0
 40
0.0
 40
0.2139094444379001
 40
0.2139094444379001
 40
0.2139094444379001
 10
1059.705706384591
 20
537.6166343569266
 30
0.0
 41
1.0
 10
1059.711361548522
 20
537.7240391359965
 30
0.0
 41
0.9916692249655763
 10
1059.744268268904
 20
537.8264350109124
 30
0.0
 41
1.0
  0
SPLINE
  5
13F
330
1F
100
AcDbEntity
  8
Linee visibili 2D
100
AcDbSpline
210
0.0
220
0.0
230
1.0
 70
    12
 71
     2
 72
     8
 73
     5
 74
     0
 42
0.0000000001
 43
0.0000000001
 40
0.0
 40
0.0
 40
0.0
 40
0.0361302183063796
 40
0.0361302183063796
 40
0.0722600039216423
 40
0.0722600039216423
 40
0.0722600039216423
 10
1059.705706384591
 20
537.6166343569266
 30
0.0
 41
1.0
 10
1059.7047032991
 20
537.5976059499267
 30
0.0
 41
0.9238795200045138
 10
1059.690538894089
 20
537.5848601237808
 30
0.0
 41
1.0
 10
1059.67637467749
 20
537.5721144671777
 30
0.0
 41
0.923881319722946
 10
1059.6573465143
 20
537.573117362838
 30
0.0
 41
1.0
  0
SPLINE
  5
140
330
1F
100
AcDbEntity
  8
Linee visibili 2D
100
AcDbSpline
210
0.0
220
0.0
230
1.0
 70
    12
 71
     2
 72
     6
 73
     3
 74
     0
 42
0.0000000001
 43
0.0000000001
 40
0.0
 40
0.0
 40
0.0
 40
0.1388406983402463
 40
0.1388406983402463
 40
0.1388406983402463
 10
1060.669017094607
 20
536.678106632458
 30
0.0
 41
1.0
 10
1060.601761509652
 20
536.6603751570623
 30
0.0
 41
0.9971263568570635
 10
1060.532599063676
 20
536.6530080006258
 30
0.0
 41
1.0
  0
SPLINE
  5
141
330
1F
100
AcDbEntity
  8
Linee visibili 2D
100
AcDbSpline
210
0.0
220
0.0
230
1.0
 70
    12
 71
     2
 72
     6
 73
     3
 74
     0
 42
0.0000000001
 43
0.0000000001
 40
0.0
 40
0.0
 40
0.0
 40
1.01998362515217
 40
1.01998362515217
 40
1.01998362515217
 10
1061.399347285336
 20
537.311730750944
 30
0.0
 41
1.0
 10
1061.234288812241
 20
536.764271051649
 30
0.0
 41
0.8454710760368681
 10
1060.669017094607
 20
536.6781066324581
 30
0.0
 41
1.0
  0
SPLINE
  5
142
330
1F
100
AcDbEntity
  8
Linee visibili 2D
100
AcDbSpline
210
0.0
220
0.0
230
1.0
 70
    12
 71
     2
 72
     8
 73
     5
 74
     0
 42
0.0000000001
 43
0.0000000001
 40
0.0
 40
0.0
 40
0.0
 40
1.259082651454614
 40
1.259082651454614
 40
2.517109552035466
 40
2.517109552035466
 40
2.517109552035466
 10
1059.641938411789
 20
537.7351095221263
 30
0.0
 41
1.0
 10
1059.777168404804
 20
538.4783374690486
 30
0.0
 41
0.7677929938867442
 10
1060.532598700792
 20
538.4783387072566
 30
0.0
 41
1.0
 10
1061.287133978418
 20
538.4783399439975
 30
0.0
 41
0.7681664571179335
 10
1061.423071826633
 20
537.7361510282853
 30
0.0
 41
1.0
  0
SPLINE
  5
143
330
1F
100
AcDbEntity
  8
Linee visibili 2D
100
AcDbSpline
210
0.0
220
0.0
230
1.0
 70
    12
 71
     2
 72
     6
 73
     3
 74
     0
 42
0.0000000001
 43
0.0000000001
 40
0.0
 40
0.0
 40
0.0
 40
1.0299419707089
 40
1.0299419707089
 40
1.0299419707089
 10
1060.396186208414
 20
536.6781061852673
 30
0.0
 41
1.0
 10
1059.824004050089
 20
536.7653220442783
 30
0.0
 41
0.8425211228020247
 10
1059.663031789567
 20
537.3212779415501
 30
0.0
 41
1.0
  0
SPLINE
  5
144
330
1F
100
AcDbEntity
  8
Linee visibili 2D
100
AcDbSpline
210
0.0
220
0.0
230
1.0
 70
    12
 71
     2
 72
     6
 73
     3
 74
     0
 42
0.0000000001
 43
0.0000000001
 40
0.0
 40
0.0
 40
0.0
 40
0.1388355122041543
 40
0.1388355122041543
 40
0.1388355122041543
 10
1060.532599063676
 20
536.6530080006258
 30
0.0
 41
1.0
 10
1060.46343925857
 20
536.6603753260028
 30
0.0
 41
0.997126573217603
 10
1060.396186208414
 20
536.6781061852673
 30
0.0
 41
1.0
  0
SPLINE
  5
145
330
1F
100
AcDbEntity
  8
Linee visibili 2D
100
AcDbSpline
210
0.0
220
0.0
230
1.0
 70
    12
 71
     2
 72
     6
 73
     3
 74
     0
 42
0.0000000001
 43
0.0000000001
 40
0.0
 40
0.0
 40
0.0
 40
0.2188950763081448
 40
0.2188950763081448
 40
0.2188950763081448
 10
1062.501192452844
 20
536.6392355205774
 30
0.0
 41
1.0
 10
1062.414988274922
 20
536.7136290476466
 30
0.0
 41
0.9427925818795394
 10
1062.394710905579
 20
536.8256754016862
 30
0.0
 41
1.0
  0
SPLINE
  5
146
330
1F
100
AcDbEntity
  8
Linee visibili 2D
100
AcDbSpline
210
0.0
220
0.0
230
1.0
 70
    12
 71
     2
 72
     8
 73
     5
 74
     0
 42
0.0000000001
 43
0.0000000001
 40
0.0
 40
0.0
 40
0.0
 40
0.3294648485136388
 40
0.3294648485136388
 40
0.6589296970272054
 40
0.6589296970272054
 40
0.6589296970272054
 10
1062.348559903539
 20
536.6839511956731
 30
0.0
 41
1.0
 10
1062.432228777276
 20
536.5313724401192
 30
0.0
 41
0.9218825682177235
 10
1062.599777464817
 20
536.4843810113075
 30
0.0
 41
1.0
 10
1062.767326152359
 20
536.4373895824958
 30
0.0
 41
0.921882568217796
 10
1062.918136619992
 20
536.5242052488876
 30
0.0
 41
1.0
  0
SPLINE
  5
147
330
1F
100
AcDbEntity
  8
Linee visibili 2D
100
AcDbSpline
210
0.0
220
0.0
230
1.0
 70
    12
 71
     2
 72
     8
 73
     5
 74
     0
 42
0.0000000001
 43
0.0000000001
 40
0.0
 40
0.0
 40
0.0
 40
0.1001190004103918
 40
0.1001190004103918
 40
0.2002380008209286
 40
0.2002380008209286
 40
0.2002380008209286
 10
1062.652789740428
 20
536.6991125225643
 30
0.0
 41
1.0
 10
1062.646876213094
 20
536.6437635258911
 30
0.0
 41
0.8555952933674023
 10
1062.595104246076
 20
536.6233149398944
 30
0.0
 41
1.0
 10
1062.543332279057
 20
536.6028663538975
 30
0.0
 41
0.8555952933659503
 10
1062.501192452844
 20
536.6392355205774
 30
0.0
 41
1.0
  0
SPLINE
  5
148
330
1F
100
AcDbEntity
  8
Linee visibili 2D
100
AcDbSpline
210
0.0
220
0.0
230
1.0
 70
    12
 71
     2
 72
     6
 73
     3
 74
     0
 42
0.0000000001
 43
0.0000000001
 40
0.0
 40
0.0
 40
0.0
 40
1.566831346364699
 40
1.566831346364699
 40
1.566831346364699
 10
1062.652789740428
 20
538.2629859818614
 30
0.0
 41
1.0
 10
1062.73634907555
 20
537.4810492522131
 30
0.0
 41
0.99433869582148
 10
1062.652789740428
 20
536.6991125225645
 30
0.0
 41
1.0
  0
SPLINE
  5
149
330
1F
100
AcDbEntity
  8
Linee visibili 2D
100
AcDbSpline
210
0.0
220
0.0
230
1.0
 70
    12
 71
     2
 72
     8
 73
     5
 74
     0
 42
0.0000000001
 43
0.0000000001
 40
0.0
 40
0.0
 40
0.0
 40
0.1001181593304895
 40
0.1001181593304895
 40
0.2002363186609962
 40
0.2002363186609962
 40
0.2002363186609962
 10
1062.501192466216
 20
538.3228629953885
 30
0.0
 41
1.0
 10
1062.543332523661
 20
538.3592308002592
 30
0.0
 41
0.8556007646320392
 10
1062.595103823988
 20
538.3387824718436
 30
0.0
 41
1.0
 10
1062.646875124315
 20
538.3183341434278
 30
0.0
 41
0.8556007646325354
 10
1062.652789740428
 20
538.2629859818612
 30
0.0
 41
1.0
  0
SPLINE
  5
14A
330
1F
100
AcDbEntity
  8
Linee visibili 2D
100
AcDbSpline
210
0.0
220
0.0
230
1.0
 70
    12
 71
     2
 72
     6
 73
     3
 74
     0
 42
0.0000000001
 43
0.0000000001
 40
0.0
 40
0.0
 40
0.0
 40
0.2188913540248428
 40
0.2188913540248428
 40
0.2188913540248428
 10
1062.39471334197
 20
538.1364255653262
 30
0.0
 41
1.0
 10
1062.414991306338
 20
538.2484694811849
 30
0.0
 41
0.9427969469346685
 10
1062.501192466216
 20
538.3228629953885
 30
0.0
 41
1.0
  0
SPLINE
  5
14B
330
1F
100
AcDbEntity
  8
Linee visibili 2D
100
AcDbSpline
210
0.0
220
0.0
230
1.0
 70
    12
 71
     2
 72
     6
 73
     3
 74
     0
 42
0.0000000001
 43
0.0000000001
 40
0.0
 40
0.0
 40
0.0
 40
1.317778968862765
 40
1.317778968862765
 40
1.317778968862765
 10
1062.394710905579
 20
536.8256754016863
 30
0.0
 41
1.0
 10
1062.276105644603
 20
537.4810507039691
 30
0.0
 41
0.9840156171102239
 10
1062.39471334197
 20
538.1364255653264
 30
0.0
 41
1.0
  0
SPLINE
  5
14C
330
1F
100
AcDbEntity
  8
Linee visibili 2D
100
AcDbSpline
210
0.0
220
0.0
230
1.0
 70
    24
 71
     2
 72
     6
 73
     3
 74
     0
 42
0.0000000001
 43
0.0000000001
 40
0.0
 40
0.0
 40
0.0
 40
0.8085610431459713
 40
0.8085610431459713
 40
0.8085610431459713
 10
1062.331292595496
 20
535.8709695209512
 30
0.0
 10
1062.331292595496
 20
536.2752500425242
 30
0.0
 10
1062.331292595496
 20
536.6795305640971
 30
0.0
  0
SPLINE
  5
14D
330
1F
100
AcDbEntity
  8
Linee visibili 2D
100
AcDbSpline
210
0.0
220
0.0
230
1.0
 70
    12
 71
     2
 72
     6
 73
     3
 74
     0
 42
0.0000000001
 43
0.0000000001
 40
0.0
 40
0.0
 40
0.0
 40
0.2167817212352433
 40
0.2167817212352433
 40
0.2167817212352433
 10
1062.469300125522
 20
535.7329619909251
 30
0.0
 41
1.0
 10
1062.331292595496
 20
535.7329619909249
 30
0.0
 41
0.7071067811856738
 10
1062.331292595496
 20
535.8709695209512
 30
0.0
 41
1.0
  0
SPLINE
  5
14E
330
1F
100
AcDbEntity
  8
Linee visibili 2D
100
AcDbSpline
210
0.0
220
0.0
230
1.0
 70
    12
 71
     2
 72
     8
 73
     5
 74
     0
 42
0.0000000001
 43
0.0000000001
 40
0.0
 40
0.0
 40
0.0
 40
0.0722597509474127
 40
0.0722597509474127
 40
0.1445195018947971
 40
0.1445195018947971
 40
0.1445195018947971
 10
1062.515302111722
 20
535.7329619909249
 30
0.0
 41
1.0
 10
1062.561304097921
 20
535.7329619909251
 30
0.0
 41
0.707106781185237
 10
1062.561304097921
 20
535.6869600047255
 30
0.0
 41
1.0
 10
1062.561304097921
 20
535.640958018526
 30
0.0
 41
0.7071067811854553
 10
1062.515302111722
 20
535.6409580185261
 30
0.0
 41
1.0
  0
SPLINE
  5
14F
330
1F
100
AcDbEntity
  8
Linee visibili 2D
100
AcDbSpline
210
0.0
220
0.0
230
1.0
 70
    24
 71
     2
 72
     6
 73
     3
 74
     0
 42
0.0000000001
 43
0.0000000001
 40
0.0
 40
0.0
 40
0.0
 40
0.8740432377869638
 40
0.8740432377869638
 40
0.8740432377869638
 10
1061.641258873935
 20
535.640958018526
 30
0.0
 10
1062.078280492828
 20
535.640958018526
 30
0.0
 10
1062.515302111722
 20
535.640958018526
 30
0.0
  0
SPLINE
  5
150
330
1F
100
AcDbEntity
  8
Linee visibili 2D
100
AcDbSpline
210
0.0
220
0.0
230
1.0
 70
    12
 71
     2
 72
     8
 73
     5
 74
     0
 42
0.0000000001
 43
0.0000000001
 40
0.0
 40
0.0
 40
0.0
 40
0.0361302683325012
 40
0.0361302683325012
 40
0.0722605366650003
 40
0.0722605366650003
 40
0.0722605366650003
 10
1061.641258873935
 20
535.640958018526
 30
0.0
 41
1.0
 10
1061.622203997226
 20
535.6409576930714
 30
0.0
 41
0.9238778984588294
 10
1061.608730049624
 20
535.6544314105427
 30
0.0
 41
1.0
 10
1061.595256102021
 20
535.6679051280139
 30
0.0
 41
0.9238778984597361
 10
1061.595256102021
 20
535.6869600047253
 30
0.0
 41
1.0
  0
SPLINE
  5
151
330
1F
100
AcDbEntity
  8
Linee visibili 2D
100
AcDbSpline
210
0.0
220
0.0
230
1.0
 70
    24
 71
     2
 72
     6
 73
     3
 74
     0
 42
0.0000000001
 43
0.0000000001
 40
0.0
 40
0.0
 40
0.0
 40
2.576128512875982
 40
2.576128512875982
 40
2.576128512875982
 10
1061.595256102021
 20
535.6869600047253
 30
0.0
 10
1061.595256102021
 20
536.9750242611633
 30
0.0
 10
1061.595256102021
 20
538.2630885176012
 30
0.0
  0
SPLINE
  5
152
330
1F
100
AcDbEntity
  8
Linee visibili 2D
100
AcDbSpline
210
0.0
220
0.0
230
1.0
 70
    12
 71
     2
 72
     6
 73
     3
 74
     0
 42
0.0000000001
 43
0.0000000001
 40
0.0
 40
0.0
 40
0.0
 40
0.2167804870385823
 40
0.2167804870385823
 40
0.2167804870385823
 10
1061.457249357709
 20
538.4010952619134
 30
0.0
 41
1.0
 10
1061.595256102021
 20
538.4010952619135
 30
0.0
 41
0.7071067811865476
 10
1061.595256102021
 20
538.2630885176013
 30
0.0
 41
1.0
  0
SPLINE
  5
153
330
1F
100
AcDbEntity
  8
Linee visibili 2D
100
AcDbSpline
210
0.0
220
0.0
230
1.0
 70
    12
 71
     2
 72
     8
 73
     5
 74
     0
 42
0.0000000001
 43
0.0000000001
 40
0.0
 40
0.0
 40
0.0
 40
0.036130064140511
 40
0.036130064140511
 40
0.108390020787328
 40
0.108390020787328
 40
0.108390020787328
 10
1061.378719023205
 20
538.4145689093959
 30
0.0
 41
1.0
 10
1061.365245254358
 20
538.4280426279722
 30
0.0
 41
0.9238791755671788
 10
1061.365245254358
 20
538.4470973790649
 30
0.0
 41
1.0
 10
1061.365245254358
 20
538.4930994962167
 30
0.0
 41
0.7071067811856738
 10
1061.41124737151
 20
538.4930994962165
 30
0.0
 41
1.0
  0
SPLINE
  5
154
330
1F
100
AcDbEntity
  8
Linee visibili 2D
100
AcDbSpline
210
0.0
220
0.0
230
1.0
 70
    24
 71
     2
 72
     6
 73
     3
 74
     0
 42
0.0000000001
 43
0.0000000001
 40
0.0
 40
0.0
 40
0.0
 40
0.8740432377869737
 40
0.8740432377869737
 40
0.8740432377869737
 10
1061.41124737151
 20
538.4930994962166
 30
0.0
 10
1061.848268990403
 20
538.4930995616928
 30
0.0
 10
1062.285290609297
 20
538.4930996271689
 30
0.0
  0
SPLINE
  5
155
330
1F
100
AcDbEntity
  8
Linee visibili 2D
100
AcDbSpline
210
0.0
220
0.0
230
1.0
 70
    12
 71
     2
 72
     6
 73
     3
 74
     0
 42
0.0000000001
 43
0.0000000001
 40
0.0
 40
0.0
 40
0.0
 40
0.0722600594974741
 40
0.0722600594974741
 40
0.0722600594974741
 10
1062.285290609297
 20
538.4930996271689
 30
0.0
 41
1.0
 10
1062.331292791925
 20
538.4930994307404
 30
0.0
 41
0.7071067811856738
 10
1062.331292595496
 20
538.4470972481122
 30
0.0
 41
1.0
  0
SPLINE
  5
156
330
1F
100
AcDbEntity
  8
Linee visibili 2D
100
AcDbSpline
210
0.0
220
0.0
230
1.0
 70
    24
 71
     2
 72
     6
 73
     3
 74
     0
 42
0.0000000001
 43
0.0000000001
 40
0.0
 40
0.0
 40
0.0
 40
0.1645285220742074
 40
0.1645285220742074
 40
0.1645285220742074
 10
1062.331291416925
 20
538.2825687260422
 30
0.0
 10
1062.331292006211
 20
538.3648329870772
 30
0.0
 10
1062.331292595496
 20
538.4470972481122
 30
0.0
  0
SPLINE
  5
157
330
1F
100
AcDbEntity
  8
Linee visibili 2D
100
AcDbSpline
210
0.0
220
0.0
230
1.0
 70
    12
 71
     2
 72
     8
 73
     5
 74
     0
 42
0.0000000001
 43
0.0000000001
 40
0.0
 40
0.0
 40
0.0
 40
0.3294671114316149
 40
0.3294671114316149
 40
0.6589342228631123
 40
0.6589342228631123
 40
0.6589342228631123
 10
1062.348560472838
 20
538.2781435491531
 30
0.0
 41
1.0
 10
1062.432228323227
 20
538.4307243155587
 30
0.0
 41
0.9218819777034742
 10
1062.599777874492
 20
538.4777173718162
 30
0.0
 41
1.0
 10
1062.767327425757
 20
538.5247104280737
 30
0.0
 41
0.9218819777035161
 10
1062.918139395801
 20
538.4378948237332
 30
0.0
 41
1.0
  0
SPLINE
  5
158
330
1F
100
AcDbEntity
  8
Linee visibili 2D
100
AcDbSpline
210
0.0
220
0.0
230
1.0
 70
    12
 71
     2
 72
     8
 73
     5
 74
     0
 42
0.0000000001
 43
0.0000000001
 40
0.0
 40
0.0
 40
0.0
 40
1.157574769904273
 40
1.157574769904273
 40
2.315149539808586
 40
2.315149539808586
 40
2.315149539808586
 10
1062.918139395801
 20
538.4378948237332
 30
0.0
 41
1.0
 10
1063.47138849509
 20
538.1194166264687
 30
0.0
 41
0.8657059493307081
 10
1063.471387569137
 20
537.4810492338212
 30
0.0
 41
1.0
 10
1063.471386643184
 20
536.8426818411737
 30
0.0
 41
0.865705949330724
 10
1062.918136619992
 20
536.5242052488875
 30
0.0
 41
1.0
  0
SPLINE
  5
159
330
1F
100
AcDbEntity
  8
Linee visibili 2D
100
AcDbSpline
210
0.0
220
0.0
230
1.0
 70
    12
 71
     2
 72
     6
 73
     3
 74
     0
 42
0.0000000001
 43
0.0000000001
 40
0.0
 40
0.0
 40
0.0
 40
0.5298478963274561
 40
0.5298478963274561
 40
0.5298478963274561
 10
1063.780350089157
 20
535.7531548342338
 30
0.0
 41
1.0
 10
1064.033311448229
 20
535.6070697305519
 30
0.0
 41
0.866055129562474
 10
1064.286322901006
 20
535.7530680574774
 30
0.0
 41
1.0
  0
SPLINE
  5
15A
330
1F
100
AcDbEntity
  8
Linee visibili 2D
100
AcDbSpline
210
0.0
220
0.0
230
1.0
 70
    12
 71
     2
 72
     8
 73
     5
 74
     0
 42
0.0000000001
 43
0.0000000001
 40
0.0
 40
0.0
 40
0.0
 40
0.3371377250170545
 40
0.3371377250170545
 40
0.6742754500340462
 40
0.6742754500340462
 40
0.6742754500340462
 10
1063.780350089157
 20
535.7531548342338
 30
0.0
 41
1.0
 10
1063.619392697076
 20
535.8461076765043
 30
0.0
 41
0.866053390966604
 10
1063.619392714921
 20
536.0319772892747
 30
0.0
 41
1.0
 10
1063.619392732765
 20
536.217846902045
 30
0.0
 41
0.8660533909667153
 10
1063.780350142694
 20
536.3107997134101
 30
0.0
 41
1.0
  0
SPLINE
  5
15B
330
1F
100
AcDbEntity
  8
Linee visibili 2D
100
AcDbSpline
210
0.0
220
0.0
230
1.0
 70
    12
 71
     2
 72
     6
 73
     3
 74
     0
 42
0.0000000001
 43
0.0000000001
 40
0.0
 40
0.0
 40
0.0
 40
0.5298477572715158
 40
0.5298477572715158
 40
0.5298477572715158
 10
1063.780350142694
 20
536.3107997134102
 30
0.0
 41
1.0
 10
1064.033311443142
 20
536.4568847184671
 30
0.0
 41
0.8660552299200612
 10
1064.28632283981
 20
536.310886494562
 30
0.0
 41
1.0
  0
SPLINE
  5
15C
330
1F
100
AcDbEntity
  8
Linee visibili 2D
100
AcDbSpline
210
0.0
220
0.0
230
1.0
 70
    12
 71
     2
 72
     8
 73
     5
 74
     0
 42
0.0000000001
 43
0.0000000001
 40
0.0
 40
0.0
 40
0.0
 40
0.3372863372886302
 40
0.3372863372886302
 40
0.6745726745773334
 40
0.6745726745773334
 40
0.6745726745773334
 10
1064.28632283981
 20
536.310886494562
 30
0.0
 41
1.0
 10
1064.447394128296
 20
536.2179415823931
 30
0.0
 41
0.8659676332168396
 10
1064.447394148698
 20
536.0319772936905
 30
0.0
 41
1.0
 10
1064.447394169099
 20
535.8460130049879
 30
0.0
 41
0.8659676332169989
 10
1064.286322901006
 20
535.7530680574774
 30
0.0
 41
1.0
  0
SPLINE
  5
15D
330
1F
100
AcDbEntity
  8
Linee visibili 2D
100
AcDbSpline
210
0.0
220
0.0
230
1.0
 70
    24
 71
     2
 72
     6
 73
     3
 74
     0
 42
0.0000000001
 43
0.0000000001
 40
0.0
 40
0.0
 40
0.0
 40
1.334066242637096
 40
1.334066242637096
 40
1.334066242637096
 10
1067.069528602596
 20
538.3090905038002
 30
0.0
 10
1067.069528864501
 20
537.6420573824818
 30
0.0
 10
1067.069529126406
 20
536.9750242611633
 30
0.0
  0
SPLINE
  5
15E
330
1F
100
AcDbEntity
  8
Linee visibili 2D
100
AcDbSpline
210
0.0
220
0.0
230
1.0
 70
    12
 71
     2
 72
     6
 73
     3
 74
     0
 42
0.0000000001
 43
0.0000000001
 40
0.0
 40
0.0
 40
0.0
 40
0.4244540023214374
 40
0.4244540023214374
 40
0.4244540023214374
 10
1065.919471876185
 20
536.9750242611633
 30
0.0
 41
1.0
 10
1065.919472052253
 20
536.725591604921
 30
0.0
 41
0.7905675923394466
 10
1065.677959594153
 20
536.6632347080845
 30
0.0
 41
1.0
  0
SPLINE
  5
15F
330
1F
100
AcDbEntity
  8
Linee visibili 2D
100
AcDbSpline
210
0.0
220
0.0
230
1.0
 70
    12
 71
     2
 72
     8
 73
     5
 74
     0
 42
0.0000000001
 43
0.0000000001
 40
0.0
 40
0.0
 40
0.0
 40
0.5817963082105263
 40
0.5817963082105263
 40
1.163592405641737
 40
1.163592405641737
 40
1.163592405641737
 10
1066.022953799663
 20
536.7012029321443
 30
0.0
 41
1.0
 10
1066.227616441563
 20
536.4690968813085
 30
0.0
 41
0.9124474493504524
 10
1066.537063714224
 20
536.4675472793588
 30
0.0
 41
1.0
 10
1066.846511003077
 20
536.4659976405908
 30
0.0
 41
0.9124468945570998
 10
1067.053487346162
 20
536.6960428956202
 30
0.0
 41
1.0
  0
SPLINE
  5
160
330
1F
100
AcDbEntity
  8
Linee visibili 2D
100
AcDbSpline
210
0.0
220
0.0
230
1.0
 70
    24
 71
     2
 72
     6
 73
     3
 74
     0
 42
0.0000000001
 43
0.0000000001
 40
0.0
 40
0.0
 40
0.0
 40
1.334066242636993
 40
1.334066242636993
 40
1.334066242636993
 10
1065.919471876185
 20
536.9750242611633
 30
0.0
 10
1065.919471876185
 20
537.6420573824818
 30
0.0
 10
1065.919471876185
 20
538.3090905038002
 30
0.0
  0
SPLINE
  5
161
330
1F
100
AcDbEntity
  8
Linee visibili 2D
100
AcDbSpline
210
0.0
220
0.0
230
1.0
 70
    12
 71
     2
 72
     6
 73
     3
 74
     0
 42
0.0000000001
 43
0.0000000001
 40
0.0
 40
0.0
 40
0.0
 40
0.1445207360915106
 40
0.1445207360915106
 40
0.1445207360915106
 10
1065.827467118072
 20
538.4010952619132
 30
0.0
 41
1.0
 10
1065.919471876185
 20
538.4010952619133
 30
0.0
 41
0.7071067811858922
 10
1065.919471876185
 20
538.3090905038002
 30
0.0
 41
1.0
  0
SPLINE
  5
162
330
1F
100
AcDbEntity
  8
Linee visibili 2D
100
AcDbSpline
210
0.0
220
0.0
230
1.0
 70
    24
 71
     2
 72
     6
 73
     3
 74
     0
 42
0.0000000001
 43
0.0000000001
 40
0.0
 40
0.0
 40
0.0
 40
0.2300115024250999
 40
0.2300115024250999
 40
0.2300115024250999
 10
1065.597455615647
 20
538.4010952619132
 30
0.0
 10
1065.712461366859
 20
538.4010952619132
 30
0.0
 10
1065.827467118072
 20
538.4010952619132
 30
0.0
  0
SPLINE
  5
163
330
1F
100
AcDbEntity
  8
Linee visibili 2D
100
AcDbSpline
210
0.0
220
0.0
230
1.0
 70
    12
 71
     2
 72
     6
 73
     3
 74
     0
 42
0.0000000001
 43
0.0000000001
 40
0.0
 40
0.0
 40
0.0
 40
0.144520736091401
 40
0.144520736091401
 40
0.144520736091401
 10
1065.505450857534
 20
538.3090905038002
 30
0.0
 41
1.0
 10
1065.505450857534
 20
538.4010952619132
 30
0.0
 41
0.7071067811866567
 10
1065.597455615647
 20
538.4010952619133
 30
0.0
 41
1.0
  0
SPLINE
  5
164
330
1F
100
AcDbEntity
  8
Linee visibili 2D
100
AcDbSpline
210
0.0
220
0.0
230
1.0
 70
    24
 71
     2
 72
     6
 73
     3
 74
     0
 42
0.0000000001
 43
0.0000000001
 40
0.0
 40
0.0
 40
0.0
 40
1.512230046331013
 40
1.512230046331013
 40
1.512230046331013
 10
1065.505450857534
 20
536.7968604574692
 30
0.0
 10
1065.505450857534
 20
537.5529754806347
 30
0.0
 10
1065.505450857534
 20
538.3090905038002
 30
0.0
  0
SPLINE
  5
165
330
1F
100
AcDbEntity
  8
Linee visibili 2D
100
AcDbSpline
210
0.0
220
0.0
230
1.0
 70
    12
 71
     2
 72
     8
 73
     5
 74
     0
 42
0.0000000001
 43
0.0000000001
 40
0.0
 40
0.0
 40
0.0
 40
0.1258266257009762
 40
0.1258266257009762
 40
0.2516532514018132
 40
0.2516532514018132
 40
0.2516532514018132
 10
1065.677959594153
 20
536.6632347080845
 30
0.0
 41
1.0
 10
1065.612441226224
 20
536.6463182125732
 30
0.0
 41
0.8978787537485587
 10
1065.558945915667
 20
536.6877558296
 30
0.0
 41
1.0
 10
1065.50545060511
 20
536.7291934466265
 30
0.0
 41
0.897878753748066
 10
1065.505450857534
 20
536.7968604574693
 30
0.0
 41
1.0
  0
SPLINE
  5
166
330
1F
100
AcDbEntity
  8
Linee visibili 2D
100
AcDbSpline
210
0.0
220
0.0
230
1.0
 70
    12
 71
     2
 72
     6
 73
     3
 74
     0
 42
0.0000000001
 43
0.0000000001
 40
0.0
 40
0.0
 40
0.0
 40
0.0815068112447609
 40
0.0815068112447609
 40
0.0815068112447609
 10
1066.022953799663
 20
536.7012029321443
 30
0.0
 41
1.0
 10
1065.995913222385
 20
536.7318694062307
 30
0.0
 41
0.9951601847042754
 10
1065.975392638118
 20
536.7672322550093
 30
0.0
 41
1.0
  0
SPLINE
  5
167
330
1F
100
AcDbEntity
  8
Linee visibili 2D
100
AcDbSpline
210
0.0
220
0.0
230
1.0
 70
    12
 71
     2
 72
     8
 73
     5
 74
     0
 42
0.0000000001
 43
0.0000000001
 40
0.0
 40
0.0
 40
0.0
 40
0.6274234559763834
 40
0.6274234559763834
 40
1.254846911952709
 40
1.254846911952709
 40
1.254846911952709
 10
1065.959848712501
 20
536.7678088211892
 30
0.0
 41
1.0
 10
1065.769320241397
 20
536.4895037873201
 30
0.0
 41
0.8984227150175335
 10
1065.432676434462
 20
536.4688703816169
 30
0.0
 41
1.0
 10
1065.096032627527
 20
536.4482369759137
 30
0.0
 41
0.8984227150175741
 10
1064.872942507177
 20
536.70119070366
 30
0.0
 41
1.0
  0
SPLINE
  5
168
330
1F
100
AcDbEntity
  8
Linee visibili 2D
100
AcDbSpline
210
0.0
220
0.0
230
1.0
 70
    12
 71
     2
 72
     6
 73
     3
 74
     0
 42
0.0000000001
 43
0.0000000001
 40
0.0
 40
0.0
 40
0.0
 40
0.2992883815593549
 40
0.2992883815593549
 40
0.2992883815593549
 10
1064.872942507177
 20
536.7011907036599
 30
0.0
 41
1.0
 10
1064.769414364059
 20
536.8185774785086
 30
0.0
 41
0.9354120268382647
 10
1064.769414364059
 20
536.9750949897552
 30
0.0
 41
1.0
  0
SPLINE
  5
169
330
1F
100
AcDbEntity
  8
Linee visibili 2D
100
AcDbSpline
210
0.0
220
0.0
230
1.0
 70
    24
 71
     2
 72
     6
 73
     3
 74
     0
 42
0.0000000001
 43
0.0000000001
 40
0.0
 40
0.0
 40
0.0
 40
1.333995514045
 40
1.333995514045
 40
1.333995514045
 10
1064.769414364059
 20
536.9750949897552
 30
0.0
 10
1064.769414364059
 20
537.6420927467777
 30
0.0
 10
1064.769414364059
 20
538.3090905038002
 30
0.0
  0
SPLINE
  5
16A
330
1F
100
AcDbEntity
  8
Linee visibili 2D
100
AcDbSpline
210
0.0
220
0.0
230
1.0
 70
    12
 71
     2
 72
     6
 73
     3
 74
     0
 42
0.0000000001
 43
0.0000000001
 40
0.0
 40
0.0
 40
0.0
 40
0.1445207360914294
 40
0.1445207360914294
 40
0.1445207360914294
 10
1064.677409605946
 20
538.4010952619132
 30
0.0
 41
1.0
 10
1064.769414364059
 20
538.4010952619132
 30
0.0
 41
0.7071067811865476
 10
1064.769414364059
 20
538.3090905038002
 30
0.0
 41
1.0
  0
SPLINE
  5
16B
330
1F
100
AcDbEntity
  8
Linee visibili 2D
100
AcDbSpline
210
0.0
220
0.0
230
1.0
 70
    24
 71
     2
 72
     6
 73
     3
 74
     0
 42
0.0000000001
 43
0.0000000001
 40
0.0
 40
0.0
 40
0.0
 40
0.1840087305115503
 40
0.1840087305115503
 40
0.1840087305115503
 10
1064.493400875435
 20
538.4010952619134
 30
0.0
 10
1064.585405240691
 20
538.4010952619133
 30
0.0
 10
1064.677409605946
 20
538.4010952619132
 30
0.0
  0
SPLINE
  5
16C
330
1F
100
AcDbEntity
  8
Linee visibili 2D
100
AcDbSpline
210
0.0
220
0.0
230
1.0
 70
    12
 71
     2
 72
     6
 73
     3
 74
     0
 42
0.0000000001
 43
0.0000000001
 40
0.0
 40
0.0
 40
0.0
 40
0.2167806927381654
 40
0.2167806927381654
 40
0.2167806927381654
 10
1064.355393869218
 20
538.2630885176012
 30
0.0
 41
1.0
 10
1064.35539400017
 20
538.4010953928658
 30
0.0
 41
0.7071067811862563
 10
1064.493400875435
 20
538.4010952619134
 30
0.0
 41
1.0
  0
SPLINE
  5
16D
330
1F
100
AcDbEntity
  8
Linee visibili 2D
100
AcDbSpline
210
0.0
220
0.0
230
1.0
 70
    24
 71
     2
 72
     6
 73
     3
 74
     0
 42
0.0000000001
 43
0.0000000001
 40
0.0
 40
0.0
 40
0.0
 40
1.472073772663981
 40
1.472073772663981
 40
1.472073772663981
 10
1064.355393738266
 20
536.7910147449372
 30
0.0
 10
1064.355393803742
 20
537.5270516312692
 30
0.0
 10
1064.355393869218
 20
538.2630885176012
 30
0.0
  0
SPLINE
  5
16E
330
1F
100
AcDbEntity
  8
Linee visibili 2D
100
AcDbSpline
210
0.0
220
0.0
230
1.0
 70
    12
 71
     2
 72
     6
 73
     3
 74
     0
 42
0.0000000001
 43
0.0000000001
 40
0.0
 40
0.0
 40
0.0
 40
0.2167807955880423
 40
0.2167807955880423
 40
0.2167807955880423
 10
1064.493400875435
 20
536.653008000625
 30
0.0
 41
1.0
 10
1064.355393934694
 20
536.6530078041964
 30
0.0
 41
0.707106781185965
 10
1064.355393738266
 20
536.7910147449372
 30
0.0
 41
1.0
  0
SPLINE
  5
16F
330
1F
100
AcDbEntity
  8
Linee visibili 2D
100
AcDbSpline
210
0.0
220
0.0
230
1.0
 70
    12
 71
     2
 72
     8
 73
     5
 74
     0
 42
0.0000000001
 43
0.0000000001
 40
0.0
 40
0.0
 40
0.0
 40
0.0361298754738886
 40
0.0361298754738886
 40
0.1083896264211876
 40
0.1083896264211876
 40
0.1083896264211876
 10
1064.571931178024
 20
536.6395343308159
 30
0.0
 41
1.0
 10
1064.585404847833
 20
536.626060661006
 30
0.0
 41
0.9238795325109178
 10
1064.585404847834
 20
536.607006014426
 30
0.0
 41
1.0
 10
1064.585404847834
 20
536.5610040282265
 30
0.0
 41
0.7071067811861107
 10
1064.539402861634
 20
536.5610040282265
 30
0.0
 41
1.0
  0
SPLINE
  5
170
330
1F
100
AcDbEntity
  8
Linee visibili 2D
100
AcDbSpline
210
0.0
220
0.0
230
1.0
 70
    24
 71
     2
 72
     6
 73
     3
 74
     0
 42
0.0000000001
 43
0.0000000001
 40
0.0
 40
0.0
 40
0.0
 40
0.8740432377869638
 40
0.8740432377869638
 40
0.8740432377869638
 10
1064.539402861634
 20
536.5610040282265
 30
0.0
 10
1064.102381242741
 20
536.5610040282265
 30
0.0
 10
1063.665359623847
 20
536.5610040282265
 30
0.0
  0
SPLINE
  5
171
330
1F
100
AcDbEntity
  8
Linee visibili 2D
100
AcDbSpline
210
0.0
220
0.0
230
1.0
 70
    12
 71
     2
 72
     6
 73
     3
 74
     0
 42
0.0000000001
 43
0.0000000001
 40
0.0
 40
0.0
 40
0.0
 40
0.0722599566471827
 40
0.0722599566471827
 40
0.0722599566471827
 10
1063.665359623847
 20
536.5610040282265
 30
0.0
 41
1.0
 10
1063.619357506695
 20
536.5610038972744
 30
0.0
 41
0.7071067811878582
 10
1063.619357375743
 20
536.6070060144262
 30
0.0
 41
1.0
  0
SPLINE
  5
172
330
1F
100
AcDbEntity
  8
Linee visibili 2D
100
AcDbSpline
210
0.0
220
0.0
230
1.0
 70
    24
 71
     2
 72
     6
 73
     3
 74
     0
 42
0.0000000001
 43
0.0000000001
 40
0.0
 40
0.0
 40
0.0
 40
1.702084489374068
 40
1.702084489374068
 40
1.702084489374068
 10
1063.619357375743
 20
536.6070060144262
 30
0.0
 10
1063.619357113839
 20
537.4580482591132
 30
0.0
 10
1063.619356851934
 20
538.3090905038002
 30
0.0
  0
SPLINE
  5
173
330
1F
100
AcDbEntity
  8
Linee visibili 2D
100
AcDbSpline
210
0.0
220
0.0
230
1.0
 70
    12
 71
     2
 72
     6
 73
     3
 74
     0
 42
0.0000000001
 43
0.0000000001
 40
0.0
 40
0.0
 40
0.0
 40
0.1445207360915106
 40
0.1445207360915106
 40
0.1445207360915106
 10
1063.527352093821
 20
538.4010952619132
 30
0.0
 41
1.0
 10
1063.619356851934
 20
538.4010952619133
 30
0.0
 41
0.7071067811858922
 10
1063.619356851934
 20
538.3090905038002
 30
0.0
 41
1.0
  0
SPLINE
  5
174
330
1F
100
AcDbEntity
  8
Linee visibili 2D
100
AcDbSpline
210
0.0
220
0.0
230
1.0
 70
    24
 71
     2
 72
     6
 73
     3
 74
     0
 42
0.0000000001
 43
0.0000000001
 40
0.0
 40
0.0
 40
0.0
 40
0.0920039723987429
 40
0.0920039723987429
 40
0.0920039723987429
 10
1063.435348121422
 20
538.401095261913
 30
0.0
 10
1063.481350107621
 20
538.401095261913
 30
0.0
 10
1063.527352093821
 20
538.4010952619132
 30
0.0
  0
SPLINE
  5
175
330
1F
100
AcDbEntity
  8
Linee visibili 2D
100
AcDbSpline
210
0.0
220
0.0
230
1.0
 70
    12
 71
     2
 72
     8
 73
     5
 74
     0
 42
0.0000000001
 43
0.0000000001
 40
0.0
 40
0.0
 40
0.0
 40
0.0722599566467764
 40
0.0722599566467764
 40
0.1445199132936014
 40
0.1445199132936014
 40
0.1445199132936014
 10
1063.435348121422
 20
538.401095261913
 30
0.0
 41
1.0
 10
1063.38934600427
 20
538.401095261913
 30
0.0
 41
0.7071067811863291
 10
1063.38934600427
 20
538.4470973790649
 30
0.0
 41
1.0
 10
1063.38934600427
 20
538.4930994962166
 30
0.0
 41
0.7071067811869844
 10
1063.435348121422
 20
538.4930994962166
 30
0.0
 41
1.0
  0
SPLINE
  5
176
330
1F
100
AcDbEntity
  8
Linee visibili 2D
100
AcDbSpline
210
0.0
220
0.0
230
1.0
 70
    24
 71
     2
 72
     6
 73
     3
 74
     0
 42
0.0000000001
 43
0.0000000001
 40
0.0
 40
0.0
 40
0.0
 40
4.5542264908745
 40
4.5542264908745
 40
4.5542264908745
 10
1063.435348121422
 20
538.4930994962166
 30
0.0
 10
1065.712461366859
 20
538.4930995616928
 30
0.0
 10
1067.989574612297
 20
538.4930996271689
 30
0.0
  0
SPLINE
  5
177
330
1F
100
AcDbEntity
  8
Linee visibili 2D
100
AcDbSpline
210
0.0
220
0.0
230
1.0
 70
    12
 71
     2
 72
     8
 73
     5
 74
     0
 42
0.0000000001
 43
0.0000000001
 40
0.0
 40
0.0
 40
0.0
 40
0.0722600594966043
 40
0.0722600594966043
 40
0.144520118993099
 40
0.144520118993099
 40
0.144520118993099
 10
1067.989574612297
 20
538.4930996271689
 30
0.0
 41
1.0
 10
1068.035576794925
 20
538.493099627169
 30
0.0
 41
0.707106781185237
 10
1068.035576794925
 20
538.447097444541
 30
0.0
 41
1.0
 10
1068.035576794925
 20
538.401095261913
 30
0.0
 41
0.707106781186766
 10
1067.989574612297
 20
538.401095261913
 30
0.0
 41
1.0
  0
SPLINE
  5
178
330
1F
100
AcDbEntity
  8
Linee visibili 2D
100
AcDbSpline
210
0.0
220
0.0
230
1.0
 70
    12
 71
     2
 72
     6
 73
     3
 74
     0
 42
0.0000000001
 43
0.0000000001
 40
0.0
 40
0.0
 40
0.0
 40
0.2167806927380233
 40
0.2167806927380233
 40
0.2167806927380233
 10
1067.80556561988
 20
538.2630885176012
 30
0.0
 41
1.0
 10
1067.805565750833
 20
538.4010953928656
 30
0.0
 41
0.7071067811866203
 10
1067.943572626097
 20
538.4010952619134
 30
0.0
 41
1.0
  0
SPLINE
  5
179
330
1F
100
AcDbEntity
  8
Linee visibili 2D
100
AcDbSpline
210
0.0
220
0.0
230
1.0
 70
    24
 71
     2
 72
     6
 73
     3
 74
     0
 42
0.0000000001
 43
0.0000000001
 40
0.0
 40
0.0
 40
0.0
 40
1.472073772663981
 40
1.472073772663981
 40
1.472073772663981
 10
1067.805565488928
 20
536.7910147449372
 30
0.0
 10
1067.805565554404
 20
537.5270516312692
 30
0.0
 10
1067.80556561988
 20
538.2630885176012
 30
0.0
  0
SPLINE
  5
17A
330
1F
100
AcDbEntity
  8
Linee visibili 2D
100
AcDbSpline
210
0.0
220
0.0
230
1.0
 70
    12
 71
     2
 72
     6
 73
     3
 74
     0
 42
0.0000000001
 43
0.0000000001
 40
0.0
 40
0.0
 40
0.0
 40
0.2167807955880261
 40
0.2167807955880261
 40
0.2167807955880261
 10
1067.943572626097
 20
536.653008000625
 30
0.0
 41
1.0
 10
1067.805565685356
 20
536.6530078041964
 30
0.0
 41
0.7071067811858922
 10
1067.805565488928
 20
536.7910147449372
 30
0.0
 41
1.0
  0
SPLINE
  5
17B
330
1F
100
AcDbEntity
  8
Linee visibili 2D
100
AcDbSpline
210
0.0
220
0.0
230
1.0
 70
    12
 71
     2
 72
     8
 73
     5
 74
     0
 42
0.0000000001
 43
0.0000000001
 40
0.0
 40
0.0
 40
0.0
 40
0.0361300641407701
 40
0.0361300641407701
 40
0.1083900207875587
 40
0.1083900207875587
 40
0.1083900207875587
 10
1068.022102960602
 20
536.6395343531426
 30
0.0
 41
1.0
 10
1068.035576729449
 20
536.6260606345664
 30
0.0
 41
0.9238791755609143
 10
1068.035576729449
 20
536.6070058834737
 30
0.0
 41
1.0
 10
1068.035576729448
 20
536.5610037663218
 30
0.0
 41
0.7071067811858922
 10
1067.989574612297
 20
536.561003766322
 30
0.0
 41
1.0
  0
SPLINE
  5
17C
330
1F
100
AcDbEntity
  8
Linee visibili 2D
100
AcDbSpline
210
0.0
220
0.0
230
1.0
 70
    24
 71
     2
 72
     6
 73
     3
 74
     0
 42
0.0000000001
 43
0.0000000001
 40
0.0
 40
0.0
 40
0.0
 40
0.8740432377869737
 40
0.8740432377869737
 40
0.8740432377869737
 10
1067.11553137451
 20
536.5610036353695
 30
0.0
 10
1067.552552993403
 20
536.5610037008457
 30
0.0
 10
1067.989574612297
 20
536.5610037663218
 30
0.0
  0
SPLINE
  5
17D
330
1F
100
AcDbEntity
  8
Linee visibili 2D
100
AcDbSpline
210
0.0
220
0.0
230
1.0
 70
    12
 71
     2
 72
     6
 73
     3
 74
     0
 42
0.0000000001
 43
0.0000000001
 40
0.0
 40
0.0
 40
0.0
 40
0.0722602651963417
 40
0.0722602651963417
 40
0.0722602651963417
 10
1067.11553137451
 20
536.5610036353696
 30
0.0
 41
1.0
 10
1067.069529060929
 20
536.5610037008455
 30
0.0
 41
0.7071067811819604
 10
1067.069529126406
 20
536.6070060144262
 30
0.0
 41
1.0
  0
SPLINE
  5
17E
330
1F
100
AcDbEntity
  8
Linee visibili 2D
100
AcDbSpline
210
0.0
220
0.0
230
1.0
 70
    24
 71
     2
 72
     6
 73
     3
 74
     0
 42
0.0000000001
 43
0.0000000001
 40
0.0
 40
0.0
 40
0.0
 40
0.0828849751356482
 40
0.0828849751356482
 40
0.0828849751356482
 10
1067.069529126406
 20
536.6070060144262
 30
0.0
 10
1067.069528864501
 20
536.6484485019932
 30
0.0
 10
1067.069528602596
 20
536.6898909895602
 30
0.0
  0
SPLINE
  5
17F
330
1F
100
AcDbEntity
  8
Linee visibili 2D
100
AcDbSpline
210
0.0
220
0.0
230
1.0
 70
    12
 71
     2
 72
     6
 73
     3
 74
     0
 42
0.0000000001
 43
0.0000000001
 40
0.0
 40
0.0
 40
0.0
 40
0.1445207360912345
 40
0.1445207360912345
 40
0.1445207360912345
 10
1066.977523844484
 20
538.4010952619132
 30
0.0
 41
1.0
 10
1067.069528602596
 20
538.4010952619129
 30
0.0
 41
0.7071067811876397
 10
1067.069528602596
 20
538.3090905038002
 30
0.0
 41
1.0
  0
SPLINE
  5
180
330
1F
100
AcDbEntity
  8
Linee visibili 2D
100
AcDbSpline
210
0.0
220
0.0
230
1.0
 70
    24
 71
     2
 72
     6
 73
     3
 74
     0
 42
0.0000000001
 43
0.0000000001
 40
0.0
 40
0.0
 40
0.0
 40
0.2300107167110355
 40
0.2300107167110355
 40
0.2300107167110355
 10
1066.747513127772
 20
538.4010952619132
 30
0.0
 10
1066.862518486128
 20
538.4010952619132
 30
0.0
 10
1066.977523844484
 20
538.4010952619132
 30
0.0
  0
SPLINE
  5
181
330
1F
100
AcDbEntity
  8
Linee visibili 2D
100
AcDbSpline
210
0.0
220
0.0
230
1.0
 70
    12
 71
     2
 72
     6
 73
     3
 74
     0
 42
0.0000000001
 43
0.0000000001
 40
0.0
 40
0.0
 40
0.0
 40
0.144520736091409
 40
0.144520736091409
 40
0.144520736091409
 10
1066.655508369659
 20
538.3090905038002
 30
0.0
 41
1.0
 10
1066.65550836966
 20
538.4010952619132
 30
0.0
 41
0.7071067811873121
 10
1066.747513127772
 20
538.4010952619132
 30
0.0
 41
1.0
  0
SPLINE
  5
182
330
1F
100
AcDbEntity
  8
Linee visibili 2D
100
AcDbSpline
210
0.0
220
0.0
230
1.0
 70
    24
 71
     2
 72
     6
 73
     3
 74
     0
 42
0.0000000001
 43
0.0000000001
 40
0.0
 40
0.0
 40
0.0
 40
1.512230046331013
 40
1.512230046331013
 40
1.512230046331013
 10
1066.655508369659
 20
536.7968604574692
 30
0.0
 10
1066.655508369659
 20
537.5529754806347
 30
0.0
 10
1066.655508369659
 20
538.3090905038002
 30
0.0
  0
SPLINE
  5
183
330
1F
100
AcDbEntity
  8
Linee visibili 2D
100
AcDbSpline
210
0.0
220
0.0
230
1.0
 70
    12
 71
     2
 72
     8
 73
     5
 74
     0
 42
0.0000000001
 43
0.0000000001
 40
0.0
 40
0.0
 40
0.0
 40
0.1258266257007007
 40
0.1258266257007007
 40
0.2516532514015478
 40
0.2516532514015478
 40
0.2516532514015478
 10
1066.828017106279
 20
536.6632347080845
 30
0.0
 41
1.0
 10
1066.76249873835
 20
536.6463182125733
 30
0.0
 41
0.8978787537486753
 10
1066.709003427793
 20
536.6877558296
 30
0.0
 41
1.0
 10
1066.655508117236
 20
536.7291934466265
 30
0.0
 41
0.8978787537490464
 10
1066.655508369659
 20
536.7968604574692
 30
0.0
 41
1.0
  0
SPLINE
  5
184
330
1F
100
AcDbEntity
  8
Linee visibili 2D
100
AcDbSpline
210
0.0
220
0.0
230
1.0
 70
    12
 71
     2
 72
     6
 73
     3
 74
     0
 42
0.0000000001
 43
0.0000000001
 40
0.0
 40
0.0
 40
0.0
 40
0.4244535059326387
 40
0.4244535059326387
 40
0.4244535059326387
 10
1067.069529126406
 20
536.9750242611633
 30
0.0
 41
1.0
 10
1067.069528592727
 20
536.7255923575617
 30
0.0
 41
0.790569656314136
 10
1066.828017106279
 20
536.6632347080846
 30
0.0
 41
1.0
  0
SPLINE
  5
185
330
1F
100
AcDbEntity
  8
Linee visibili 2D
100
AcDbSpline
210
0.0
220
0.0
230
1.0
 70
    24
 71
     2
 72
     6
 73
     3
 74
     0
 42
0.0000000001
 43
0.0000000001
 40
0.0
 40
0.0
 40
0.0
 40
0.3789475697939485
 40
0.3789475697939485
 40
0.3789475697939485
 10
1068.674144187999
 20
537.3890436039802
 30
0.0
 10
1068.863617972895
 20
537.3890440498636
 30
0.0
 10
1069.053091757792
 20
537.389044495747
 30
0.0
  0
SPLINE
  5
186
330
1F
100
AcDbEntity
  8
Linee visibili 2D
100
AcDbSpline
210
0.0
220
0.0
230
1.0
 70
    12
 71
     2
 72
     6
 73
     3
 74
     0
 42
0.0000000001
 43
0.0000000001
 40
0.0
 40
0.0
 40
0.0
 40
0.3344852952111453
 40
0.3344852952111453
 40
0.3344852952111453
 10
1068.863618190306
 20
538.3090828953425
 30
0.0
 41
1.0
 10
1069.008357439538
 20
538.204506878012
 30
0.0
 41
0.907544223328844
 10
1069.022329322092
 20
538.0264889570972
 30
0.0
 41
1.0
  0
SPLINE
  5
187
330
1F
100
AcDbEntity
  8
Linee visibili 2D
100
AcDbSpline
210
0.0
220
0.0
230
1.0
 70
    12
 71
     2
 72
     6
 73
     3
 74
     0
 42
0.0000000001
 43
0.0000000001
 40
0.0
 40
0.0
 40
0.0
 40
0.3599618912284215
 40
0.3599618912284215
 40
0.3599618912284215
 10
1068.491355801445
 20
538.3126980338086
 30
0.0
 41
1.0
 10
1068.662409931173
 20
538.4046190985406
 30
0.0
 41
0.8937854170395598
 10
1068.838344412605
 20
538.3224238694726
 30
0.0
 41
1.0
  0
SPLINE
  5
188
330
1F
100
AcDbEntity
  8
Linee visibili 2D
100
AcDbSpline
210
0.0
220
0.0
230
1.0
 70
    12
 71
     2
 72
    12
 73
     9
 74
     0
 42
0.0000000001
 43
0.0000000001
 40
0.0
 40
0.0
 40
0.0
 40
1.4452020178192
 40
1.4452020178192
 40
2.89040403563849
 40
2.89040403563849
 40
4.335606053457641
 40
4.335606053457641
 40
5.748566975879393
 40
5.748566975879393
 40
5.748566975879393
 10
1068.863618190306
 20
538.3090828953425
 30
0.0
 41
1.0
 10
1069.783662369915
 20
538.3090828953425
 30
0.0
 41
0.7071067811865256
 10
1069.783662369915
 20
537.3890387157332
 30
0.0
 41
1.0
 10
1069.783662369915
 20
536.4689945361239
 30
0.0
 41
0.7071067811865256
 10
1068.863618190306
 20
536.468994536124
 30
0.0
 41
1.0
 10
1067.943574010696
 20
536.4689945361241
 30
0.0
 41
0.707106781186613
 10
1067.943574010696
 20
537.3890387157332
 30
0.0
 41
1.0
 10
1067.943574010696
 20
538.2773937973099
 30
0.0
 41
0.7193871747347035
 10
1068.831383693239
 20
538.308518041021
 30
0.0
 41
1.0
  0
SPLINE
  5
189
330
1F
100
AcDbEntity
  8
Linee visibili 2D
100
AcDbSpline
210
0.0
220
0.0
230
1.0
 70
    24
 71
     2
 72
     6
 73
     3
 74
     0
 42
0.0000000001
 43
0.0000000001
 40
0.0
 40
0.0
 40
0.0
 40
1.062304003301733
 40
1.062304003301733
 40
1.062304003301733
 10
1067.99078775479
 20
537.4810492522131
 30
0.0
 10
1068.521939756441
 20
537.4810492513893
 30
0.0
 10
1069.053091758092
 20
537.4810492505655
 30
0.0
  0
SPLINE
  5
18A
330
1F
100
AcDbEntity
  8
Linee visibili 2D
100
AcDbSpline
210
0.0
220
0.0
230
1.0
 70
    12
 71
     2
 72
     6
 73
     3
 74
     0
 42
0.0000000001
 43
0.0000000001
 40
0.0
 40
0.0
 40
0.0
 40
0.5466280437268567
 40
0.5466280437268567
 40
0.5466280437268567
 10
1069.022329322092
 20
538.0264889570973
 30
0.0
 41
1.0
 10
1069.053932773513
 20
537.7546840269869
 30
0.0
 41
0.9982355588715939
 10
1069.053091758092
 20
537.4810492505655
 30
0.0
 41
1.0
  0
SPLINE
  5
18B
330
1F
100
AcDbEntity
  8
Linee visibili 2D
100
AcDbSpline
210
0.0
220
0.0
230
1.0
 70
    12
 71
     2
 72
     6
 73
     3
 74
     0
 42
0.0000000001
 43
0.0000000001
 40
0.0
 40
0.0
 40
0.0
 40
0.4354893252789293
 40
0.4354893252789293
 40
0.4354893252789293
 10
1068.170354028593
 20
538.0258571600871
 30
0.0
 41
1.0
 10
1068.292247506596
 20
538.2124828988561
 30
0.0
 41
0.965625537374649
 10
1068.491355801445
 20
538.3126980338085
 30
0.0
 41
1.0
  0
SPLINE
  5
18C
330
1F
100
AcDbEntity
  8
Linee visibili 2D
100
AcDbSpline
210
0.0
220
0.0
230
1.0
 70
    12
 71
     2
 72
     6
 73
     3
 74
     0
 42
0.0000000001
 43
0.0000000001
 40
0.0
 40
0.0
 40
0.0
 40
0.2139147002219384
 40
0.2139147002219384
 40
0.2139147002219384
 10
1068.036725952732
 20
537.6166342839508
 30
0.0
 41
1.0
 10
1068.042388102121
 20
537.7240413089525
 30
0.0
 41
0.9916696702188746
 10
1068.075301442026
 20
537.8264377982073
 30
0.0
 41
1.0
  0
SPLINE
  5
18D
330
1F
100
AcDbEntity
  8
Linee visibili 2D
100
AcDbSpline
210
0.0
220
0.0
230
1.0
 70
    12
 71
     2
 72
     8
 73
     5
 74
     0
 42
0.0000000001
 43
0.0000000001
 40
0.0
 40
0.0
 40
0.0
 40
0.0361298788467599
 40
0.0361298788467599
 40
0.0722597576774809
 40
0.0722597576774809
 40
0.0722597576774809
 10
1068.036725952732
 20
537.6166342839508
 30
0.0
 41
1.0
 10
1068.035722846728
 20
537.597606057288
 30
0.0
 41
0.9238795184799365
 10
1068.021558554629
 20
537.5848603732766
 30
0.0
 41
1.0
 10
1068.007394262537
 20
537.5721146892713
 30
0.0
 41
0.9238795185463257
 10
1067.988366036031
 20
537.573117798058
 30
0.0
 41
1.0
  0
SPLINE
  5
18E
330
1F
100
AcDbEntity
  8
Linee visibili 2D
100
AcDbSpline
210
0.0
220
0.0
230
1.0
 70
    12
 71
     2
 72
     6
 73
     3
 74
     0
 42
0.0000000001
 43
0.0000000001
 40
0.0
 40
0.0
 40
0.0
 40
0.1388399364427377
 40
0.1388399364427377
 40
0.1388399364427377
 10
1069.000033469796
 20
536.6781062795667
 30
0.0
 41
1.0
 10
1068.932779396497
 20
536.6603705738306
 30
0.0
 41
0.9971263877001537
 10
1068.863617811721
 20
536.6529989509164
 30
0.0
 41
1.0
  0
SPLINE
  5
18F
330
1F
100
AcDbEntity
  8
Linee visibili 2D
100
AcDbSpline
210
0.0
220
0.0
230
1.0
 70
    12
 71
     2
 72
     6
 73
     3
 74
     0
 42
0.0000000001
 43
0.0000000001
 40
0.0
 40
0.0
 40
0.0
 40
1.019981871406822
 40
1.019981871406822
 40
1.019981871406822
 10
1069.730358383804
 20
537.3117322977032
 30
0.0
 41
1.0
 10
1069.565305725212
 20
536.7642703456712
 30
0.0
 41
0.8454679719468285
 10
1069.000033469796
 20
536.6781062795668
 30
0.0
 41
1.0
  0
SPLINE
  5
190
330
1F
100
AcDbEntity
  8
Linee visibili 2D
100
AcDbSpline
210
0.0
220
0.0
230
1.0
 70
    12
 71
     2
 72
     6
 73
     3
 74
     0
 42
0.0000000001
 43
0.0000000001
 40
0.0
 40
0.0
 40
0.0
 40
0.2526665726936762
 40
0.2526665726936762
 40
0.2526665726936762
 10
1069.674687173855
 20
537.9751485297139
 30
0.0
 41
1.0
 10
1069.73116917391
 20
537.8612213268563
 30
0.0
 41
0.9902783327097404
 10
1069.754079018284
 20
537.7361423001894
 30
0.0
 41
1.0
  0
SPLINE
  5
191
330
1F
100
AcDbEntity
  8
Linee visibili 2D
100
AcDbSpline
210
0.0
220
0.0
230
1.0
 70
    12
 71
     2
 72
     8
 73
     5
 74
     0
 42
0.0000000001
 43
0.0000000001
 40
0.0
 40
0.0
 40
0.0
 40
1.259064606120932
 40
1.259064606120932
 40
2.168973152958771
 40
2.168973152958771
 40
2.168973152958771
 10
1067.972968759833
 20
537.7351016952897
 30
0.0
 41
1.0
 10
1068.10820098123
 20
538.4783175031912
 30
0.0
 41
0.7677940163632817
 10
1068.863619733193
 20
538.4783167870971
 30
0.0
 41
1.0
 10
1069.361186269766
 20
538.4783163154325
 30
0.0
 41
0.8763524259742113
 10
1069.62787514096
 20
538.0582573858783
 30
0.0
 41
1.0
  0
SPLINE
  5
192
330
1F
100
AcDbEntity
  8
Linee visibili 2D
100
AcDbSpline
210
0.0
220
0.0
230
1.0
 70
    12
 71
     2
 72
     6
 73
     3
 74
     0
 42
0.0000000001
 43
0.0000000001
 40
0.0
 40
0.0
 40
0.0
 40
1.029889702771233
 40
1.029889702771233
 40
1.029889702771233
 10
1068.727202583596
 20
536.6781065381948
 30
0.0
 41
1.0
 10
1068.155055461254
 20
536.7653196455263
 30
0.0
 41
0.8425329845565127
 10
1067.994070923231
 20
537.3212354972635
 30
0.0
 41
1.0
  0
SPLINE
  5
193
330
1F
100
AcDbEntity
  8
Linee visibili 2D
100
AcDbSpline
210
0.0
220
0.0
230
1.0
 70
    12
 71
     2
 72
     6
 73
     3
 74
     0
 42
0.0000000001
 43
0.0000000001
 40
0.0
 40
0.0
 40
0.0
 40
0.1388395593011183
 40
0.1388395593011183
 40
0.1388395593011183
 10
1068.863617811721
 20
536.6529989509165
 30
0.0
 41
1.0
 10
1068.794456434781
 20
536.6603707340724
 30
0.0
 41
0.9971264038174537
 10
1068.727202583596
 20
536.6781065381948
 30
0.0
 41
1.0
  0
SPLINE
  5
194
330
1F
100
AcDbEntity
  8
Linee visibili 2D
100
AcDbSpline
210
0.0
220
0.0
230
1.0
 70
    12
 71
     2
 72
     6
 73
     3
 74
     0
 42
0.0000000001
 43
0.0000000001
 40
0.0
 40
0.0
 40
0.0
 40
0.7136295829994215
 40
0.7136295829994215
 40
0.7136295829994215
 10
1068.727202583596
 20
536.6781065381948
 30
0.0
 41
1.0
 10
1068.673046185177
 20
537.031513207935
 30
0.0
 41
0.9969933743397281
 10
1068.674144187999
 20
537.3890436039803
 30
0.0
 41
1.0
  0
SPLINE
  5
195
330
1F
100
AcDbEntity
  8
Linee visibili 2D
100
AcDbSpline
210
0.0
220
0.0
230
1.0
 70
    12
 71
     2
 72
     8
 73
     5
 74
     0
 42
0.0000000001
 43
0.0000000001
 40
0.0
 40
0.0
 40
0.0
 40
0.1957970792241892
 40
0.1957970792241892
 40
0.3915941584484703
 40
0.3915941584484703
 40
0.3915941584484703
 10
1069.000033469796
 20
536.6781062795667
 30
0.0
 41
1.0
 10
1068.982088368666
 20
536.5610028143136
 30
0.0
 41
0.7587727868712136
 10
1068.863617915689
 20
536.5610029266169
 30
0.0
 41
1.0
 10
1068.745147462711
 20
536.56100303892
 30
0.0
 41
0.7587727868704585
 10
1068.727202583596
 20
536.6781065381948
 30
0.0
 41
1.0
  0
SPLINE
  5
196
330
1F
100
AcDbEntity
  8
Linee visibili 2D
100
AcDbSpline
210
0.0
220
0.0
230
1.0
 70
    12
 71
     2
 72
     6
 73
     3
 74
     0
 42
0.0000000001
 43
0.0000000001
 40
0.0
 40
0.0
 40
0.0
 40
0.7136307253290208
 40
0.7136307253290208
 40
0.7136307253290208
 10
1069.053091757792
 20
537.3890444957472
 30
0.0
 41
1.0
 10
1069.054189897679
 20
537.031513525808
 30
0.0
 41
0.9969933659846404
 10
1069.000033469796
 20
536.6781062795667
 30
0.0
 41
1.0
  0
SPLINE
  5
197
330
1F
100
AcDbEntity
  8
Linee visibili 2D
100
AcDbSpline
210
0.0
220
0.0
230
1.0
 70
    24
 71
     2
 72
     6
 73
     3
 74
     0
 42
0.0000000001
 43
0.0000000001
 40
0.0
 40
0.0
 40
0.0
 40
0.680829867180023
 40
0.680829867180023
 40
0.680829867180023
 10
1069.96767337601
 20
536.5517993881313
 30
0.0
 10
1069.96767337601
 20
536.2113844545413
 30
0.0
 10
1069.96767337601
 20
535.8709695209512
 30
0.0
  0
SPLINE
  5
198
330
1F
100
AcDbEntity
  8
Linee visibili 2D
100
AcDbSpline
210
0.0
220
0.0
230
1.0
 70
    24
 71
     2
 72
     6
 73
     3
 74
     0
 42
0.0000000001
 43
0.0000000001
 40
0.0
 40
0.0
 40
0.0
 40
0.2668127770990623
 40
0.2668127770990623
 40
0.2668127770990623
 10
1069.691659887385
 20
536.5610032425125
 30
0.0
 10
1069.825066275935
 20
536.5610032425124
 30
0.0
 10
1069.958472664484
 20
536.5610032425122
 30
0.0
  0
SPLINE
  5
199
330
1F
100
AcDbEntity
  8
Linee visibili 2D
100
AcDbSpline
210
0.0
220
0.0
230
1.0
 70
    12
 71
     2
 72
     8
 73
     5
 74
     0
 42
0.0000000001
 43
0.0000000001
 40
0.0
 40
0.0
 40
0.0
 40
0.0722603680456985
 40
0.0722603680456985
 40
0.1445207360914295
 40
0.1445207360914295
 40
0.1445207360914295
 10
1069.691659887385
 20
536.5610032425125
 30
0.0
 41
1.0
 10
1069.645657508329
 20
536.5610032425125
 30
0.0
 41
0.7071067811863291
 10
1069.645657508329
 20
536.607005621569
 30
0.0
 41
1.0
 10
1069.645657508328
 20
536.6530080006256
 30
0.0
 41
0.7071067811843632
 10
1069.691659887385
 20
536.6530080006255
 30
0.0
 41
1.0
  0
SPLINE
  5
19A
330
1F
100
AcDbEntity
  8
Linee visibili 2D
100
AcDbSpline
210
0.0
220
0.0
230
1.0
 70
    24
 71
     2
 72
     6
 73
     3
 74
     0
 42
0.0000000001
 43
0.0000000001
 40
0.0
 40
0.0
 40
0.0
 40
0.2668127770990623
 40
0.2668127770990623
 40
0.2668127770990623
 10
1069.691659887385
 20
536.6530080006255
 30
0.0
 10
1069.825066275935
 20
536.6530080006255
 30
0.0
 10
1069.958472664484
 20
536.6530080006254
 30
0.0
  0
SPLINE
  5
19B
330
1F
100
AcDbEntity
  8
Linee visibili 2D
100
AcDbSpline
210
0.0
220
0.0
230
1.0
 70
    24
 71
     2
 72
     6
 73
     3
 74
     0
 42
0.0000000001
 43
0.0000000001
 40
0.0
 40
0.0
 40
0.0
 40
1.529126826975983
 40
1.529126826975983
 40
1.529126826975983
 10
1069.96767337601
 20
536.6622118550072
 30
0.0
 10
1069.96767337601
 20
537.4267752684952
 30
0.0
 10
1069.96767337601
 20
538.1913386819832
 30
0.0
  0
SPLINE
  5
19C
330
1F
100
AcDbEntity
  8
Linee visibili 2D
100
AcDbSpline
210
0.0
220
0.0
230
1.0
 70
    12
 71
     2
 72
     8
 73
     5
 74
     0
 42
0.0000000001
 43
0.0000000001
 40
0.0
 40
0.0
 40
0.0
 40
0.0963441782242274
 40
0.0963441782242274
 40
0.1926883564483904
 40
0.1926883564483904
 40
0.1926883564483904
 10
1069.829666801357
 20
538.271011719431
 30
0.0
 41
1.0
 10
1069.875667521978
 20
538.2975701825646
 30
0.0
 41
0.8660325929775731
 10
1069.921668949776
 20
538.2710129443399
 30
0.0
 41
1.0
 10
1069.967670377574
 20
538.2444557061151
 30
0.0
 41
0.8660325929786755
 10
1069.96767337601
 20
538.1913386819832
 30
0.0
 41
1.0
  0
SPLINE
  5
19D
330
1F
100
AcDbEntity
  8
Linee visibili 2D
100
AcDbSpline
210
0.0
220
0.0
230
1.0
 70
    12
 71
     2
 72
     6
 73
     3
 74
     0
 42
0.0000000001
 43
0.0000000001
 40
0.0
 40
0.0
 40
0.0
 40
0.2188427966750671
 40
0.2188427966750671
 40
0.2188427966750671
 10
1069.739516796482
 20
538.0855942894563
 30
0.0
 41
1.0
 10
1069.721891625671
 20
538.2087878457273
 30
0.0
 41
0.8283437242406344
 10
1069.829666801357
 20
538.271011719431
 30
0.0
 41
1.0
  0
SPLINE
  5
19E
330
1F
100
AcDbEntity
  8
Linee visibili 2D
100
AcDbSpline
210
0.0
220
0.0
230
1.0
 70
    12
 71
     2
 72
     8
 73
     5
 74
     0
 42
0.0000000001
 43
0.0000000001
 40
0.0
 40
0.0
 40
0.0
 40
0.0722584981986321
 40
0.0722584981986321
 40
0.1397604365880767
 40
0.1397604365880767
 40
0.1397604365880767
 10
1069.739516796482
 20
538.0855942894563
 30
0.0
 41
1.0
 10
1069.746031900449
 20
538.0400573093845
 30
0.0
 41
0.707117408373053
 10
1069.700495116231
 20
538.0335408366503
 30
0.0
 41
1.0
 10
1069.659439127259
 20
538.027665581353
 30
0.0
 41
0.7427127893391229
 10
1069.6493564612
 20
538.0678955788719
 30
0.0
 41
1.0
  0
SPLINE
  5
19F
330
1F
100
AcDbEntity
  8
Linee visibili 2D
100
AcDbSpline
210
0.0
220
0.0
230
1.0
 70
    12
 71
     2
 72
     6
 73
     3
 74
     0
 42
0.0000000001
 43
0.0000000001
 40
0.0
 40
0.0
 40
0.0
 40
0.2713759842242005
 40
0.2713759842242005
 40
0.2713759842242005
 10
1069.648440490518
 20
538.0725609522383
 30
0.0
 41
1.0
 10
1069.62750598902
 20
538.2188604905444
 30
0.0
 41
0.8815793233193746
 10
1069.737661980368
 20
538.3173869632903
 30
0.0
 41
1.0
  0
SPLINE
  5
1A0
330
1F
100
AcDbEntity
  8
Linee visibili 2D
100
AcDbSpline
210
0.0
220
0.0
230
1.0
 70
    12
 71
     2
 72
     6
 73
     3
 74
     0
 42
0.0000000001
 43
0.0000000001
 40
0.0
 40
0.0
 40
0.0
 40
1.007072657298675
 40
1.007072657298675
 40
1.007072657298675
 10
1069.737661980368
 20
538.3173869632903
 30
0.0
 41
1.0
 10
1070.197686397799
 20
538.7288380982811
 30
0.0
 41
0.7453589651440077
 10
1070.657707316762
 20
538.3173830518492
 30
0.0
 41
1.0
  0
SPLINE
  5
1A1
330
1F
100
AcDbEntity
  8
Linee visibili 2D
100
AcDbSpline
210
0.0
220
0.0
230
1.0
 70
    12
 71
     2
 72
     6
 73
     3
 74
     0
 42
0.0000000001
 43
0.0000000001
 40
0.0
 40
0.0
 40
0.0
 40
0.2321467904749635
 40
0.2321467904749635
 40
0.2321467904749635
 10
1070.657707316762
 20
538.3173830518492
 30
0.0
 41
1.0
 10
1070.749712641398
 20
538.2350920763097
 30
0.0
 41
0.9128695874796712
 10
1070.749712641398
 20
538.1116547058882
 30
0.0
 41
1.0
  0
SPLINE
  5
1A2
330
1F
100
AcDbEntity
  8
Linee visibili 2D
100
AcDbSpline
210
0.0
220
0.0
230
1.0
 70
    24
 71
     2
 72
     6
 73
     3
 74
     0
 42
0.0000000001
 43
0.0000000001
 40
0.0
 40
0.0
 40
0.0
 40
1.029424203566009
 40
1.029424203566009
 40
1.029424203566009
 10
1070.749712641398
 20
537.0822305023222
 30
0.0
 10
1070.749712641398
 20
537.5969426041052
 30
0.0
 10
1070.749712641398
 20
538.1116547058882
 30
0.0
  0
SPLINE
  5
1A3
330
1F
100
AcDbEntity
  8
Linee visibili 2D
100
AcDbSpline
210
0.0
220
0.0
230
1.0
 70
    24
 71
     2
 72
     6
 73
     3
 74
     0
 42
0.0000000001
 43
0.0000000001
 40
0.0
 40
0.0
 40
0.0
 40
0.1633530022647278
 40
0.1633530022647278
 40
0.1633530022647278
 10
1070.749712641398
 20
536.6055681577143
 30
0.0
 10
1070.749712641398
 20
536.6872446588466
 30
0.0
 10
1070.749712641398
 20
536.768921159979
 30
0.0
  0
SPLINE
  5
1A4
330
1F
100
AcDbEntity
  8
Linee visibili 2D
100
AcDbSpline
210
0.0
220
0.0
230
1.0
 70
    12
 71
     2
 72
     6
 73
     3
 74
     0
 42
0.0000000001
 43
0.0000000001
 40
0.0
 40
0.0
 40
0.0
 40
0.0693836100385649
 40
0.0693836100385649
 40
0.0693836100385649
 10
1070.749712641398
 20
536.6055681577143
 30
0.0
 41
1.0
 10
1070.749712641398
 20
536.5623565717874
 30
0.0
 41
0.7288757755013
 10
1070.706585589247
 20
536.5596549924136
 30
0.0
 41
1.0
  0
SPLINE
  5
1A5
330
1F
100
AcDbEntity
  8
Linee visibili 2D
100
AcDbSpline
210
0.0
220
0.0
230
1.0
 70
    12
 71
     2
 72
     6
 73
     3
 74
     0
 42
0.0000000001
 43
0.0000000001
 40
0.0
 40
0.0
 40
0.0
 40
1.040748490397754
 40
1.040748490397754
 40
1.040748490397754
 10
1070.059678134123
 20
535.8709695209512
 30
0.0
 41
1.0
 10
1070.059678134123
 20
536.519144174762
 30
0.0
 41
0.7288689348845518
 10
1070.706585589247
 20
536.5596549924135
 30
0.0
 41
1.0
  0
SPLINE
  5
1A6
330
1F
100
AcDbEntity
  8
Linee visibili 2D
100
AcDbSpline
210
0.0
220
0.0
230
1.0
 70
    12
 71
     2
 72
     8
 73
     5
 74
     0
 42
0.0000000001
 43
0.0000000001
 40
0.0
 40
0.0
 40
0.0
 40
0.0722603680457026
 40
0.0722603680457026
 40
0.1445207360913605
 40
0.1445207360913605
 40
0.1445207360913605
 10
1070.059678134123
 20
535.8709695209512
 30
0.0
 41
1.0
 10
1070.059678134123
 20
535.8249671418947
 30
0.0
 41
0.7071067811845816
 10
1070.013675755066
 20
535.8249671418948
 30
0.0
 41
1.0
 10
1069.96767337601
 20
535.8249671418948
 30
0.0
 41
0.7071067811869844
 10
1069.96767337601
 20
535.8709695209512
 30
0.0
 41
1.0
  0
SPLINE
  5
1A7
330
1F
100
AcDbEntity
  8
Linee visibili 2D
100
AcDbSpline
210
0.0
220
0.0
230
1.0
 70
    24
 71
     2
 72
     6
 73
     3
 74
     0
 42
0.0000000001
 43
0.0000000001
 40
0.0
 40
0.0
 40
0.0
 40
0.6225754560845189
 40
0.6225754560845189
 40
0.6225754560845189
 10
1073.506777742849
 20
535.5489532604131
 30
0.0
 10
1073.818065470892
 20
535.5489532604133
 30
0.0
 10
1074.129353198934
 20
535.5489532604134
 30
0.0
  0
SPLINE
  5
1A8
330
1F
100
AcDbEntity
  8
Linee visibili 2D
100
AcDbSpline
210
0.0
220
0.0
230
1.0
 70
    24
 71
     2
 72
     6
 73
     3
 74
     0
 42
0.0000000001
 43
0.0000000001
 40
0.0
 40
0.0
 40
0.0
 40
2.821902445156076
 40
2.821902445156076
 40
2.821902445156076
 10
1073.462904256012
 20
535.5811243221902
 30
0.0
 10
1073.03862416901
 20
536.9267727756387
 30
0.0
 10
1072.614344082008
 20
538.2724212290872
 30
0.0
  0
SPLINE
  5
1A9
330
1F
100
AcDbEntity
  8
Linee visibili 2D
100
AcDbSpline
210
0.0
220
0.0
230
1.0
 70
    12
 71
     2
 72
     6
 73
     3
 74
     0
 42
0.0000000001
 43
0.0000000001
 40
0.0
 40
0.0
 40
0.0
 40
0.2342027850899431
 40
0.2342027850899431
 40
0.2342027850899431
 10
1072.437484977515
 20
538.4010901919971
 30
0.0
 41
1.0
 10
1072.573453633945
 20
538.4020995448608
 30
0.0
 41
0.8042506435039274
 10
1072.614344082008
 20
538.2724212290873
 30
0.0
 41
1.0
  0
SPLINE
  5
1AA
330
1F
100
AcDbEntity
  8
Linee visibili 2D
100
AcDbSpline
210
0.0
220
0.0
230
1.0
 70
    12
 71
     2
 72
     6
 73
     3
 74
     0
 42
0.0000000001
 43
0.0000000001
 40
0.0
 40
0.0
 40
0.0
 40
0.1078807146411321
 40
0.1078807146411321
 40
0.1078807146411321
 10
1072.368993869899
 20
538.3320859969022
 30
0.0
 41
1.0
 10
1072.368991128413
 20
538.4005817331764
 30
0.0
 41
0.7097123344901828
 10
1072.437484977515
 20
538.4010901919971
 30
0.0
 41
1.0
  0
SPLINE
  5
1AB
330
1F
100
AcDbEntity
  8
Linee visibili 2D
100
AcDbSpline
210
0.0
220
0.0
230
1.0
 70
    24
 71
     2
 72
     6
 73
     3
 74
     0
 42
0.0000000001
 43
0.0000000001
 40
0.0
 40
0.0
 40
0.0
 40
1.541071251964979
 40
1.541071251964979
 40
1.541071251964979
 10
1072.368993869899
 20
536.7910147449372
 30
0.0
 10
1072.368993869899
 20
537.5615503709197
 30
0.0
 10
1072.368993869899
 20
538.3320859969022
 30
0.0
  0
SPLINE
  5
1AC
330
1F
100
AcDbEntity
  8
Linee visibili 2D
100
AcDbSpline
210
0.0
220
0.0
230
1.0
 70
    12
 71
     2
 72
     6
 73
     3
 74
     0
 42
0.0000000001
 43
0.0000000001
 40
0.0
 40
0.0
 40
0.0
 40
0.2167804870385743
 40
0.2167804870385743
 40
0.2167804870385743
 10
1072.507000614211
 20
536.653008000625
 30
0.0
 41
1.0
 10
1072.368993869899
 20
536.6530080006249
 30
0.0
 41
0.7071067811861107
 10
1072.368993869899
 20
536.7910147449372
 30
0.0
 41
1.0
  0
SPLINE
  5
1AD
330
1F
100
AcDbEntity
  8
Linee visibili 2D
100
AcDbSpline
210
0.0
220
0.0
230
1.0
 70
    12
 71
     2
 72
     8
 73
     5
 74
     0
 42
0.0000000001
 43
0.0000000001
 40
0.0
 40
0.0
 40
0.0
 40
0.0361301840231838
 40
0.0361301840231838
 40
0.1083905520688741
 40
0.1083905520688741
 40
0.1083905520688741
 10
1072.585531194592
 20
536.6395342157507
 30
0.0
 41
1.0
 10
1072.599004979467
 20
536.6260604308758
 30
0.0
 41
0.9238795325079169
 10
1072.599004979467
 20
536.607005621569
 30
0.0
 41
1.0
 10
1072.599004979467
 20
536.5610032425125
 30
0.0
 41
0.7071067811874213
 10
1072.553002600411
 20
536.5610032425126
 30
0.0
 41
1.0
  0
SPLINE
  5
1AE
330
1F
100
AcDbEntity
  8
Linee visibili 2D
100
AcDbSpline
210
0.0
220
0.0
230
1.0
 70
    24
 71
     2
 72
     6
 73
     3
 74
     0
 42
0.0000000001
 43
0.0000000001
 40
0.0
 40
0.0
 40
0.0
 40
0.9200460097003997
 40
0.9200460097003997
 40
0.9200460097003997
 10
1071.63295659071
 20
536.5610032425124
 30
0.0
 10
1072.092979595561
 20
536.5610032425125
 30
0.0
 10
1072.553002600411
 20
536.5610032425125
 30
0.0
  0
SPLINE
  5
1AF
330
1F
100
AcDbEntity
  8
Linee visibili 2D
100
AcDbSpline
210
0.0
220
0.0
230
1.0
 70
    12
 71
     2
 72
     6
 73
     3
 74
     0
 42
0.0000000001
 43
0.0000000001
 40
0.0
 40
0.0
 40
0.0
 40
0.0722603184155892
 40
0.0722603184155892
 40
0.0722603184155892
 10
1071.63295659071
 20
536.5610032425124
 30
0.0
 41
1.0
 10
1071.586954327295
 20
536.5610037510083
 30
0.0
 41
0.7071085586960255
 10
1071.586954604511
 20
536.6070060144262
 30
0.0
 41
1.0
  0
SPLINE
  5
1B0
330
1F
100
AcDbEntity
  8
Linee visibili 2D
100
AcDbSpline
210
0.0
220
0.0
230
1.0
 70
    12
 71
     2
 72
     8
 73
     5
 74
     0
 42
0.0000000001
 43
0.0000000001
 40
0.0
 40
0.0
 40
0.0
 40
0.6311488390625204
 40
0.6311488390625204
 40
1.266798882898368
 40
1.266798882898368
 40
1.266798882898368
 10
1071.565139178673
 20
536.6260944813395
 30
0.0
 41
1.0
 10
1071.31715452038
 20
536.3426829875433
 30
0.0
 41
0.7737879568969193
 10
1070.990349283875
 20
536.5298107592855
 30
0.0
 41
1.0
 10
1070.660268953195
 20
536.7188138408665
 30
0.0
 41
0.7706796641566099
 10
1070.783885540199
 20
537.078527795234
 30
0.0
 41
1.0
  0
SPLINE
  5
1B1
330
1F
100
AcDbEntity
  8
Linee visibili 2D
100
AcDbSpline
210
0.0
220
0.0
230
1.0
 70
    12
 71
     2
 72
    12
 73
     9
 74
     0
 42
0.0000000001
 43
0.0000000001
 40
0.0
 40
0.0
 40
0.0
 40
0.3793671226307362
 40
0.3793671226307362
 40
0.7587342452616126
 40
0.7587342452616126
 40
1.138101367892357
 40
1.138101367892357
 40
1.517468490523169
 40
1.517468490523169
 40
1.517468490523169
 10
1070.785222575086
 20
537.0823632782722
 30
0.0
 41
1.0
 10
1070.856944484822
 20
537.2852225695391
 30
0.0
 41
0.8314689468778285
 10
1071.071808845829
 20
537.296590540271
 30
0.0
 41
1.0
 10
1071.286673206836
 20
537.3079585110029
 30
0.0
 41
0.8314689468775635
 10
1071.379400408385
 20
537.1137998375357
 30
0.0
 41
1.0
 10
1071.472127609934
 20
536.9196411640685
 30
0.0
 41
0.8314689468777043
 10
1071.328233166018
 20
536.7596714375586
 30
0.0
 41
1.0
 10
1071.184338722102
 20
536.5997017110484
 30
0.0
 41
0.8314689468774953
 10
1070.981480118073
 20
536.6714255645498
 30
0.0
 41
1.0
  0
SPLINE
  5
1B2
330
1F
100
AcDbEntity
  8
Linee visibili 2D
100
AcDbSpline
210
0.0
220
0.0
230
1.0
 70
    12
 71
     2
 72
     8
 73
     5
 74
     0
 42
0.0000000001
 43
0.0000000001
 40
0.0
 40
0.0
 40
0.0
 40
0.4242168507724349
 40
0.4242168507724349
 40
0.8484337015449356
 40
0.8484337015449356
 40
0.8484337015449356
 10
1071.586954604511
 20
536.9290214892503
 30
0.0
 41
1.0
 10
1071.586950041093
 20
536.6898218525823
 30
0.0
 41
0.8384587238835641
 10
1071.368352850151
 20
536.5927047360922
 30
0.0
 41
1.0
 10
1071.14975565921
 20
536.4955876196021
 30
0.0
 41
0.8384587238836839
 10
1070.972247908849
 20
536.6559230952923
 30
0.0
 41
1.0
  0
SPLINE
  5
1B3
330
1F
100
AcDbEntity
  8
Linee visibili 2D
100
AcDbSpline
210
0.0
220
0.0
230
1.0
 70
    24
 71
     2
 72
     6
 73
     3
 74
     0
 42
0.0000000001
 43
0.0000000001
 40
0.0
 40
0.0
 40
0.0
 40
1.380069014550031
 40
1.380069014550031
 40
1.380069014550031
 10
1071.586954604511
 20
536.9290214892502
 30
0.0
 10
1071.586954604511
 20
537.6190559965253
 30
0.0
 10
1071.586954604511
 20
538.3090905038002
 30
0.0
  0
SPLINE
  5
1B4
330
1F
100
AcDbEntity
  8
Linee visibili 2D
100
AcDbSpline
210
0.0
220
0.0
230
1.0
 70
    12
 71
     2
 72
     6
 73
     3
 74
     0
 42
0.0000000001
 43
0.0000000001
 40
0.0
 40
0.0
 40
0.0
 40
0.1445207360913156
 40
0.1445207360913156
 40
0.1445207360913156
 10
1071.494949846398
 20
538.4010952619132
 30
0.0
 41
1.0
 10
1071.586954604511
 20
538.4010952619129
 30
0.0
 41
0.7071067811881858
 10
1071.586954604511
 20
538.3090905038002
 30
0.0
 41
1.0
  0
SPLINE
  5
1B5
330
1F
100
AcDbEntity
  8
Linee visibili 2D
100
AcDbSpline
210
0.0
220
0.0
230
1.0
 70
    24
 71
     2
 72
     6
 73
     3
 74
     0
 42
0.0000000001
 43
0.0000000001
 40
0.0
 40
0.0
 40
0.0
 40
0.0920047581128074
 40
0.0920047581128074
 40
0.0920047581128074
 10
1071.402945088285
 20
538.401095261913
 30
0.0
 10
1071.448947467342
 20
538.401095261913
 30
0.0
 10
1071.494949846398
 20
538.4010952619132
 30
0.0
  0
SPLINE
  5
1B6
330
1F
100
AcDbEntity
  8
Linee visibili 2D
100
AcDbSpline
210
0.0
220
0.0
230
1.0
 70
    12
 71
     2
 72
     8
 73
     5
 74
     0
 42
0.0000000001
 43
0.0000000001
 40
0.0
 40
0.0
 40
0.0
 40
0.0722603680456985
 40
0.0722603680456985
 40
0.1445207360914537
 40
0.1445207360914537
 40
0.1445207360914537
 10
1071.402945088285
 20
538.401095261913
 30
0.0
 41
1.0
 10
1071.356942709229
 20
538.401095261913
 30
0.0
 41
0.7071067811863291
 10
1071.356942709229
 20
538.4470976409696
 30
0.0
 41
1.0
 10
1071.356942709229
 20
538.493100020026
 30
0.0
 41
0.707106781188295
 10
1071.402945088285
 20
538.4931000200261
 30
0.0
 41
1.0
  0
SPLINE
  5
1B7
330
1F
100
AcDbEntity
  8
Linee visibili 2D
100
AcDbSpline
210
0.0
220
0.0
230
1.0
 70
    24
 71
     2
 72
     6
 73
     3
 74
     0
 42
0.0000000001
 43
0.0000000001
 40
0.0
 40
0.0
 40
0.0
 40
2.438121768563292
 40
2.438121768563292
 40
2.438121768563292
 10
1071.402945088285
 20
538.493100020026
 30
0.0
 10
1072.622005972567
 20
538.493100020026
 30
0.0
 10
1073.841066856849
 20
538.493100020026
 30
0.0
  0
SPLINE
  5
1B8
330
1F
100
AcDbEntity
  8
Linee visibili 2D
100
AcDbSpline
210
0.0
220
0.0
230
1.0
 70
    12
 71
     2
 72
     8
 73
     5
 74
     0
 42
0.0000000001
 43
0.0000000001
 40
0.0
 40
0.0
 40
0.0
 40
0.0722603680456172
 40
0.0722603680456172
 40
0.1445207360913483
 40
0.1445207360913483
 40
0.1445207360913483
 10
1073.841066856849
 20
538.493100020026
 30
0.0
 41
1.0
 10
1073.887069235905
 20
538.4931000200258
 30
0.0
 41
0.7071067811876397
 10
1073.887069235905
 20
538.4470976409696
 30
0.0
 41
1.0
 10
1073.887069235905
 20
538.4010952619129
 30
0.0
 41
0.7071067811843632
 10
1073.841066856849
 20
538.401095261913
 30
0.0
 41
1.0
  0
SPLINE
  5
1B9
330
1F
100
AcDbEntity
  8
Linee visibili 2D
100
AcDbSpline
210
0.0
220
0.0
230
1.0
 70
    24
 71
     2
 72
     6
 73
     3
 74
     0
 42
0.0000000001
 43
0.0000000001
 40
0.0
 40
0.0
 40
0.0
 40
0.1143850371131521
 40
0.1143850371131521
 40
0.1143850371131521
 10
1073.726681819735
 20
538.4010952619133
 30
0.0
 10
1073.783874338292
 20
538.4010952619132
 30
0.0
 10
1073.841066856849
 20
538.401095261913
 30
0.0
  0
SPLINE
  5
1BA
330
1F
100
AcDbEntity
  8
Linee visibili 2D
100
AcDbSpline
210
0.0
220
0.0
230
1.0
 70
    12
 71
     2
 72
     8
 73
     5
 74
     0
 42
0.0000000001
 43
0.0000000001
 40
0.0
 40
0.0
 40
0.0
 40
0.1294662632072283
 40
0.1294662632072283
 40
0.2589325264145297
 40
0.2589325264145297
 40
0.2589325264145297
 10
1073.595062144936
 20
538.2215894586222
 30
0.0
 41
1.0
 10
1073.574030822946
 20
538.2882916514965
 30
0.0
 41
0.8919937656882974
 10
1073.615386695096
 20
538.3446936982459
 30
0.0
 41
1.0
 10
1073.656742567247
 20
538.4010957449956
 30
0.0
 41
0.8919937656871315
 10
1073.726681819735
 20
538.4010952619133
 30
0.0
 41
1.0
  0
SPLINE
  5
1BB
330
1F
100
AcDbEntity
  8
Linee visibili 2D
100
AcDbSpline
210
0.0
220
0.0
230
1.0
 70
    24
 71
     2
 72
     6
 73
     3
 74
     0
 42
0.0000000001
 43
0.0000000001
 40
0.0
 40
0.0
 40
0.0
 40
0.9694173272643052
 40
0.9694173272643052
 40
0.9694173272643052
 10
1073.886574096043
 20
537.2970405217012
 30
0.0
 10
1073.740818120489
 20
537.7593149901618
 30
0.0
 10
1073.595062144936
 20
538.2215894586222
 30
0.0
  0
SPLINE
  5
1BC
330
1F
100
AcDbEntity
  8
Linee visibili 2D
100
AcDbSpline
210
0.0
220
0.0
230
1.0
 70
    24
 71
     2
 72
     6
 73
     3
 74
     0
 42
0.0000000001
 43
0.0000000001
 40
0.0
 40
0.0
 40
0.0
 40
0.73120796495391
 40
0.73120796495391
 40
0.73120796495391
 10
1073.886574096043
 20
537.2970405217012
 30
0.0
 10
1074.25217807852
 20
537.2970405217012
 30
0.0
 10
1074.617782060997
 20
537.2970405217012
 30
0.0
  0
SPLINE
  5
1BD
330
1F
100
AcDbEntity
  8
Linee visibili 2D
100
AcDbSpline
210
0.0
220
0.0
230
1.0
 70
    24
 71
     2
 72
     6
 73
     3
 74
     0
 42
0.0000000001
 43
0.0000000001
 40
0.0
 40
0.0
 40
0.0
 40
0.5302456266726201
 40
0.5302456266726201
 40
0.5302456266726201
 10
1074.617782060997
 20
537.2970405217012
 30
0.0
 10
1074.69750574707
 20
537.5498927315598
 30
0.0
 10
1074.777229433143
 20
537.8027449414183
 30
0.0
  0
SPLINE
  5
1BE
330
1F
100
AcDbEntity
  8
Linee visibili 2D
100
AcDbSpline
210
0.0
220
0.0
230
1.0
 70
    12
 71
     2
 72
     8
 73
     5
 74
     0
 42
0.0000000001
 43
0.0000000001
 40
0.0
 40
0.0
 40
0.0
 40
0.4315517450831254
 40
0.4315517450831254
 40
0.8631034901663047
 40
0.8631034901663047
 40
0.8631034901663047
 10
1074.338497707619
 20
538.4010952619133
 30
0.0
 41
1.0
 10
1074.571626883926
 20
538.4010952619132
 30
0.0
 41
0.8919956227765232
 10
1074.709479052506
 20
538.2130899628834
 30
0.0
 41
1.0
 10
1074.847331221086
 20
538.0250846638535
 30
0.0
 41
0.891995622776824
 10
1074.777229433143
 20
537.8027449414183
 30
0.0
 41
1.0
  0
SPLINE
  5
1BF
330
1F
100
AcDbEntity
  8
Linee visibili 2D
100
AcDbSpline
210
0.0
220
0.0
230
1.0
 70
    12
 71
     2
 72
     8
 73
     5
 74
     0
 42
0.0000000001
 43
0.0000000001
 40
0.0
 40
0.0
 40
0.0
 40
0.0361301840229965
 40
0.0361301840229965
 40
0.1083905520687071
 40
0.1083905520687071
 40
0.1083905520687071
 10
1074.268561267517
 20
538.4145690467878
 30
0.0
 41
1.0
 10
1074.255087482642
 20
538.4280428316628
 30
0.0
 41
0.9238795325105345
 10
1074.255087482642
 20
538.4470976409696
 30
0.0
 41
1.0
 10
1074.255087482642
 20
538.493100020026
 30
0.0
 41
0.7071067811858922
 10
1074.301089861699
 20
538.4931000200258
 30
0.0
 41
1.0
  0
SPLINE
  5
1C0
330
1F
100
AcDbEntity
  8
Linee visibili 2D
100
AcDbSpline
210
0.0
220
0.0
230
1.0
 70
    24
 71
     2
 72
     6
 73
     3
 74
     0
 42
0.0000000001
 43
0.0000000001
 40
0.0
 40
0.0
 40
0.0
 40
1.196059498324757
 40
1.196059498324757
 40
1.196059498324757
 10
1074.301089861699
 20
538.493100020026
 30
0.0
 10
1074.899119610861
 20
538.4931000200261
 30
0.0
 10
1075.497149360024
 20
538.4931000200261
 30
0.0
  0
SPLINE
  5
1C1
330
1F
100
AcDbEntity
  8
Linee visibili 2D
100
AcDbSpline
210
0.0
220
0.0
230
1.0
 70
    12
 71
     2
 72
     8
 73
     5
 74
     0
 42
0.0000000001
 43
0.0000000001
 40
0.0
 40
0.0
 40
0.0
 40
0.069997888118539
 40
0.069997888118539
 40
0.1399957762370342
 40
0.1399957762370342
 40
0.1399957762370342
 10
1075.497149360024
 20
538.4931000200261
 30
0.0
 41
1.0
 10
1075.54094312621
 20
538.4931000200262
 30
0.0
 41
0.7242796236076828
 10
1075.543096112994
 20
538.4493592083658
 30
0.0
 41
1.0
 10
1075.545249099777
 20
538.4056183967054
 30
0.0
 41
0.724279623606597
 10
1075.501667023633
 20
538.4013176298332
 30
0.0
 41
1.0
  0
SPLINE
  5
1C2
330
1F
100
AcDbEntity
  8
Linee visibili 2D
100
AcDbSpline
210
0.0
220
0.0
230
1.0
 70
    12
 71
     2
 72
     6
 73
     3
 74
     0
 42
0.0000000001
 43
0.0000000001
 40
0.0
 40
0.0
 40
0.0
 40
0.8052703160316407
 40
0.8052703160316407
 40
0.8052703160316407
 10
1074.911335892911
 20
537.9221145484643
 30
0.0
 41
1.0
 10
1075.04832004529
 20
538.3565800539584
 30
0.0
 41
0.834538308996675
 10
1075.501667023633
 20
538.4013176298331
 30
0.0
 41
1.0
  0
SPLINE
  5
1C3
330
1F
100
AcDbEntity
  8
Linee visibili 2D
100
AcDbSpline
210
0.0
220
0.0
230
1.0
 70
    24
 71
     2
 72
     6
 73
     3
 74
     0
 42
0.0000000001
 43
0.0000000001
 40
0.0
 40
0.0
 40
0.0
 40
2.454595543320407
 40
2.454595543320407
 40
2.454595543320407
 10
1074.173227471486
 20
535.5811243221902
 30
0.0
 10
1074.542281682198
 20
536.7516194353273
 30
0.0
 10
1074.911335892911
 20
537.9221145484643
 30
0.0
  0
SPLINE
  5
1C4
330
1F
100
AcDbEntity
  8
Linee visibili 2D
100
AcDbSpline
210
0.0
220
0.0
230
1.0
 70
    24
 71
     2
 72
     6
 73
     3
 74
     0
 42
0.0000000001
 43
0.0000000001
 40
0.0
 40
0.0
 40
0.0
 40
0.6480954484366899
 40
0.6480954484366899
 40
0.6480954484366899
 10
1073.928129473587
 20
537.2050336683507
 30
0.0
 10
1074.252177197801
 20
537.205035305255
 30
0.0
 10
1074.576224922015
 20
537.2050369421595
 30
0.0
  0
SPLINE
  5
1C5
330
1F
100
AcDbEntity
  8
Linee visibili 2D
100
AcDbSpline
210
0.0
220
0.0
230
1.0
 70
    24
 71
     2
 72
     6
 73
     3
 74
     0
 42
0.0000000001
 43
0.0000000001
 40
0.0
 40
0.0
 40
0.0
 40
1.077627594336442
 40
1.077627594336442
 40
1.077627594336442
 10
1074.24340413669
 20
536.1653175930207
 30
0.0
 10
1074.081379291045
 20
536.679193314779
 30
0.0
 10
1073.919354445401
 20
537.1930690365373
 30
0.0
  0
SPLINE
  5
1C6
330
1F
100
AcDbEntity
  8
Linee visibili 2D
100
AcDbSpline
210
0.0
220
0.0
230
1.0
 70
    24
 71
     2
 72
     6
 73
     3
 74
     0
 42
0.0000000001
 43
0.0000000001
 40
0.0
 40
0.0
 40
0.0
 40
1.077626341365545
 40
1.077626341365545
 40
1.077626341365545
 10
1074.26095304447
 20
536.1653177057372
 30
0.0
 10
1074.422976085329
 20
536.6791933396526
 30
0.0
 10
1074.584999126188
 20
537.193068973568
 30
0.0
  0
SPLINE
  5
1C7
330
1F
100
AcDbEntity
  8
Linee visibili 2D
100
AcDbSpline
210
0.0
220
0.0
230
1.0
 70
    24
 71
     2
 72
     6
 73
     3
 74
     0
 42
0.0000000001
 43
0.0000000001
 40
0.0
 40
0.0
 40
0.0
 40
13.60000000000002
 40
13.60000000000002
 40
13.60000000000002
 10
1074.338339089221
 20
540.8443718224653
 30
0.0
 10
1067.538339089221
 20
540.8443718224653
 30
0.0
 10
1060.738339089221
 20
540.8443718224653
 30
0.0
  0
SPLINE
  5
1C8
330
1F
100
AcDbEntity
  8
Linee visibili 2D
100
AcDbSpline
210
0.0
220
0.0
230
1.0
 70
    12
 71
     2
 72
     6
 73
     3
 74
     0
 42
0.0000000001
 43
0.0000000001
 40
0.0
 40
0.0
 40
0.0
 40
2.13549433468276
 40
2.13549433468276
 40
2.13549433468276
 10
1075.638339089221
 20
539.4265697084493
 30
0.0
 41
1.0
 10
1075.694650426541
 20
540.7830962199823
 30
0.0
 41
0.7083995410715687
 10
1074.338339089221
 20
540.8443718224653
 30
0.0
 41
1.0
  0
SPLINE
  5
1C9
330
1F
100
AcDbEntity
  8
Linee visibili 2D
100
AcDbSpline
210
0.0
220
0.0
230
1.0
 70
    24
 71
     2
 72
     6
 73
     3
 74
     0
 42
0.0000000001
 43
0.0000000001
 40
0.0
 40
0.0
 40
0.0
 40
4.638152237700012
 40
4.638152237700012
 40
4.638152237700012
 10
1075.638339089221
 20
534.7884174707492
 30
0.0
 10
1075.638339089221
 20
537.1074935895992
 30
0.0
 10
1075.638339089221
 20
539.4265697084493
 30
0.0
  0
SPLINE
  5
1CA
330
1F
100
AcDbEntity
  8
Linee visibili 2D
100
AcDbSpline
210
0.0
220
0.0
230
1.0
 70
    12
 71
     2
 72
     6
 73
     3
 74
     0
 42
0.0000000001
 43
0.0000000001
 40
0.0
 40
0.0
 40
0.0
 40
2.135494334682898
 40
2.135494334682898
 40
2.135494334682898
 10
1074.338339089221
 20
533.3706153567332
 30
0.0
 41
1.0
 10
1075.694650426541
 20
533.4318909592156
 30
0.0
 41
0.7083995410712899
 10
1075.638339089221
 20
534.7884174707492
 30
0.0
 41
1.0
  0
SPLINE
  5
1CB
330
1F
100
AcDbEntity
  8
Linee visibili 2D
100
AcDbSpline
210
0.0
220
0.0
230
1.0
 70
    24
 71
     2
 72
     6
 73
     3
 74
     0
 42
0.0000000001
 43
0.0000000001
 40
0.0
 40
0.0
 40
0.0
 40
13.60000000000002
 40
13.60000000000002
 40
13.60000000000002
 10
1060.738339089221
 20
533.3706153567332
 30
0.0
 10
1067.538339089221
 20
533.3706153567332
 30
0.0
 10
1074.338339089221
 20
533.3706153567332
 30
0.0
  0
SPLINE
  5
1CC
330
1F
100
AcDbEntity
  8
Linee visibili 2D
100
AcDbSpline
210
0.0
220
0.0
230
1.0
 70
    12
 71
     2
 72
     6
 73
     3
 74
     0
 42
0.0000000001
 43
0.0000000001
 40
0.0
 40
0.0
 40
0.0
 40
2.135494334683176
 40
2.135494334683176
 40
2.135494334683176
 10
1059.438339089221
 20
534.7884174707492
 30
0.0
 41
1.0
 10
1059.3820277519
 20
533.4318909592153
 30
0.0
 41
0.70839954107115
 10
1060.738339089221
 20
533.3706153567332
 30
0.0
 41
1.0
  0
SPLINE
  5
1CD
330
1F
100
AcDbEntity
  8
Linee visibili 2D
100
AcDbSpline
210
0.0
220
0.0
230
1.0
 70
    24
 71
     2
 72
     6
 73
     3
 74
     0
 42
0.0000000001
 43
0.0000000001
 40
0.0
 40
0.0
 40
0.0
 40
4.638152237700012
 40
4.638152237700012
 40
4.638152237700012
 10
1059.438339089221
 20
539.4265697084493
 30
0.0
 10
1059.438339089221
 20
537.1074935895992
 30
0.0
 10
1059.438339089221
 20
534.7884174707492
 30
0.0
  0
SPLINE
  5
1CE
330
1F
100
AcDbEntity
  8
Linee visibili 2D
100
AcDbSpline
210
0.0
220
0.0
230
1.0
 70
    12
 71
     2
 72
     6
 73
     3
 74
     0
 42
0.0000000001
 43
0.0000000001
 40
0.0
 40
0.0
 40
0.0
 40
2.135494334682782
 40
2.135494334682782
 40
2.135494334682782
 10
1060.738339089221
 20
540.8443718224653
 30
0.0
 41
1.0
 10
1059.382027751901
 20
540.7830962199823
 30
0.0
 41
0.708399541071584
 10
1059.438339089221
 20
539.4265697084493
 30
0.0
 41
1.0
  0
ENDSEC
  0
SECTION
  2
OBJECTS
  0
DICTIONARY
  5
C
330
0
100
AcDbDictionary
281
     1
  3
ACAD_GROUP
350
D
  3
ACAD_LAYOUT
350
1A
  3
ACAD_MLEADERSTYLE
350
1D2
  3
ACAD_MLINESTYLE
350
17
  3
ACAD_PLOTSETTINGS
350
19
  3
ACAD_PLOTSTYLENAME
350
E
  3
ACAD_SCALELIST
350
3D
  3
ACAD_TABLESTYLE
350
1D1
  3
ACAD_VISUALSTYLE
350
2A
  3
AcDbVariableDictionary
350
1CF
  0
DICTIONARY
  5
D
102
{ACAD_REACTORS
330
C
102
}
330
C
100
AcDbDictionary
281
     1
  0
DICTIONARY
  5
1A
102
{ACAD_REACTORS
330
C
102
}
330
C
100
AcDbDictionary
281
     1
  3
Layout1
350
1E
  3
Layout2
350
26
  3
Model
350
22
  0
DICTIONARY
  5
1D2
102
{ACAD_REACTORS
330
C
102
}
330
C
100
AcDbDictionary
281
     1
  0
DICTIONARY
  5
17
102
{ACAD_REACTORS
330
C
102
}
330
C
100
AcDbDictionary
281
     1
  3
Standard
350
18
  0
DICTIONARY
  5
19
102
{ACAD_REACTORS
330
C
102
}
330
C
100
AcDbDictionary
281
     1
  0
ACDBDICTIONARYWDFLT
  5
E
102
{ACAD_REACTORS
330
C
102
}
330
C
100
AcDbDictionary
281
     1
  3
Normal
350
F
100
AcDbDictionaryWithDefault
340
F
  0
DICTIONARY
  5
3D
102
{ACAD_REACTORS
330
C
102
}
330
C
100
AcDbDictionary
281
     1
  3
A0
350
3E
  3
A1
350
3F
  3
A2
350
40
  3
A3
350
41
  3
A4
350
42
  3
A5
350
43
  3
A6
350
44
  3
A7
350
45
  3
A8
350
46
  3
A9
350
47
  3
B0
350
48
  3
B1
350
49
  3
B2
350
4A
  3
B3
350
4B
  3
B4
350
4C
  3
B5
350
4D
  3
B6
350
4E
  3
B7
350
4F
  3
B8
350
50
  3
B9
350
51
  3
C0
350
52
  3
C1
350
53
  3
C2
350
54
  3
C3
350
55
  3
C4
350
56
  3
C5
350
57
  3
C6
350
58
  3
C7
350
59
  3
C8
350
5A
  3
C9
350
5B
  3
D0
350
5C
  3
D1
350
5D
  3
D2
350
5E
  0
DICTIONARY
  5
1D1
102
{ACAD_REACTORS
330
C
102
}
330
C
100
AcDbDictionary
281
     1
  0
DICTIONARY
  5
2A
102
{ACAD_REACTORS
330
C
102
}
330
C
100
AcDbDictionary
281
     1
  3
2dWireframe
350
2F
  3
3D Hidden
350
31
  3
3dWireframe
350
30
  3
Basic
350
32
  3
Brighten
350
36
  3
ColorChange
350
3A
  3
Conceptual
350
34
  3
Dim
350
35
  3
Facepattern
350
39
  3
Flat
350
2B
  3
FlatWithEdges
350
2C
  3
Gouraud
350
2D
  3
GouraudWithEdges
350
2E
  3
Linepattern
350
38
  3
Realistic
350
33
  3
Thicken
350
37
  0
DICTIONARY
  5
1CF
102
{ACAD_REACTORS
330
C
102
}
330
C
100
AcDbDictionary
281
     1
  3
CANNOSCALE
350
1D0
  0
LAYOUT
  5
1E
102
{ACAD_REACTORS
330
1A
102
}
330
1A
100
AcDbPlotSettings
  1

  2
none_device
  4

  6

 40
0.0
 41
0.0
 42
0.0
 43
0.0
 44
0.0
 45
0.0
 46
0.0
 47
0.0
 48
0.0
 49
0.0
140
0.0
141
0.0
142
1.0
143
1.0
 70
   688
 72
     0
 73
     0
 74
     5
  7

 75
    16
 76
     0
 77
     2
 78
   300
147
1.0
148
0.0
149
0.0
100
AcDbLayout
  1
Layout1
 70
     1
 71
     1
 10
0.0
 20
0.0
 11
12.0
 21
9.0
 12
0.0
 22
0.0
 32
0.0
 14
1.000000000000000E+20
 24
1.000000000000000E+20
 34
1.000000000000000E+20
 15
-1.000000000000000E+20
 25
-1.000000000000000E+20
 35
-1.000000000000000E+20
146
0.0
 13
0.0
 23
0.0
 33
0.0
 16
1.0
 26
0.0
 36
0.0
 17
0.0
 27
1.0
 37
0.0
 76
     0
330
1B
  0
LAYOUT
  5
26
102
{ACAD_REACTORS
330
1A
102
}
330
1A
100
AcDbPlotSettings
  1

  2
none_device
  4

  6

 40
0.0
 41
0.0
 42
0.0
 43
0.0
 44
0.0
 45
0.0
 46
0.0
 47
0.0
 48
0.0
 49
0.0
140
0.0
141
0.0
142
1.0
143
1.0
 70
   688
 72
     0
 73
     0
 74
     5
  7

 75
    16
 76
     0
 77
     2
 78
   300
147
1.0
148
0.0
149
0.0
100
AcDbLayout
  1
Layout2
 70
     1
 71
     2
 10
0.0
 20
0.0
 11
0.0
 21
0.0
 12
0.0
 22
0.0
 32
0.0
 14
0.0
 24
0.0
 34
0.0
 15
0.0
 25
0.0
 35
0.0
146
0.0
 13
0.0
 23
0.0
 33
0.0
 16
1.0
 26
0.0
 36
0.0
 17
0.0
 27
1.0
 37
0.0
 76
     0
330
23
  0
LAYOUT
  5
22
102
{ACAD_REACTORS
330
1A
102
}
330
1A
100
AcDbPlotSettings
  1

  2
none_device
  4

  6

 40
0.0
 41
0.0
 42
0.0
 43
0.0
 44
0.0
 45
0.0
 46
0.0
 47
0.0
 48
0.0
 49
0.0
140
0.0
141
0.0
142
1.0
143
1.0
 70
  1712
 72
     0
 73
     0
 74
     0
  7

 75
     0
 76
     0
 77
     2
 78
   300
147
1.0
148
0.0
149
0.0
100
AcDbLayout
  1
Model
 70
     1
 71
     0
 10
0.0
 20
0.0
 11
12.0
 21
9.0
 12
0.0
 22
0.0
 32
0.0
 14
970.7568152927961
 24
292.0000000234027
 34
0.0
 15
1588.105860216309
 25
1082.650700477437
 35
0.0
146
0.0
 13
0.0
 23
0.0
 33
0.0
 16
1.0
 26
0.0
 36
0.0
 17
0.0
 27
1.0
 37
0.0
 76
     0
330
1F
331
29
  0
MLINESTYLE
  5
18
102
{ACAD_REACTORS
330
17
102
}
330
17
100
AcDbMlineStyle
  2
Standard
 70
     0
  3

 62
   256
 51
90.0
 52
90.0
 71
     2
 49
0.5
 62
   256
  6
BYLAYER
 49
-0.5
 62
   256
  6
BYLAYER
  0
ACDBPLACEHOLDER
  5
F
102
{ACAD_REACTORS
330
E
102
}
330
E
  0
SCALE
  5
3E
102
{ACAD_REACTORS
330
3D
102
}
330
3D
100
AcDbScale
 70
     0
300
1:1
140
1.0
141
1.0
290
     1
  0
SCALE
  5
3F
102
{ACAD_REACTORS
330
3D
102
}
330
3D
100
AcDbScale
 70
     0
300
1:2
140
1.0
141
2.0
290
     0
  0
SCALE
  5
40
102
{ACAD_REACTORS
330
3D
102
}
330
3D
100
AcDbScale
 70
     0
300
1:4
140
1.0
141
4.0
290
     0
  0
SCALE
  5
41
102
{ACAD_REACTORS
330
3D
102
}
330
3D
100
AcDbScale
 70
     0
300
1:5
140
1.0
141
5.0
290
     0
  0
SCALE
  5
42
102
{ACAD_REACTORS
330
3D
102
}
330
3D
100
AcDbScale
 70
     0
300
1:8
140
1.0
141
8.0
290
     0
  0
SCALE
  5
43
102
{ACAD_REACTORS
330
3D
102
}
330
3D
100
AcDbScale
 70
     0
300
1:10
140
1.0
141
10.0
290
     0
  0
SCALE
  5
44
102
{ACAD_REACTORS
330
3D
102
}
330
3D
100
AcDbScale
 70
     0
300
1:16
140
1.0
141
16.0
290
     0
  0
SCALE
  5
45
102
{ACAD_REACTORS
330
3D
102
}
330
3D
100
AcDbScale
 70
     0
300
1:20
140
1.0
141
20.0
290
     0
  0
SCALE
  5
46
102
{ACAD_REACTORS
330
3D
102
}
330
3D
100
AcDbScale
 70
     0
300
1:30
140
1.0
141
30.0
290
     0
  0
SCALE
  5
47
102
{ACAD_REACTORS
330
3D
102
}
330
3D
100
AcDbScale
 70
     0
300
1:40
140
1.0
141
40.0
290
     0
  0
SCALE
  5
48
102
{ACAD_REACTORS
330
3D
102
}
330
3D
100
AcDbScale
 70
     0
300
1:50
140
1.0
141
50.0
290
     0
  0
SCALE
  5
49
102
{ACAD_REACTORS
330
3D
102
}
330
3D
100
AcDbScale
 70
     0
300
1:100
140
1.0
141
100.0
290
     0
  0
SCALE
  5
4A
102
{ACAD_REACTORS
330
3D
102
}
330
3D
100
AcDbScale
 70
     0
300
2:1
140
2.0
141
1.0
290
     0
  0
SCALE
  5
4B
102
{ACAD_REACTORS
330
3D
102
}
330
3D
100
AcDbScale
 70
     0
300
4:1
140
4.0
141
1.0
290
     0
  0
SCALE
  5
4C
102
{ACAD_REACTORS
330
3D
102
}
330
3D
100
AcDbScale
 70
     0
300
8:1
140
8.0
141
1.0
290
     0
  0
SCALE
  5
4D
102
{ACAD_REACTORS
330
3D
102
}
330
3D
100
AcDbScale
 70
     0
300
10:1
140
10.0
141
1.0
290
     0
  0
SCALE
  5
4E
102
{ACAD_REACTORS
330
3D
102
}
330
3D
100
AcDbScale
 70
     0
300
100:1
140
100.0
141
1.0
290
     0
  0
SCALE
  5
4F
102
{ACAD_REACTORS
330
3D
102
}
330
3D
100
AcDbScale
 70
     0
300
1/128" = 1'-0"
140
0.0078125
141
12.0
290
     0
  0
SCALE
  5
50
102
{ACAD_REACTORS
330
3D
102
}
330
3D
100
AcDbScale
 70
     0
300
1/64" = 1'-0"
140
0.015625
141
12.0
290
     0
  0
SCALE
  5
51
102
{ACAD_REACTORS
330
3D
102
}
330
3D
100
AcDbScale
 70
     0
300
1/32" = 1'-0"
140
0.03125
141
12.0
290
     0
  0
SCALE
  5
52
102
{ACAD_REACTORS
330
3D
102
}
330
3D
100
AcDbScale
 70
     0
300
1/16" = 1'-0"
140
0.0625
141
12.0
290
     0
  0
SCALE
  5
53
102
{ACAD_REACTORS
330
3D
102
}
330
3D
100
AcDbScale
 70
     0
300
3/32" = 1'-0"
140
0.09375
141
12.0
290
     0
  0
SCALE
  5
54
102
{ACAD_REACTORS
330
3D
102
}
330
3D
100
AcDbScale
 70
     0
300
1/8" = 1'-0"
140
0.125
141
12.0
290
     0
  0
SCALE
  5
55
102
{ACAD_REACTORS
330
3D
102
}
330
3D
100
AcDbScale
 70
     0
300
3/16" = 1'-0"
140
0.1875
141
12.0
290
     0
  0
SCALE
  5
56
102
{ACAD_REACTORS
330
3D
102
}
330
3D
100
AcDbScale
 70
     0
300
1/4" = 1'-0"
140
0.25
141
12.0
290
     0
  0
SCALE
  5
57
102
{ACAD_REACTORS
330
3D
102
}
330
3D
100
AcDbScale
 70
     0
300
3/8" = 1'-0"
140
0.375
141
12.0
290
     0
  0
SCALE
  5
58
102
{ACAD_REACTORS
330
3D
102
}
330
3D
100
AcDbScale
 70
     0
300
1/2" = 1'-0"
140
0.5
141
12.0
290
     0
  0
SCALE
  5
59
102
{ACAD_REACTORS
330
3D
102
}
330
3D
100
AcDbScale
 70
     0
300
3/4" = 1'-0"
140
0.75
141
12.0
290
     0
  0
SCALE
  5
5A
102
{ACAD_REACTORS
330
3D
102
}
330
3D
100
AcDbScale
 70
     0
300
1" = 1'-0"
140
1.0
141
12.0
290
     0
  0
SCALE
  5
5B
102
{ACAD_REACTORS
330
3D
102
}
330
3D
100
AcDbScale
 70
     0
300
1-1/2" = 1'-0"
140
1.5
141
12.0
290
     0
  0
SCALE
  5
5C
102
{ACAD_REACTORS
330
3D
102
}
330
3D
100
AcDbScale
 70
     0
300
3" = 1'-0"
140
3.0
141
12.0
290
     0
  0
SCALE
  5
5D
102
{ACAD_REACTORS
330
3D
102
}
330
3D
100
AcDbScale
 70
     0
300
6" = 1'-0"
140
6.0
141
12.0
290
     0
  0
SCALE
  5
5E
102
{ACAD_REACTORS
330
3D
102
}
330
3D
100
AcDbScale
 70
     0
300
1'-0" = 1'-0"
140
12.0
141
12.0
290
     0
  0
VISUALSTYLE
  5
2F
102
{ACAD_REACTORS
330
2A
102
}
330
2A
100
AcDbVisualStyle
  2
2dWireframe
 70
     4
 71
     0
 72
     2
 73
     0
 90
        0
 40
-0.6
 41
-30.0
 62
     5
 63
     7
421
 16777215
 74
     1
 91
        4
 64
     7
 65
   257
 75
     1
175
     1
 42
1.0
 92
        0
 66
   257
 43
1.0
 76
     1
 77
     6
 78
     2
 67
     7
 79
     5
170
     0
171
     0
290
     0
174
     0
 93
        1
 44
0.0
173
     0
291
     0
 45
0.0
1001
ACAD
1000
AcDbSavedByObjectVersion
1070
     0
  0
VISUALSTYLE
  5
31
102
{ACAD_REACTORS
330
2A
102
}
330
2A
100
AcDbVisualStyle
  2
3D Hidden
 70
     6
 71
     1
 72
     2
 73
     2
 90
        0
 40
-0.6
 41
-30.0
 62
     5
 63
     7
421
 16777215
 74
     2
 91
        2
 64
     7
 65
   257
 75
     2
175
     1
 42
40.0
 92
        0
 66
   257
 43
1.0
 76
     1
 77
     6
 78
     2
 67
     7
 79
     3
170
     0
171
     0
290
     0
174
     0
 93
        1
 44
0.0
173
     0
291
     0
 45
0.0
1001
ACAD
1000
AcDbSavedByObjectVersion
1070
     0
  0
VISUALSTYLE
  5
30
102
{ACAD_REACTORS
330
2A
102
}
330
2A
100
AcDbVisualStyle
  2
3dWireframe
 70
     5
 71
     0
 72
     2
 73
     0
 90
        0
 40
-0.6
 41
-30.0
 62
     5
 63
     7
421
 16777215
 74
     1
 91
        4
 64
     7
 65
   257
 75
     1
175
     1
 42
1.0
 92
        0
 66
   257
 43
1.0
 76
     1
 77
     6
 78
     2
 67
     7
 79
     5
170
     0
171
     0
290
     0
174
     0
 93
        1
 44
0.0
173
     0
291
     0
 45
0.0
1001
ACAD
1000
AcDbSavedByObjectVersion
1070
     0
  0
VISUALSTYLE
  5
32
102
{ACAD_REACTORS
330
2A
102
}
330
2A
100
AcDbVisualStyle
  2
Basic
 70
     7
 71
     1
 72
     0
 73
     1
 90
        0
 40
-0.6
 41
-30.0
 62
     5
 63
     7
421
 16777215
 74
     0
 91
        4
 64
     7
 65
   257
 75
     1
175
     1
 42
1.0
 92
        8
 66
     7
 43
1.0
 76
     1
 77
     6
 78
     2
 67
     7
 79
     5
170
     0
171
     0
290
     0
174
     0
 93
        1
 44
0.0
173
     0
291
     1
 45
0.0
1001
ACAD
1000
AcDbSavedByObjectVersion
1070
     0
  0
VISUALSTYLE
  5
36
102
{ACAD_REACTORS
330
2A
102
}
330
2A
100
AcDbVisualStyle
  2
Brighten
 70
    12
 71
     2
 72
     2
 73
     0
 90
        0
 40
-0.6
 41
-30.0
 62
     5
 63
     7
421
 16777215
 74
     1
 91
        4
 64
     7
 65
   257
 75
     1
175
     1
 42
1.0
 92
        8
 66
     7
 43
1.0
 76
     1
 77
     6
 78
     2
 67
     7
 79
     5
170
     0
171
     0
290
     0
174
     0
 93
        1
 44
50.0
173
     0
291
     1
 45
0.0
1001
ACAD
1000
AcDbSavedByObjectVersion
1070
     0
  0
VISUALSTYLE
  5
3A
102
{ACAD_REACTORS
330
2A
102
}
330
2A
100
AcDbVisualStyle
  2
ColorChange
 70
    16
 71
     2
 72
     2
 73
     3
 90
        0
 40
-0.6
 41
-30.0
 62
     5
 63
     8
421
  8421504
 74
     1
 91
        4
 64
     7
 65
   257
 75
     1
175
     1
 42
1.0
 92
        8
 66
     8
424
  8421504
 43
1.0
 76
     1
 77
     6
 78
     2
 67
     7
 79
     5
170
     0
171
     0
290
     0
174
     0
 93
        1
 44
0.0
173
     0
291
     1
 45
0.0
1001
ACAD
1000
AcDbSavedByObjectVersion
1070
     0
  0
VISUALSTYLE
  5
34
102
{ACAD_REACTORS
330
2A
102
}
330
2A
100
AcDbVisualStyle
  2
Conceptual
 70
     9
 71
     3
 72
     2
 73
     0
 90
        0
 40
-0.6
 41
-30.0
 62
     5
 63
     7
421
 16777215
 74
     2
 91
        2
 64
     7
 65
   257
 75
     1
175
     1
 42
40.0
 92
        8
 66
     7
 43
1.0
 76
     1
 77
     6
 78
     2
 67
     7
 79
     3
170
     0
171
     0
290
     0
174
     0
 93
        1
 44
0.0
173
     0
291
     0
 45
0.0
1001
ACAD
1000
AcDbSavedByObjectVersion
1070
     0
  0
VISUALSTYLE
  5
35
102
{ACAD_REACTORS
330
2A
102
}
330
2A
100
AcDbVisualStyle
  2
Dim
 70
    11
 71
     2
 72
     2
 73
     0
 90
        0
 40
-0.6
 41
-30.0
 62
     5
 63
     7
421
 16777215
 74
     1
 91
        4
 64
     7
 65
   257
 75
     1
175
     1
 42
1.0
 92
        8
 66
     7
 43
1.0
 76
     1
 77
     6
 78
     2
 67
     7
 79
     5
170
     0
171
     0
290
     0
174
     0
 93
        1
 44
-50.0
173
     0
291
     1
 45
0.0
1001
ACAD
1000
AcDbSavedByObjectVersion
1070
     0
  0
VISUALSTYLE
  5
39
102
{ACAD_REACTORS
330
2A
102
}
330
2A
100
AcDbVisualStyle
  2
Facepattern
 70
    15
 71
     2
 72
     2
 73
     0
 90
        0
 40
-0.6
 41
-30.0
 62
     5
 63
     7
421
 16777215
 74
     1
 91
        4
 64
     7
 65
   257
 75
     1
175
     1
 42
1.0
 92
        8
 66
     7
 43
1.0
 76
     1
 77
     6
 78
     2
 67
     7
 79
     5
170
     0
171
     0
290
     0
174
     0
 93
        1
 44
0.0
173
     0
291
     1
 45
0.0
1001
ACAD
1000
AcDbSavedByObjectVersion
1070
     0
  0
VISUALSTYLE
  5
2B
102
{ACAD_REACTORS
330
2A
102
}
330
2A
100
AcDbVisualStyle
  2
Flat
 70
     0
 71
     2
 72
     1
 73
     1
 90
        2
 40
-0.6
 41
30.0
 62
     5
 63
     7
421
 16777215
 74
     0
 91
        4
 64
     7
 65
   257
 75
     1
175
     1
 42
1.0
 92
        8
 66
     7
 43
1.0
 76
     1
 77
     6
 78
     2
 67
     7
 79
     5
170
     0
171
     0
290
     0
174
     0
 93
       13
 44
0.0
173
     0
291
     1
 45
0.0
1001
ACAD
1000
AcDbSavedByObjectVersion
1070
     0
  0
VISUALSTYLE
  5
2C
102
{ACAD_REACTORS
330
2A
102
}
330
2A
100
AcDbVisualStyle
  2
FlatWithEdges
 70
     1
 71
     2
 72
     1
 73
     1
 90
        2
 40
-0.6
 41
30.0
 62
     5
 63
     7
421
 16777215
 74
     1
 91
        4
 64
     7
 65
   257
 75
     1
175
     1
 42
1.0
 92
        0
 66
   257
 43
1.0
 76
     1
 77
     6
 78
     2
 67
     7
 79
     5
170
     0
171
     0
290
     0
174
     0
 93
       13
 44
0.0
173
     0
291
     1
 45
0.0
1001
ACAD
1000
AcDbSavedByObjectVersion
1070
     0
  0
VISUALSTYLE
  5
2D
102
{ACAD_REACTORS
330
2A
102
}
330
2A
100
AcDbVisualStyle
  2
Gouraud
 70
     2
 71
     2
 72
     2
 73
     1
 90
        2
 40
-0.6
 41
30.0
 62
     5
 63
     7
421
 16777215
 74
     0
 91
        4
 64
     7
 65
   257
 75
     1
175
     1
 42
1.0
 92
        0
 66
     7
 43
1.0
 76
     1
 77
     6
 78
     2
 67
     7
 79
     5
170
     0
171
     0
290
     0
174
     0
 93
       13
 44
0.0
173
     0
291
     1
 45
0.0
1001
ACAD
1000
AcDbSavedByObjectVersion
1070
     0
  0
VISUALSTYLE
  5
2E
102
{ACAD_REACTORS
330
2A
102
}
330
2A
100
AcDbVisualStyle
  2
GouraudWithEdges
 70
     3
 71
     2
 72
     2
 73
     1
 90
        2
 40
-0.6
 41
30.0
 62
     5
 63
     7
421
 16777215
 74
     1
 91
        4
 64
     7
 65
   257
 75
     1
175
     1
 42
1.0
 92
        0
 66
   257
 43
1.0
 76
     1
 77
     6
 78
     2
 67
     7
 79
     5
170
     0
171
     0
290
     0
174
     0
 93
       13
 44
0.0
173
     0
291
     1
 45
0.0
1001
ACAD
1000
AcDbSavedByObjectVersion
1070
     0
  0
VISUALSTYLE
  5
38
102
{ACAD_REACTORS
330
2A
102
}
330
2A
100
AcDbVisualStyle
  2
Linepattern
 70
    14
 71
     2
 72
     2
 73
     0
 90
        0
 40
-0.6
 41
-30.0
 62
     5
 63
     7
421
 16777215
 74
     1
 91
        4
 64
     7
 65
   257
 75
     7
175
     7
 42
1.0
 92
        8
 66
     7
 43
1.0
 76
     1
 77
     6
 78
     2
 67
     7
 79
     5
170
     0
171
     0
290
     0
174
     0
 93
        1
 44
0.0
173
     0
291
     1
 45
0.0
1001
ACAD
1000
AcDbSavedByObjectVersion
1070
     0
  0
VISUALSTYLE
  5
33
102
{ACAD_REACTORS
330
2A
102
}
330
2A
100
AcDbVisualStyle
  2
Realistic
 70
     8
 71
     2
 72
     2
 73
     0
 90
        0
 40
-0.6
 41
-30.0
 62
     5
 63
     7
421
 16777215
 74
     1
 91
        0
 64
     7
 65
   257
 75
     1
175
     1
 42
1.0
 92
        8
 66
     8
424
  7895160
 43
1.0
 76
     1
 77
     6
 78
     2
 67
     7
 79
     5
170
     0
171
     0
290
     0
174
     0
 93
       13
 44
0.0
173
     0
291
     0
 45
0.0
1001
ACAD
1000
AcDbSavedByObjectVersion
1070
     0
  0
VISUALSTYLE
  5
37
102
{ACAD_REACTORS
330
2A
102
}
330
2A
100
AcDbVisualStyle
  2
Thicken
 70
    13
 71
     2
 72
     2
 73
     0
 90
        0
 40
-0.6
 41
-30.0
 62
     5
 63
     7
421
 16777215
 74
     1
 91
        4
 64
     7
 65
   257
 75
     1
175
     1
 42
1.0
 92
       12
 66
     7
 43
1.0
 76
     1
 77
     6
 78
     2
 67
     7
 79
     5
170
     0
171
     0
290
     0
174
     0
 93
        1
 44
0.0
173
     0
291
     1
 45
0.0
1001
ACAD
1000
AcDbSavedByObjectVersion
1070
     0
  0
DICTIONARYVAR
  5
1D0
102
{ACAD_REACTORS
330
1CF
102
}
330
1CF
100
DictionaryVariables
280
     0
  1
1:1
  0
ENDSEC
  0
EOF
