  0
SECTION
  2
HEADER
  9
$ACADVER
  1
AC1027
  9
$ACADMAINTVER
 70
     8
  9
$DWGCODEPAGE
  3
ANSI_1252
  9
$LASTSAVEDBY
  1
imac
  9
$REQUIREDVERSIONS
160
                 0
  9
$INSBASE
 10
0.0
 20
0.0
 30
0.0
  9
$EXTMIN
 10
4303.105314422006
 20
1285.293728055555
 30
0.0
  9
$EXTMAX
 10
5763.747196694492
 20
2414.888537273596
 30
0.0
  9
$LIMMIN
 10
0.0
 20
0.0
  9
$LIMMAX
 10
12.0
 20
9.0
  9
$ORTHOMODE
 70
     0
  9
$REGENMODE
 70
     1
  9
$FILLMODE
 70
     1
  9
$QTEXTMODE
 70
     0
  9
$MIRRTEXT
 70
     1
  9
$LTSCALE
 40
1.0
  9
$ATTMODE
 70
     1
  9
$TEXTSIZE
 40
0.2
  9
$TRACEWID
 40
0.05
  9
$TEXTSTYLE
  7
Standard
  9
$CLAYER
  8
Predefinito
  9
$CELTYPE
  6
ByLayer
  9
$CECOLOR
 62
   256
  9
$CELTSCALE
 40
1.0
  9
$DISPSILH
 70
     0
  9
$DIMSCALE
 40
1.0
  9
$DIMASZ
 40
0.18
  9
$DIMEXO
 40
0.0625
  9
$DIMDLI
 40
0.38
  9
$DIMRND
 40
0.0
  9
$DIMDLE
 40
0.0
  9
$DIMEXE
 40
0.18
  9
$DIMTP
 40
0.0
  9
$DIMTM
 40
0.0
  9
$DIMTXT
 40
0.18
  9
$DIMCEN
 40
0.09
  9
$DIMTSZ
 40
0.0
  9
$DIMTOL
 70
     0
  9
$DIMLIM
 70
     0
  9
$DIMTIH
 70
     1
  9
$DIMTOH
 70
     1
  9
$DIMSE1
 70
     0
  9
$DIMSE2
 70
     0
  9
$DIMTAD
 70
     0
  9
$DIMZIN
 70
     0
  9
$DIMBLK
  1

  9
$DIMASO
 70
     1
  9
$DIMSHO
 70
     1
  9
$DIMPOST
  1

  9
$DIMAPOST
  1

  9
$DIMALT
 70
     0
  9
$DIMALTD
 70
     2
  9
$DIMALTF
 40
25.4
  9
$DIMLFAC
 40
1.0
  9
$DIMTOFL
 70
     0
  9
$DIMTVP
 40
0.0
  9
$DIMTIX
 70
     0
  9
$DIMSOXD
 70
     0
  9
$DIMSAH
 70
     0
  9
$DIMBLK1
  1

  9
$DIMBLK2
  1

  9
$DIMSTYLE
  2
Standard
  9
$DIMCLRD
 70
     0
  9
$DIMCLRE
 70
     0
  9
$DIMCLRT
 70
     0
  9
$DIMTFAC
 40
1.0
  9
$DIMGAP
 40
0.09
  9
$DIMJUST
 70
     0
  9
$DIMSD1
 70
     0
  9
$DIMSD2
 70
     0
  9
$DIMTOLJ
 70
     1
  9
$DIMTZIN
 70
     0
  9
$DIMALTZ
 70
     0
  9
$DIMALTTZ
 70
     0
  9
$DIMUPT
 70
     0
  9
$DIMDEC
 70
     4
  9
$DIMTDEC
 70
     4
  9
$DIMALTU
 70
     2
  9
$DIMALTTD
 70
     2
  9
$DIMTXSTY
  7
Standard
  9
$DIMAUNIT
 70
     0
  9
$DIMADEC
 70
     0
  9
$DIMALTRND
 40
0.0
  9
$DIMAZIN
 70
     0
  9
$DIMDSEP
 70
    46
  9
$DIMATFIT
 70
     3
  9
$DIMFRAC
 70
     0
  9
$DIMLDRBLK
  1

  9
$DIMLUNIT
 70
     2
  9
$DIMLWD
 70
    -2
  9
$DIMLWE
 70
    -2
  9
$DIMTMOVE
 70
     2
  9
$DIMFXL
 40
1.0
  9
$DIMFXLON
 70
     0
  9
$DIMJOGANG
 40
0.7853981633974483
  9
$DIMTFILL
 70
     0
  9
$DIMTFILLCLR
 70
     0
  9
$DIMARCSYM
 70
     0
  9
$DIMLTYPE
  6

  9
$DIMLTEX1
  6

  9
$DIMLTEX2
  6

  9
$DIMTXTDIRECTION
 70
     0
  9
$LUNITS
 70
     2
  9
$LUPREC
 70
     3
  9
$SKETCHINC
 40
0.1
  9
$FILLETRAD
 40
0.5
  9
$AUNITS
 70
     0
  9
$AUPREC
 70
     0
  9
$MENU
  1
.
  9
$ELEVATION
 40
0.0
  9
$PELEVATION
 40
0.0
  9
$THICKNESS
 40
0.0
  9
$LIMCHECK
 70
     0
  9
$CHAMFERA
 40
0.5
  9
$CHAMFERB
 40
0.5
  9
$CHAMFERC
 40
1.0
  9
$CHAMFERD
 40
0.0
  9
$SKPOLY
 70
     0
  9
$TDCREATE
 40
2456728.774513762
  9
$TDUCREATE
 40
2456728.732847095
  9
$TDUPDATE
 40
2457434.717437894
  9
$TDUUPDATE
 40
2457434.675771227
  9
$TDINDWG
 40
0.0002092014
  9
$TDUSRTIMER
 40
0.0002092014
  9
$USRTIMER
 70
     1
  9
$ANGBASE
 50
0.0
  9
$ANGDIR
 70
     0
  9
$PDMODE
 70
     0
  9
$PDSIZE
 40
0.0
  9
$PLINEWID
 40
0.0
  9
$SPLFRAME
 70
     0
  9
$SPLINETYPE
 70
     6
  9
$SPLINESEGS
 70
     8
  9
$HANDSEED
  5
2D2
  9
$SURFTAB1
 70
     6
  9
$SURFTAB2
 70
     6
  9
$SURFTYPE
 70
     6
  9
$SURFU
 70
     6
  9
$SURFV
 70
     6
  9
$UCSBASE
  2

  9
$UCSNAME
  2

  9
$UCSORG
 10
0.0
 20
0.0
 30
0.0
  9
$UCSXDIR
 10
1.0
 20
0.0
 30
0.0
  9
$UCSYDIR
 10
0.0
 20
1.0
 30
0.0
  9
$UCSORTHOREF
  2

  9
$UCSORTHOVIEW
 70
     0
  9
$UCSORGTOP
 10
0.0
 20
0.0
 30
0.0
  9
$UCSORGBOTTOM
 10
0.0
 20
0.0
 30
0.0
  9
$UCSORGLEFT
 10
0.0
 20
0.0
 30
0.0
  9
$UCSORGRIGHT
 10
0.0
 20
0.0
 30
0.0
  9
$UCSORGFRONT
 10
0.0
 20
0.0
 30
0.0
  9
$UCSORGBACK
 10
0.0
 20
0.0
 30
0.0
  9
$PUCSBASE
  2

  9
$PUCSNAME
  2

  9
$PUCSORG
 10
0.0
 20
0.0
 30
0.0
  9
$PUCSXDIR
 10
1.0
 20
0.0
 30
0.0
  9
$PUCSYDIR
 10
0.0
 20
1.0
 30
0.0
  9
$PUCSORTHOREF
  2

  9
$PUCSORTHOVIEW
 70
     0
  9
$PUCSORGTOP
 10
0.0
 20
0.0
 30
0.0
  9
$PUCSORGBOTTOM
 10
0.0
 20
0.0
 30
0.0
  9
$PUCSORGLEFT
 10
0.0
 20
0.0
 30
0.0
  9
$PUCSORGRIGHT
 10
0.0
 20
0.0
 30
0.0
  9
$PUCSORGFRONT
 10
0.0
 20
0.0
 30
0.0
  9
$PUCSORGBACK
 10
0.0
 20
0.0
 30
0.0
  9
$USERI1
 70
     0
  9
$USERI2
 70
     0
  9
$USERI3
 70
     0
  9
$USERI4
 70
     0
  9
$USERI5
 70
     0
  9
$USERR1
 40
0.0
  9
$USERR2
 40
0.0
  9
$USERR3
 40
0.0
  9
$USERR4
 40
0.0
  9
$USERR5
 40
0.0
  9
$WORLDVIEW
 70
     1
  9
$SHADEDGE
 70
     3
  9
$SHADEDIF
 70
    70
  9
$TILEMODE
 70
     1
  9
$MAXACTVP
 70
    64
  9
$PINSBASE
 10
0.0
 20
0.0
 30
0.0
  9
$PLIMCHECK
 70
     0
  9
$PEXTMIN
 10
1.000000000000000E+20
 20
1.000000000000000E+20
 30
1.000000000000000E+20
  9
$PEXTMAX
 10
-1.000000000000000E+20
 20
-1.000000000000000E+20
 30
-1.000000000000000E+20
  9
$PLIMMIN
 10
0.0
 20
0.0
  9
$PLIMMAX
 10
12.0
 20
9.0
  9
$UNITMODE
 70
     0
  9
$VISRETAIN
 70
     1
  9
$PLINEGEN
 70
     0
  9
$PSLTSCALE
 70
     1
  9
$TREEDEPTH
 70
  3020
  9
$CMLSTYLE
  2
Standard
  9
$CMLJUST
 70
     0
  9
$CMLSCALE
 40
1.0
  9
$PROXYGRAPHICS
 70
     1
  9
$MEASUREMENT
 70
     0
  9
$CELWEIGHT
370
    -1
  9
$ENDCAPS
280
     0
  9
$JOINSTYLE
280
     0
  9
$LWDISPLAY
290
     0
  9
$INSUNITS
 70
     4
  9
$HYPERLINKBASE
  1

  9
$STYLESHEET
  1

  9
$XEDIT
290
     1
  9
$CEPSNTYPE
380
     0
  9
$PSTYLEMODE
290
     1
  9
$FINGERPRINTGUID
  2
{9B7373C0-30D0-4078-80F8-88C3FDB981E3}
  9
$VERSIONGUID
  2
{6AA92460-198B-6740-ACFB-68E2BE5EE46D}
  9
$EXTNAMES
290
     1
  9
$PSVPSCALE
 40
0.0
  9
$OLESTARTUP
290
     0
  9
$SORTENTS
280
   127
  9
$INDEXCTL
280
     0
  9
$HIDETEXT
280
     1
  9
$XCLIPFRAME
280
     0
  9
$HALOGAP
280
     0
  9
$OBSCOLOR
 70
   257
  9
$OBSLTYPE
280
     0
  9
$INTERSECTIONDISPLAY
280
     0
  9
$INTERSECTIONCOLOR
 70
   257
  9
$DIMASSOC
280
     2
  9
$PROJECTNAME
  1

  9
$CAMERADISPLAY
290
     0
  9
$LENSLENGTH
 40
50.0
  9
$CAMERAHEIGHT
 40
0.0
  9
$STEPSPERSEC
 40
2.0
  9
$STEPSIZE
 40
6.0
  9
$3DDWFPREC
 40
2.0
  9
$PSOLWIDTH
 40
0.25
  9
$PSOLHEIGHT
 40
4.0
  9
$LOFTANG1
 40
1.570796326794896
  9
$LOFTANG2
 40
1.570796326794896
  9
$LOFTMAG1
 40
0.0
  9
$LOFTMAG2
 40
0.0
  9
$LOFTPARAM
 70
     7
  9
$LOFTNORMALS
280
     1
  9
$LATITUDE
 40
37.795
  9
$LONGITUDE
 40
-122.394
  9
$NORTHDIRECTION
 40
0.0
  9
$TIMEZONE
 70
 -8000
  9
$LIGHTGLYPHDISPLAY
280
     1
  9
$TILEMODELIGHTSYNCH
280
     1
  9
$CMATERIAL
347
288
  9
$SOLIDHIST
280
     0
  9
$SHOWHIST
280
     1
  9
$DWFFRAME
280
     2
  9
$DGNFRAME
280
     0
  9
$REALWORLDSCALE
290
     1
  9
$INTERFERECOLOR
 62
     1
  9
$INTERFEREOBJVS
345
33
  9
$INTERFEREVPVS
346
2A0
  9
$CSHADOW
280
     0
  9
$SHADOWPLANELOCATION
 40
0.0
  0
ENDSEC
  0
SECTION
  2
CLASSES
  0
CLASS
  1
ACDBDICTIONARYWDFLT
  2
AcDbDictionaryWithDefault
  3
ObjectDBX Classes
 90
        0
 91
        1
280
     0
281
     0
  0
CLASS
  1
VISUALSTYLE
  2
AcDbVisualStyle
  3
ObjectDBX Classes
 90
     4095
 91
       26
280
     0
281
     0
  0
CLASS
  1
SCALE
  2
AcDbScale
  3
ObjectDBX Classes
 90
     1153
 91
       33
280
     0
281
     0
  0
CLASS
  1
DICTIONARYVAR
  2
AcDbDictionaryVar
  3
ObjectDBX Classes
 90
        0
 91
        9
280
     0
281
     0
  0
CLASS
  1
MATERIAL
  2
AcDbMaterial
  3
ObjectDBX Classes
 90
     1153
 91
        3
280
     0
281
     0
  0
CLASS
  1
TABLESTYLE
  2
AcDbTableStyle
  3
ObjectDBX Classes
 90
     4095
 91
        1
280
     0
281
     0
  0
CLASS
  1
MLEADERSTYLE
  2
AcDbMLeaderStyle
  3
ACDB_MLEADERSTYLE_CLASS
 90
     4095
 91
        1
280
     0
281
     0
  0
CLASS
  1
ACDBSECTIONVIEWSTYLE
  2
AcDbSectionViewStyle
  3
ObjectDBX Classes
 90
     1025
 91
        1
280
     0
281
     0
  0
CLASS
  1
ACDBDETAILVIEWSTYLE
  2
AcDbDetailViewStyle
  3
ObjectDBX Classes
 90
     1025
 91
        1
280
     0
281
     0
  0
CLASS
  1
CELLSTYLEMAP
  2
AcDbCellStyleMap
  3
ObjectDBX Classes
 90
     1152
 91
        1
280
     0
281
     0
  0
ENDSEC
  0
SECTION
  2
TABLES
  0
TABLE
  2
VPORT
  5
8
330
0
100
AcDbSymbolTable
 70
     1
  0
VPORT
  5
29
330
8
100
AcDbSymbolTableRecord
100
AcDbViewportTableRecord
  2
*Active
 70
     0
 10
0.0
 20
0.0
 11
1.0
 21
1.0
 12
5371.003451276594
 22
1575.112652736339
 13
0.0
 23
0.0
 14
0.5
 24
0.5
 15
0.5
 25
0.5
 16
0.0
 26
0.0
 36
1.0
 17
0.0
 27
0.0
 37
0.0
 40
2260.739360316036
 41
1.655310621242485
 42
50.0
 43
0.0
 44
0.0
 50
0.0
 51
0.0
 71
     0
 72
   100
 73
     1
 74
     3
 75
     0
 76
     0
 77
     0
 78
     0
281
     0
 65
     1
110
0.0
120
0.0
130
0.0
111
1.0
121
0.0
131
0.0
112
0.0
122
1.0
132
0.0
 79
     0
146
0.0
348
2F
 60
     3
 61
     5
292
     1
282
     1
141
0.0
142
0.0
 63
   250
421
  3355443
1001
ACAD_NAV_VCDISPLAY
1070
     3
  0
ENDTAB
  0
TABLE
  2
LTYPE
  5
5
330
0
100
AcDbSymbolTable
 70
     2
  0
LTYPE
  5
14
330
5
100
AcDbSymbolTableRecord
100
AcDbLinetypeTableRecord
  2
ByBlock
 70
     0
  3

 72
    65
 73
     0
 40
0.0
  0
LTYPE
  5
15
330
5
100
AcDbSymbolTableRecord
100
AcDbLinetypeTableRecord
  2
ByLayer
 70
     0
  3

 72
    65
 73
     0
 40
0.0
  0
LTYPE
  5
16
330
5
100
AcDbSymbolTableRecord
100
AcDbLinetypeTableRecord
  2
Continuous
 70
     0
  3
Solid line
 72
    65
 73
     0
 40
0.0
  0
LTYPE
  5
2AE
330
5
100
AcDbSymbolTableRecord
100
AcDbLinetypeTableRecord
  2
PHANTOM2
 70
     0
  3
Phantom (.5x) ___ _ _ ___ _ _ ___ _ _ ___ _ _
 72
    65
 73
     6
 40
1.25
 49
0.625
 74
     0
 49
-0.125
 74
     0
 49
0.125
 74
     0
 49
-0.125
 74
     0
 49
0.125
 74
     0
 49
-0.125
 74
     0
  0
ENDTAB
  0
TABLE
  2
LAYER
  5
2
102
{ACAD_XDICTIONARY
360
2C0
102
}
330
0
100
AcDbSymbolTable
 70
     4
  0
LAYER
  5
10
102
{ACAD_XDICTIONARY
360
2B7
102
}
330
2
100
AcDbSymbolTableRecord
100
AcDbLayerTableRecord
  2
0
 70
     0
 62
     7
  6
Continuous
370
    -3
390
F
347
298
348
0
  0
LAYER
  5
3B
102
{ACAD_XDICTIONARY
360
2B9
102
}
330
2
100
AcDbSymbolTableRecord
100
AcDbLayerTableRecord
  2
Predefinito
 70
     0
 62
     7
  6
Continuous
370
    -3
390
F
347
298
348
0
  0
LAYER
  5
61
330
2
100
AcDbSymbolTableRecord
100
AcDbLayerTableRecord
  2
Defpoints
 70
     0
 62
     7
  6
Continuous
290
     0
370
    -3
390
F
347
298
348
0
  0
LAYER
  5
88
102
{ACAD_XDICTIONARY
360
2BB
102
}
330
2
100
AcDbSymbolTableRecord
100
AcDbLayerTableRecord
  2
Linee visibili 2D
 70
     0
 62
     7
  6
Continuous
370
    -3
390
F
347
298
348
0
  0
ENDTAB
  0
TABLE
  2
STYLE
  5
3
330
0
100
AcDbSymbolTable
 70
     2
  0
STYLE
  5
11
330
3
100
AcDbSymbolTableRecord
100
AcDbTextStyleTableRecord
  2
Standard
 70
     0
 40
0.0
 41
1.0
 50
0.0
 71
     0
 42
0.2
  3
txt
  4

  0
STYLE
  5
5F
330
3
100
AcDbSymbolTableRecord
100
AcDbTextStyleTableRecord
  2
Arial
 70
     0
 40
0.0
 41
1.0
 50
0.0
 71
     0
 42
0.0
  3
ARIAL.TTF
  4

1001
ACAD
1000
Arial
1071
      256
  0
ENDTAB
  0
TABLE
  2
VIEW
  5
6
330
0
100
AcDbSymbolTable
 70
     1
  0
ENDTAB
  0
TABLE
  2
UCS
  5
7
330
0
100
AcDbSymbolTable
 70
     0
  0
ENDTAB
  0
TABLE
  2
APPID
  5
9
330
0
100
AcDbSymbolTable
 70
     2
  0
APPID
  5
12
330
9
100
AcDbSymbolTableRecord
100
AcDbRegAppTableRecord
  2
ACAD
 70
     0
  0
APPID
  5
2CE
330
9
100
AcDbSymbolTableRecord
100
AcDbRegAppTableRecord
  2
ACAD_NAV_VCDISPLAY
 70
     0
  0
ENDTAB
  0
TABLE
  2
DIMSTYLE
  5
A
330
0
100
AcDbSymbolTable
 70
     2
100
AcDbDimStyleTable
 71
     0
  0
DIMSTYLE
105
27
330
A
100
AcDbSymbolTableRecord
100
AcDbDimStyleTableRecord
  2
Standard
 70
     0
340
11
  0
DIMSTYLE
105
60
102
{ACAD_REACTORS
330
3C
330
6E
330
7B
102
}
330
A
100
AcDbSymbolTableRecord
100
AcDbDimStyleTableRecord
  2
Stile di quota 01
 70
     0
 41
10.0
 42
10.0
 44
2.0
 73
     0
 77
     1
 78
     1
140
10.0
141
2.0
172
     1
174
     1
179
     2
271
     2
284
     1
340
5F
  0
ENDTAB
  0
TABLE
  2
BLOCK_RECORD
  5
1
330
0
100
AcDbSymbolTable
 70
     4
  0
BLOCK_RECORD
  5
1F
330
1
100
AcDbSymbolTableRecord
100
AcDbBlockTableRecord
  2
*Model_Space
340
22
 70
     0
280
     1
281
     0
  0
BLOCK_RECORD
  5
1B
330
1
100
AcDbSymbolTableRecord
100
AcDbBlockTableRecord
  2
*Paper_Space
340
1E
 70
     0
280
     1
281
     0
  0
BLOCK_RECORD
  5
23
330
1
100
AcDbSymbolTableRecord
100
AcDbBlockTableRecord
  2
*Paper_Space0
340
26
 70
     0
280
     1
281
     0
  0
BLOCK_RECORD
  5
62
330
1
100
AcDbSymbolTableRecord
100
AcDbBlockTableRecord
  2
*D1
340
0
 70
     0
280
     1
281
     0
  0
BLOCK_RECORD
  5
6F
330
1
100
AcDbSymbolTableRecord
100
AcDbBlockTableRecord
  2
*D2
340
0
 70
     0
280
     1
281
     0
  0
BLOCK_RECORD
  5
7C
330
1
100
AcDbSymbolTableRecord
100
AcDbBlockTableRecord
  2
*D3
340
0
 70
     0
280
     1
281
     0
  0
ENDTAB
  0
ENDSEC
  0
SECTION
  2
BLOCKS
  0
BLOCK
  5
20
330
1F
100
AcDbEntity
  8
0
100
AcDbBlockBegin
  2
*Model_Space
 70
     0
 10
0.0
 20
0.0
 30
0.0
  3
*Model_Space
  1

  0
ENDBLK
  5
21
330
1F
100
AcDbEntity
  8
0
100
AcDbBlockEnd
  0
BLOCK
  5
1C
330
1B
100
AcDbEntity
 67
     1
  8
0
100
AcDbBlockBegin
  2
*Paper_Space
 70
     0
 10
0.0
 20
0.0
 30
0.0
  3
*Paper_Space
  1

  0
ENDBLK
  5
1D
330
1B
100
AcDbEntity
 67
     1
  8
0
100
AcDbBlockEnd
  0
BLOCK
  5
24
330
23
100
AcDbEntity
 67
     1
  8
0
100
AcDbBlockBegin
  2
*Paper_Space0
 70
     0
 10
0.0
 20
0.0
 30
0.0
  3
*Paper_Space0
  1

  0
ENDBLK
  5
25
330
23
100
AcDbEntity
 67
     1
  8
0
100
AcDbBlockEnd
  0
BLOCK
  5
6C
330
62
100
AcDbEntity
  8
0
100
AcDbBlockBegin
  2
*D1
 70
     1
 10
0.0
 20
0.0
 30
0.0
  3
*D1
  1

  0
LINE
  5
63
330
62
100
AcDbEntity
  8
Predefinito
 62
     0
440
 16777216
370
    -2
100
AcDbLine
 10
4429.629205277777
 20
1385.293739722222
 30
0.0
 11
4314.014027397895
 21
1385.293739722222
 31
0.0
  0
LINE
  5
64
330
62
100
AcDbEntity
  8
Predefinito
 62
     0
440
 16777216
370
    -2
100
AcDbLine
 10
4429.629205277777
 20
1285.293728055555
 30
0.0
 11
4314.014027397895
 21
1285.293728055555
 31
0.0
  0
LINE
  5
65
330
62
100
AcDbEntity
  8
Predefinito
 62
     0
440
 16777216
370
    -2
100
AcDbLine
 10
4316.014027397896
 20
1375.293739722222
 30
0.0
 11
4316.014027397896
 21
1295.293728055555
 31
0.0
  0
SOLID
  5
66
330
62
100
AcDbEntity
  8
Predefinito
 62
     0
440
 16777216
100
AcDbTrace
 10
4317.680694064562
 20
1375.293739722222
 30
0.0
 11
4314.347360731228
 21
1375.293739722222
 31
0.0
 12
4316.014027397896
 22
1385.293739722222
 32
0.0
 13
4316.014027397896
 23
1385.293739722222
 33
0.0
  0
SOLID
  5
67
330
62
100
AcDbEntity
  8
Predefinito
 62
     0
440
 16777216
100
AcDbTrace
 10
4314.347360731228
 20
1295.293728055555
 30
0.0
 11
4317.680694064562
 21
1295.293728055555
 31
0.0
 12
4316.014027397896
 22
1285.293728055555
 32
0.0
 13
4316.014027397896
 23
1285.293728055555
 33
0.0
  0
MTEXT
  5
68
330
62
100
AcDbEntity
  8
Predefinito
 62
     0
440
 16777216
100
AcDbMText
 10
4310.819027397896
 20
1335.293733888889
 30
0.0
 40
10.0
 41
0.0
 46
0.0
 71
     5
 72
     1
  1
\A1;100.00
  7
Arial
 11
0.0
 21
1.0
 31
0.0
 73
     1
 44
1.0
  0
POINT
  5
69
330
62
100
AcDbEntity
  8
Defpoints
 62
     0
440
 16777216
100
AcDbPoint
 10
4439.629205277777
 20
1385.293739722222
 30
0.0
  0
POINT
  5
6A
330
62
100
AcDbEntity
  8
Defpoints
 62
     0
440
 16777216
100
AcDbPoint
 10
4439.629205277777
 20
1285.293728055555
 30
0.0
  0
POINT
  5
6B
330
62
100
AcDbEntity
  8
Defpoints
 62
     0
440
 16777216
100
AcDbPoint
 10
4316.014027397896
 20
1285.293728055555
 30
0.0
  0
ENDBLK
  5
6D
330
62
100
AcDbEntity
  8
0
100
AcDbBlockEnd
  0
BLOCK
  5
79
330
6F
100
AcDbEntity
  8
0
100
AcDbBlockBegin
  2
*D2
 70
     1
 10
0.0
 20
0.0
 30
0.0
  3
*D2
  1

  0
LINE
  5
70
330
6F
100
AcDbEntity
  8
Predefinito
 62
     0
440
 16777216
370
    -2
100
AcDbLine
 10
4390.129191388888
 20
2287.937581388889
 30
0.0
 11
4390.129191388888
 21
2403.979824297704
 31
0.0
  0
LINE
  5
71
330
6F
100
AcDbEntity
  8
Predefinito
 62
     0
440
 16777216
370
    -2
100
AcDbLine
 10
5237.652155555555
 20
2287.437589444444
 30
0.0
 11
5237.652155555555
 21
2403.979824297704
 31
0.0
  0
LINE
  5
72
330
6F
100
AcDbEntity
  8
Predefinito
 62
     0
440
 16777216
370
    -2
100
AcDbLine
 10
4400.129191388888
 20
2401.979824297704
 30
0.0
 11
5227.652155555555
 21
2401.979824297704
 31
0.0
  0
SOLID
  5
73
330
6F
100
AcDbEntity
  8
Predefinito
 62
     0
440
 16777216
100
AcDbTrace
 10
4400.129191388888
 20
2403.646490964371
 30
0.0
 11
4400.129191388888
 21
2400.313157631038
 31
0.0
 12
4390.129191388888
 22
2401.979824297704
 32
0.0
 13
4390.129191388888
 23
2401.979824297704
 33
0.0
  0
SOLID
  5
74
330
6F
100
AcDbEntity
  8
Predefinito
 62
     0
440
 16777216
100
AcDbTrace
 10
5227.652155555555
 20
2400.313157631038
 30
0.0
 11
5227.652155555555
 21
2403.646490964371
 31
0.0
 12
5237.652155555555
 22
2401.979824297704
 32
0.0
 13
5237.652155555555
 23
2401.979824297704
 33
0.0
  0
MTEXT
  5
75
330
6F
100
AcDbEntity
  8
Predefinito
 62
     0
440
 16777216
100
AcDbMText
 10
4813.890673472222
 20
2407.174824297704
 30
0.0
 40
10.0
 41
0.0
 46
0.0
 71
     5
 72
     1
  1
\A1;847.52
  7
Arial
 73
     1
 44
1.0
  0
POINT
  5
76
330
6F
100
AcDbEntity
  8
Defpoints
 62
     0
440
 16777216
100
AcDbPoint
 10
4390.129191388888
 20
2277.937581388889
 30
0.0
  0
POINT
  5
77
330
6F
100
AcDbEntity
  8
Defpoints
 62
     0
440
 16777216
100
AcDbPoint
 10
5237.652155555555
 20
2277.437589444444
 30
0.0
  0
POINT
  5
78
330
6F
100
AcDbEntity
  8
Defpoints
 62
     0
440
 16777216
100
AcDbPoint
 10
5237.652155555555
 20
2401.979824297704
 30
0.0
  0
ENDBLK
  5
7A
330
6F
100
AcDbEntity
  8
0
100
AcDbBlockEnd
  0
BLOCK
  5
86
330
7C
100
AcDbEntity
  8
0
100
AcDbBlockBegin
  2
*D3
 70
     1
 10
0.0
 20
0.0
 30
0.0
  3
*D3
  1

  0
LINE
  5
7D
330
7C
100
AcDbEntity
  8
Predefinito
 62
     0
440
 16777216
370
    -2
100
AcDbLine
 10
5586.782336944445
 20
2307.3280625
 30
0.0
 11
5763.05024399249
 21
2307.3280625
 31
0.0
  0
LINE
  5
7E
330
7C
100
AcDbEntity
  8
Predefinito
 62
     0
440
 16777216
370
    -2
100
AcDbLine
 10
5622.581590833332
 20
1680.920529722222
 30
0.0
 11
5763.05024399249
 21
1680.920529722222
 31
0.0
  0
LINE
  5
7F
330
7C
100
AcDbEntity
  8
Predefinito
 62
     0
440
 16777216
370
    -2
100
AcDbLine
 10
5761.050243992491
 20
2297.3280625
 30
0.0
 11
5761.050243992491
 21
1690.920529722222
 31
0.0
  0
SOLID
  5
80
330
7C
100
AcDbEntity
  8
Predefinito
 62
     0
440
 16777216
100
AcDbTrace
 10
5762.716910659158
 20
2297.3280625
 30
0.0
 11
5759.383577325824
 21
2297.3280625
 31
0.0
 12
5761.050243992491
 22
2307.3280625
 32
0.0
 13
5761.050243992491
 23
2307.3280625
 33
0.0
  0
SOLID
  5
81
330
7C
100
AcDbEntity
  8
Predefinito
 62
     0
440
 16777216
100
AcDbTrace
 10
5759.383577325824
 20
1690.920529722222
 30
0.0
 11
5762.716910659158
 21
1690.920529722222
 31
0.0
 12
5761.050243992491
 22
1680.920529722222
 32
0.0
 13
5761.050243992491
 23
1680.920529722222
 33
0.0
  0
MTEXT
  5
82
330
7C
100
AcDbEntity
  8
Predefinito
 62
     0
440
 16777216
100
AcDbMText
 10
5755.855243992491
 20
1994.124296111111
 30
0.0
 40
10.0
 41
0.0
 46
0.0
 71
     5
 72
     1
  1
\A1;626.41
  7
Arial
 11
0.0
 21
1.0
 31
0.0
 73
     1
 44
1.0
  0
POINT
  5
83
330
7C
100
AcDbEntity
  8
Defpoints
 62
     0
440
 16777216
100
AcDbPoint
 10
5576.782336944444
 20
2307.3280625
 30
0.0
  0
POINT
  5
84
330
7C
100
AcDbEntity
  8
Defpoints
 62
     0
440
 16777216
100
AcDbPoint
 10
5612.581590833332
 20
1680.920529722222
 30
0.0
  0
POINT
  5
85
330
7C
100
AcDbEntity
  8
Defpoints
 62
     0
440
 16777216
100
AcDbPoint
 10
5761.050243992491
 20
1680.920529722222
 30
0.0
  0
ENDBLK
  5
87
330
7C
100
AcDbEntity
  8
0
100
AcDbBlockEnd
  0
ENDSEC
  0
SECTION
  2
ENTITIES
  0
DIMENSION
  5
3C
330
1F
100
AcDbEntity
  8
Predefinito
100
AcDbDimension
280
     0
  2
*D1
 10
4316.014027397896
 20
1285.293728055555
 30
0.0
 11
4310.819027397896
 21
1335.293733888889
 31
0.0
 70
    32
  1
<>
 71
     5
 42
100.0000116666665
 73
     0
 74
     0
 75
     0
  3
Stile di quota 01
100
AcDbAlignedDimension
 13
4439.629205277777
 23
1385.293739722222
 33
0.0
 14
4439.629205277777
 24
1285.293728055555
 34
0.0
 50
90.0
100
AcDbRotatedDimension
1001
ACAD
1000
DSTYLE
1002
{
1070
   279
1070
     1
1002
}
  0
DIMENSION
  5
6E
330
1F
100
AcDbEntity
  8
Predefinito
100
AcDbDimension
280
     0
  2
*D2
 10
5237.652155555555
 20
2401.979824297704
 30
0.0
 11
4813.890673472222
 21
2407.174824297704
 31
0.0
 70
    32
  1
<>
 71
     5
 42
847.5229641666674
 73
     0
 74
     0
 75
     0
  3
Stile di quota 01
100
AcDbAlignedDimension
 13
4390.129191388888
 23
2277.937581388889
 33
0.0
 14
5237.652155555555
 24
2277.437589444444
 34
0.0
100
AcDbRotatedDimension
1001
ACAD
1000
DSTYLE
1002
{
1070
   279
1070
     1
1002
}
  0
DIMENSION
  5
7B
330
1F
100
AcDbEntity
  8
Predefinito
100
AcDbDimension
280
     0
  2
*D3
 10
5761.050243992491
 20
1680.920529722222
 30
0.0
 11
5755.855243992491
 21
1994.124296111111
 31
0.0
 70
    32
  1
<>
 71
     5
 42
626.4075327777777
 73
     0
 74
     0
 75
     0
  3
Stile di quota 01
100
AcDbAlignedDimension
 13
5576.782336944444
 23
2307.3280625
 33
0.0
 14
5612.581590833332
 24
1680.920529722222
 34
0.0
 50
90.0
100
AcDbRotatedDimension
1001
ACAD
1000
DSTYLE
1002
{
1070
   279
1070
     1
1002
}
  0
LINE
  5
89
330
1F
100
AcDbEntity
  8
Linee visibili 2D
100
AcDbLine
 10
5210.04274361111
 20
2278.2876075
 30
0.0
 11
5229.300564999999
 21
2278.2876075
 31
0.0
  0
SPLINE
  5
8A
330
1F
100
AcDbEntity
  8
Linee visibili 2D
100
AcDbSpline
210
0.0
220
0.0
230
1.0
 70
     8
 71
     3
 72
     8
 73
     4
 74
     0
 42
0.0000000001
 43
0.0000000001
 40
0.0
 40
0.0
 40
0.0
 40
0.0
 40
1.0
 40
1.0
 40
1.0
 40
1.0
 10
5138.152135833333
 20
2277.937581388889
 30
0.0
 10
5137.876016666666
 20
2277.937581388889
 30
0.0
 10
5137.652143888889
 20
2277.713743888889
 30
0.0
 10
5137.652143888889
 20
2277.437589444444
 30
0.0
  0
LINE
  5
8B
330
1F
100
AcDbEntity
  8
Linee visibili 2D
100
AcDbLine
 10
5137.652143888889
 20
2261.937592222222
 30
0.0
 11
5138.152135833333
 21
2261.937592222222
 31
0.0
  0
LINE
  5
8C
330
1F
100
AcDbEntity
  8
Linee visibili 2D
100
AcDbLine
 10
5138.152135833333
 20
2261.937592222222
 30
0.0
 11
5237.15216361111
 21
2261.937592222222
 31
0.0
  0
LINE
  5
8D
330
1F
100
AcDbEntity
  8
Linee visibili 2D
100
AcDbLine
 10
5237.15216361111
 20
2261.937592222222
 30
0.0
 11
5237.617054166666
 21
2261.937592222222
 31
0.0
  0
LINE
  5
8E
330
1F
100
AcDbEntity
  8
Linee visibili 2D
100
AcDbLine
 10
5137.652143888889
 20
2277.437589444444
 30
0.0
 11
5137.652143888889
 21
2261.937592222222
 31
0.0
  0
LINE
  5
8F
330
1F
100
AcDbEntity
  8
Linee visibili 2D
100
AcDbLine
 10
5138.152135833333
 20
2277.937581388889
 30
0.0
 11
5237.15216361111
 21
2277.937581388889
 31
0.0
  0
SPLINE
  5
90
330
1F
100
AcDbEntity
  8
Linee visibili 2D
100
AcDbSpline
210
0.0
220
0.0
230
1.0
 70
     8
 71
     3
 72
     8
 73
     4
 74
     0
 42
0.0000000001
 43
0.0000000001
 40
0.0
 40
0.0
 40
0.0
 40
0.0
 40
1.0
 40
1.0
 40
1.0
 40
1.0
 10
5237.652155555555
 20
2277.437589444444
 30
0.0
 10
5237.652155555555
 20
2277.713743888889
 30
0.0
 10
5237.428282777777
 20
2277.937581388889
 30
0.0
 10
5237.15216361111
 20
2277.937581388889
 30
0.0
  0
LINE
  5
91
330
1F
100
AcDbEntity
  8
Linee visibili 2D
100
AcDbLine
 10
5237.652155555555
 20
2277.437589444444
 30
0.0
 11
5237.652155555555
 21
2261.937592222222
 31
0.0
  0
LINE
  5
92
330
1F
100
AcDbEntity
  8
Linee visibili 2D
100
AcDbLine
 10
4390.129191388888
 20
2277.937581388889
 30
0.0
 11
4489.080006666666
 21
2277.937581388889
 31
0.0
  0
SPLINE
  5
93
330
1F
100
AcDbEntity
  8
Linee visibili 2D
100
AcDbSpline
210
0.0
220
0.0
230
1.0
 70
     8
 71
     3
 72
     8
 73
     4
 74
     0
 42
0.0000000001
 43
0.0000000001
 40
0.0
 40
0.0
 40
0.0
 40
0.0
 40
1.0
 40
1.0
 40
1.0
 40
1.0
 10
4489.62921111111
 20
2277.437589444444
 30
0.0
 10
4489.62921111111
 20
2277.713743888889
 30
0.0
 10
4489.405338333333
 20
2277.937581388889
 30
0.0
 10
4489.129219166666
 20
2277.937581388889
 30
0.0
  0
LINE
  5
94
330
1F
100
AcDbEntity
  8
Linee visibili 2D
100
AcDbLine
 10
4489.62921111111
 20
2274.983737777778
 30
0.0
 11
4489.62921111111
 21
2277.437589444444
 31
0.0
  0
LINE
  5
95
330
1F
100
AcDbEntity
  8
Linee visibili 2D
100
AcDbLine
 10
4489.62921111111
 20
2261.937592222222
 30
0.0
 11
4489.62921111111
 21
2264.9837225
 31
0.0
  0
LINE
  5
96
330
1F
100
AcDbEntity
  8
Linee visibili 2D
100
AcDbLine
 10
4389.678905833333
 20
2261.937592222222
 30
0.0
 11
4489.62921111111
 21
2261.937592222222
 31
0.0
  0
SPLINE
  5
97
330
1F
100
AcDbEntity
  8
Linee visibili 2D
100
AcDbSpline
210
0.0
220
0.0
230
1.0
 70
     8
 71
     3
 72
     8
 73
     4
 74
     0
 42
0.0000000001
 43
0.0000000001
 40
0.0
 40
0.0
 40
0.0
 40
0.0
 40
1.0
 40
1.0
 40
1.0
 40
1.0
 10
4489.626635833333
 20
2265.009792777778
 30
0.0
 10
4489.292061388888
 20
2268.350915833333
 30
0.0
 10
4489.292908055555
 20
2271.642791111111
 30
0.0
 10
4489.62921111111
 20
2274.983737777778
 30
0.0
  0
SPLINE
  5
98
330
1F
100
AcDbEntity
  8
Linee visibili 2D
100
AcDbSpline
210
0.0
220
0.0
230
1.0
 70
     8
 71
     3
 72
     8
 73
     4
 74
     0
 42
0.0000000001
 43
0.0000000001
 40
0.0
 40
0.0
 40
0.0
 40
0.0
 40
1.0
 40
1.0
 40
1.0
 40
1.0
 10
4813.615453888889
 20
2266.372573333333
 30
0.0
 10
4811.682443333333
 20
2266.372573333333
 30
0.0
 10
4810.115439722221
 20
2267.939541666667
 30
0.0
 10
4810.115439722221
 20
2269.872552222222
 30
0.0
  0
SPLINE
  5
99
330
1F
100
AcDbEntity
  8
Linee visibili 2D
100
AcDbSpline
210
0.0
220
0.0
230
1.0
 70
     8
 71
     3
 72
     8
 73
     4
 74
     0
 42
0.0000000001
 43
0.0000000001
 40
0.0
 40
0.0
 40
0.0
 40
0.0
 40
1.0
 40
1.0
 40
1.0
 40
1.0
 10
4810.115439722221
 20
2269.872552222222
 30
0.0
 10
4810.115439722221
 20
2271.805562777778
 30
0.0
 10
4811.682443333333
 20
2273.372566388889
 30
0.0
 10
4813.615453888889
 20
2273.372566388889
 30
0.0
  0
SPLINE
  5
9A
330
1F
100
AcDbEntity
  8
Linee visibili 2D
100
AcDbSpline
210
0.0
220
0.0
230
1.0
 70
     8
 71
     3
 72
     8
 73
     4
 74
     0
 42
0.0000000001
 43
0.0000000001
 40
0.0
 40
0.0
 40
0.0
 40
0.0
 40
1.0
 40
1.0
 40
1.0
 40
1.0
 10
4813.615453888889
 20
2273.372566388889
 30
0.0
 10
4815.548464444444
 20
2273.372566388889
 30
0.0
 10
4817.115468055556
 20
2271.805562777778
 30
0.0
 10
4817.115468055556
 20
2269.872552222222
 30
0.0
  0
SPLINE
  5
9B
330
1F
100
AcDbEntity
  8
Linee visibili 2D
100
AcDbSpline
210
0.0
220
0.0
230
1.0
 70
     8
 71
     3
 72
     8
 73
     4
 74
     0
 42
0.0000000001
 43
0.0000000001
 40
0.0
 40
0.0
 40
0.0
 40
0.0
 40
1.0
 40
1.0
 40
1.0
 40
1.0
 10
4817.115468055556
 20
2269.872552222222
 30
0.0
 10
4817.115468055556
 20
2267.939541666667
 30
0.0
 10
4815.548464444444
 20
2266.372573333333
 30
0.0
 10
4813.615453888889
 20
2266.372573333333
 30
0.0
  0
SPLINE
  5
9C
330
1F
100
AcDbEntity
  8
Linee visibili 2D
100
AcDbSpline
210
0.0
220
0.0
230
1.0
 70
     8
 71
     3
 72
     8
 73
     4
 74
     0
 42
0.0000000001
 43
0.0000000001
 40
0.0
 40
0.0
 40
0.0
 40
0.0
 40
1.0
 40
1.0
 40
1.0
 40
1.0
 10
4821.115438888889
 20
2279.382171111111
 30
0.0
 10
4826.994974444444
 20
2282.776704722222
 30
0.0
 10
4829.861470277777
 20
2289.697075833333
 30
0.0
 10
4828.104354722221
 20
2296.254826666666
 30
0.0
  0
SPLINE
  5
9D
330
1F
100
AcDbEntity
  8
Linee visibili 2D
100
AcDbSpline
210
0.0
220
0.0
230
1.0
 70
     8
 71
     3
 72
     8
 73
     4
 74
     0
 42
0.0000000001
 43
0.0000000001
 40
0.0
 40
0.0
 40
0.0
 40
0.0
 40
1.0
 40
1.0
 40
1.0
 40
1.0
 10
4828.104354722221
 20
2296.254826666666
 30
0.0
 10
4826.347203888889
 20
2302.812612777778
 30
0.0
 10
4820.404556388888
 20
2307.372547777777
 30
0.0
 10
4813.615453888889
 20
2307.372547777777
 30
0.0
  0
SPLINE
  5
9E
330
1F
100
AcDbEntity
  8
Linee visibili 2D
100
AcDbSpline
210
0.0
220
0.0
230
1.0
 70
     8
 71
     3
 72
     8
 73
     4
 74
     0
 42
0.0000000001
 43
0.0000000001
 40
0.0
 40
0.0
 40
0.0
 40
0.0
 40
1.0
 40
1.0
 40
1.0
 40
1.0
 10
4813.615453888889
 20
2307.372547777777
 30
0.0
 10
4806.826351388888
 20
2307.372547777777
 30
0.0
 10
4800.883703888889
 20
2302.812612777778
 30
0.0
 10
4799.126553055555
 20
2296.254826666666
 30
0.0
  0
SPLINE
  5
9F
330
1F
100
AcDbEntity
  8
Linee visibili 2D
100
AcDbSpline
210
0.0
220
0.0
230
1.0
 70
     8
 71
     3
 72
     8
 73
     4
 74
     0
 42
0.0000000001
 43
0.0000000001
 40
0.0
 40
0.0
 40
0.0
 40
0.0
 40
1.0
 40
1.0
 40
1.0
 40
1.0
 10
4799.126553055555
 20
2296.254826666666
 30
0.0
 10
4797.369437499999
 20
2289.697075833333
 30
0.0
 10
4800.235933333333
 20
2282.776704722222
 30
0.0
 10
4806.115468888889
 20
2279.382171111111
 30
0.0
  0
SPLINE
  5
A0
330
1F
100
AcDbEntity
  8
Linee visibili 2D
100
AcDbSpline
210
0.0
220
0.0
230
1.0
 70
     8
 71
     3
 72
     8
 73
     4
 74
     0
 42
0.0000000001
 43
0.0000000001
 40
0.0
 40
0.0
 40
0.0
 40
0.0
 40
1.0
 40
1.0
 40
1.0
 40
1.0
 10
4822.70544361111
 20
2293.861652777778
 30
0.0
 10
4822.667343611111
 20
2293.613050277778
 30
0.0
 10
4822.644060277777
 20
2293.364377222222
 30
0.0
 10
4822.635311388888
 20
2293.113023055556
 30
0.0
  0
SPLINE
  5
A1
330
1F
100
AcDbEntity
  8
Linee visibili 2D
100
AcDbSpline
210
0.0
220
0.0
230
1.0
 70
     8
 71
     3
 72
     8
 73
     4
 74
     0
 42
0.0000000001
 43
0.0000000001
 40
0.0
 40
0.0
 40
0.0
 40
0.0
 40
1.0
 40
1.0
 40
1.0
 40
1.0
 10
4823.085596944444
 20
2293.861652777778
 30
0.0
 10
4823.067569999999
 20
2293.979233611111
 30
0.0
 10
4823.014441666666
 20
2294.024847777777
 30
0.0
 10
4822.895520277777
 20
2294.024847777777
 30
0.0
  0
SPLINE
  5
A2
330
1F
100
AcDbEntity
  8
Linee visibili 2D
100
AcDbSpline
210
0.0
220
0.0
230
1.0
 70
     8
 71
     3
 72
     8
 73
     4
 74
     0
 42
0.0000000001
 43
0.0000000001
 40
0.0
 40
0.0
 40
0.0
 40
0.0
 40
1.0
 40
1.0
 40
1.0
 40
1.0
 10
4822.895520277777
 20
2294.024847777777
 30
0.0
 10
4822.77656361111
 20
2294.024847777777
 30
0.0
 10
4822.723435277778
 20
2293.979233611111
 30
0.0
 10
4822.70544361111
 20
2293.861652777778
 30
0.0
  0
SPLINE
  5
A3
330
1F
100
AcDbEntity
  8
Linee visibili 2D
100
AcDbSpline
210
0.0
220
0.0
230
1.0
 70
     8
 71
     3
 72
     8
 73
     4
 74
     0
 42
0.0000000001
 43
0.0000000001
 40
0.0
 40
0.0
 40
0.0
 40
0.0
 40
1.0
 40
1.0
 40
1.0
 40
1.0
 10
4823.155693888889
 20
2293.113023055556
 30
0.0
 10
4823.146980277777
 20
2293.364377222222
 30
0.0
 10
4823.123696944445
 20
2293.613050277778
 30
0.0
 10
4823.085596944444
 20
2293.861652777778
 30
0.0
  0
SPLINE
  5
A4
330
1F
100
AcDbEntity
  8
Linee visibili 2D
100
AcDbSpline
210
0.0
220
0.0
230
1.0
 70
     8
 71
     3
 72
     8
 73
     4
 74
     0
 42
0.0000000001
 43
0.0000000001
 40
0.0
 40
0.0
 40
0.0
 40
0.0
 40
1.0
 40
1.0
 40
1.0
 40
1.0
 10
4821.619946388889
 20
2292.607386666666
 30
0.0
 10
4821.602695555555
 20
2292.779189444444
 30
0.0
 10
4821.602695555555
 20
2292.948416944444
 30
0.0
 10
4821.619946388889
 20
2293.120219722222
 30
0.0
  0
SPLINE
  5
A5
330
1F
100
AcDbEntity
  8
Linee visibili 2D
100
AcDbSpline
210
0.0
220
0.0
230
1.0
 70
     8
 71
     3
 72
     8
 73
     4
 74
     0
 42
0.0000000001
 43
0.0000000001
 40
0.0
 40
0.0
 40
0.0
 40
0.0
 40
1.0
 40
1.0
 40
1.0
 40
1.0
 10
4824.171094166666
 20
2292.60781
 30
0.0
 10
4824.017000833332
 20
2291.069099166667
 30
0.0
 10
4821.774604166666
 20
2291.068711111111
 30
0.0
 10
4821.619946388889
 20
2292.607386666666
 30
0.0
  0
SPLINE
  5
A6
330
1F
100
AcDbEntity
  8
Linee visibili 2D
100
AcDbSpline
210
0.0
220
0.0
230
1.0
 70
     8
 71
     3
 72
     8
 73
     4
 74
     0
 42
0.0000000001
 43
0.0000000001
 40
0.0
 40
0.0
 40
0.0
 40
0.0
 40
1.0
 40
1.0
 40
1.0
 40
1.0
 10
4823.982322777776
 20
2292.617758333333
 30
0.0
 10
4824.035945
 20
2292.719499444444
 30
0.0
 10
4824.128513888888
 20
2292.714595833333
 30
0.0
 10
4824.171094166666
 20
2292.60781
 30
0.0
  0
SPLINE
  5
A7
330
1F
100
AcDbEntity
  8
Linee visibili 2D
100
AcDbSpline
210
0.0
220
0.0
230
1.0
 70
     8
 71
     3
 72
     8
 73
     4
 74
     0
 42
0.0000000001
 43
0.0000000001
 40
0.0
 40
0.0
 40
0.0
 40
0.0
 40
1.0
 40
1.0
 40
1.0
 40
1.0
 10
4823.387080833334
 20
2291.758991388888
 30
0.0
 10
4823.769245
 20
2291.951396388888
 30
0.0
 10
4823.936320555556
 20
2292.192378888889
 30
0.0
 10
4823.982322777776
 20
2292.617758333333
 30
0.0
  0
SPLINE
  5
A8
330
1F
100
AcDbEntity
  8
Linee visibili 2D
100
AcDbSpline
210
0.0
220
0.0
230
1.0
 70
     8
 71
     3
 72
     8
 73
     4
 74
     0
 42
0.0000000001
 43
0.0000000001
 40
0.0
 40
0.0
 40
0.0
 40
0.0
 40
1.0
 40
1.0
 40
1.0
 40
1.0
 10
4822.674363888888
 20
2292.103796388889
 30
0.0
 10
4822.765874444443
 20
2291.8029475
 30
0.0
 10
4823.094416388888
 20
2291.644021111111
 30
0.0
 10
4823.387080833334
 20
2291.758991388888
 30
0.0
  0
SPLINE
  5
A9
330
1F
100
AcDbEntity
  8
Linee visibili 2D
100
AcDbSpline
210
0.0
220
0.0
230
1.0
 70
     8
 71
     3
 72
     8
 73
     4
 74
     0
 42
0.0000000001
 43
0.0000000001
 40
0.0
 40
0.0
 40
0.0
 40
0.0
 40
1.0
 40
1.0
 40
1.0
 40
1.0
 10
4822.631501388888
 20
2292.863820833333
 30
0.0
 10
4822.630725277778
 20
2292.609185833333
 30
0.0
 10
4822.644942222222
 20
2292.356738055556
 30
0.0
 10
4822.674363888888
 20
2292.103796388889
 30
0.0
  0
LINE
  5
AA
330
1F
100
AcDbEntity
  8
Linee visibili 2D
100
AcDbLine
 10
4824.111721666667
 20
2292.863820833333
 30
0.0
 11
4822.631501388888
 21
2292.863820833333
 31
0.0
  0
SPLINE
  5
AB
330
1F
100
AcDbEntity
  8
Linee visibili 2D
100
AcDbSpline
210
0.0
220
0.0
230
1.0
 70
     8
 71
     3
 72
     8
 73
     4
 74
     0
 42
0.0000000001
 43
0.0000000001
 40
0.0
 40
0.0
 40
0.0
 40
0.0
 40
1.0
 40
1.0
 40
1.0
 40
1.0
 10
4824.175468611111
 20
2292.920159444444
 30
0.0
 10
4824.173069722222
 20
2292.877508611111
 30
0.0
 10
4824.154337222222
 20
2292.860928055555
 30
0.0
 10
4824.111721666667
 20
2292.863820833333
 30
0.0
  0
SPLINE
  5
AC
330
1F
100
AcDbEntity
  8
Linee visibili 2D
100
AcDbSpline
210
0.0
220
0.0
230
1.0
 70
     8
 71
     3
 72
     8
 73
     4
 74
     0
 42
0.0000000001
 43
0.0000000001
 40
0.0
 40
0.0
 40
0.0
 40
0.0
 40
1.0
 40
1.0
 40
1.0
 40
1.0
 10
4824.175468611111
 20
2292.920159444444
 30
0.0
 10
4824.216743611112
 20
2293.655277777777
 30
0.0
 10
4823.631802777777
 20
2294.274014722222
 30
0.0
 10
4822.895520277777
 20
2294.27405
 30
0.0
  0
SPLINE
  5
AD
330
1F
100
AcDbEntity
  8
Linee visibili 2D
100
AcDbSpline
210
0.0
220
0.0
230
1.0
 70
     8
 71
     3
 72
     8
 73
     4
 74
     0
 42
0.0000000001
 43
0.0000000001
 40
0.0
 40
0.0
 40
0.0
 40
0.0
 40
1.0
 40
1.0
 40
1.0
 40
1.0
 10
4822.895520277777
 20
2294.27405
 30
0.0
 10
4822.237131111111
 20
2294.27405
 30
0.0
 10
4821.685774722221
 20
2293.775292777778
 30
0.0
 10
4821.619946388889
 20
2293.120219722222
 30
0.0
  0
LINE
  5
AE
330
1F
100
AcDbEntity
  8
Linee visibili 2D
100
AcDbLine
 10
4822.635311388888
 20
2293.113023055556
 30
0.0
 11
4823.155693888889
 21
2293.113023055556
 31
0.0
  0
LINE
  5
AF
330
1F
100
AcDbEntity
  8
Linee visibili 2D
100
AcDbLine
 10
4808.6591025
 20
2291.985086666667
 30
0.0
 11
4808.6591025
 21
2294.083761666666
 31
0.0
  0
SPLINE
  5
B0
330
1F
100
AcDbEntity
  8
Linee visibili 2D
100
AcDbSpline
210
0.0
220
0.0
230
1.0
 70
     8
 71
     3
 72
     8
 73
     4
 74
     0
 42
0.0000000001
 43
0.0000000001
 40
0.0
 40
0.0
 40
0.0
 40
0.0
 40
1.0
 40
1.0
 40
1.0
 40
1.0
 10
4808.6591025
 20
2294.083761666666
 30
0.0
 10
4808.6591025
 20
2294.12673
 30
0.0
 10
4808.676318055556
 20
2294.145039166667
 30
0.0
 10
4808.719180555555
 20
2294.147720277778
 30
0.0
  0
SPLINE
  5
B1
330
1F
100
AcDbEntity
  8
Linee visibili 2D
100
AcDbSpline
210
0.0
220
0.0
230
1.0
 70
     8
 71
     3
 72
     8
 73
     4
 74
     0
 42
0.0000000001
 43
0.0000000001
 40
0.0
 40
0.0
 40
0.0
 40
0.0
 40
1.0
 40
1.0
 40
1.0
 40
1.0
 10
4808.719180555555
 20
2294.147720277778
 30
0.0
 10
4809.225910555555
 20
2294.179470277778
 30
0.0
 10
4809.620598333333
 20
2294.599663888889
 30
0.0
 10
4809.620598333333
 20
2295.107381666667
 30
0.0
  0
SPLINE
  5
B2
330
1F
100
AcDbEntity
  8
Linee visibili 2D
100
AcDbSpline
210
0.0
220
0.0
230
1.0
 70
     8
 71
     3
 72
     8
 73
     4
 74
     0
 42
0.0000000001
 43
0.0000000001
 40
0.0
 40
0.0
 40
0.0
 40
0.0
 40
1.0
 40
1.0
 40
1.0
 40
1.0
 10
4809.620598333333
 20
2295.107381666667
 30
0.0
 10
4809.620598333333
 20
2295.152678333333
 30
0.0
 10
4809.63936611111
 20
2295.171481388889
 30
0.0
 10
4809.684698055555
 20
2295.171481388889
 30
0.0
  0
SPLINE
  5
B3
330
1F
100
AcDbEntity
  8
Linee visibili 2D
100
AcDbSpline
210
0.0
220
0.0
230
1.0
 70
     8
 71
     3
 72
     8
 73
     4
 74
     0
 42
0.0000000001
 43
0.0000000001
 40
0.0
 40
0.0
 40
0.0
 40
0.0
 40
1.0
 40
1.0
 40
1.0
 40
1.0
 10
4809.684698055555
 20
2295.171481388889
 30
0.0
 10
4809.73003
 20
2295.171481388889
 30
0.0
 10
4809.748797777777
 20
2295.152678333333
 30
0.0
 10
4809.748797777777
 20
2295.107381666667
 30
0.0
  0
LINE
  5
B4
330
1F
100
AcDbEntity
  8
Linee visibili 2D
100
AcDbLine
 10
4809.748797777777
 20
2295.107381666667
 30
0.0
 11
4809.748797777777
 21
2294.219157777778
 31
0.0
  0
LINE
  5
B5
330
1F
100
AcDbEntity
  8
Linee visibili 2D
100
AcDbLine
 10
4809.761603611111
 20
2294.206351944444
 30
0.0
 11
4810.133396111112
 21
2294.206351944444
 31
0.0
  0
SPLINE
  5
B6
330
1F
100
AcDbEntity
  8
Linee visibili 2D
100
AcDbSpline
210
0.0
220
0.0
230
1.0
 70
     8
 71
     3
 72
     8
 73
     4
 74
     0
 42
0.0000000001
 43
0.0000000001
 40
0.0
 40
0.0
 40
0.0
 40
0.0
 40
1.0
 40
1.0
 40
1.0
 40
1.0
 10
4810.133396111112
 20
2294.206351944444
 30
0.0
 10
4810.242404444444
 20
2294.163136666667
 30
0.0
 10
4810.242404444444
 20
2294.060831111111
 30
0.0
 10
4810.133396111112
 20
2294.017651111111
 30
0.0
  0
LINE
  5
B7
330
1F
100
AcDbEntity
  8
Linee visibili 2D
100
AcDbLine
 10
4810.133396111112
 20
2294.017651111111
 30
0.0
 11
4809.761603611111
 21
2294.017651111111
 31
0.0
  0
LINE
  5
B8
330
1F
100
AcDbEntity
  8
Linee visibili 2D
100
AcDbLine
 10
4809.748797777777
 20
2294.00481
 30
0.0
 11
4809.748797777777
 21
2291.8740675
 31
0.0
  0
SPLINE
  5
B9
330
1F
100
AcDbEntity
  8
Linee visibili 2D
100
AcDbSpline
210
0.0
220
0.0
230
1.0
 70
     8
 71
     3
 72
     8
 73
     4
 74
     0
 42
0.0000000001
 43
0.0000000001
 40
0.0
 40
0.0
 40
0.0
 40
0.0
 40
1.0
 40
1.0
 40
1.0
 40
1.0
 10
4809.748797777777
 20
2291.8740675
 30
0.0
 10
4809.748797777777
 20
2291.7445275
 30
0.0
 10
4809.82891361111
 20
2291.698278333333
 30
0.0
 10
4809.941096944444
 20
2291.763048333333
 30
0.0
  0
SPLINE
  5
BA
330
1F
100
AcDbEntity
  8
Linee visibili 2D
100
AcDbSpline
210
0.0
220
0.0
230
1.0
 70
     8
 71
     3
 72
     8
 73
     4
 74
     0
 42
0.0000000001
 43
0.0000000001
 40
0.0
 40
0.0
 40
0.0
 40
0.0
 40
1.0
 40
1.0
 40
1.0
 40
1.0
 10
4809.941096944444
 20
2291.763048333333
 30
0.0
 10
4810.050034722222
 20
2291.825948611111
 30
0.0
 10
4810.08450111111
 20
2291.896856944444
 30
0.0
 10
4810.066685833333
 20
2292.021422777777
 30
0.0
  0
SPLINE
  5
BB
330
1F
100
AcDbEntity
  8
Linee visibili 2D
100
AcDbSpline
210
0.0
220
0.0
230
1.0
 70
     8
 71
     3
 72
     8
 73
     4
 74
     0
 42
0.0000000001
 43
0.0000000001
 40
0.0
 40
0.0
 40
0.0
 40
0.0
 40
1.0
 40
1.0
 40
1.0
 40
1.0
 10
4810.066685833333
 20
2292.021422777777
 30
0.0
 10
4810.059524444444
 20
2292.071623055556
 30
0.0
 10
4810.079421111111
 20
2292.094588888889
 30
0.0
 10
4810.130150555556
 20
2292.094588888889
 30
0.0
  0
SPLINE
  5
BC
330
1F
100
AcDbEntity
  8
Linee visibili 2D
100
AcDbSpline
210
0.0
220
0.0
230
1.0
 70
     8
 71
     3
 72
     8
 73
     4
 74
     0
 42
0.0000000001
 43
0.0000000001
 40
0.0
 40
0.0
 40
0.0
 40
0.0
 40
1.0
 40
1.0
 40
1.0
 40
1.0
 10
4810.130150555556
 20
2292.094588888889
 30
0.0
 10
4810.170155555556
 20
2292.094588888889
 30
0.0
 10
4810.187935555556
 20
2292.079172499999
 30
0.0
 10
4810.193615277778
 20
2292.039590833333
 30
0.0
  0
SPLINE
  5
BD
330
1F
100
AcDbEntity
  8
Linee visibili 2D
100
AcDbSpline
210
0.0
220
0.0
230
1.0
 70
     8
 71
     3
 72
     8
 73
     4
 74
     0
 42
0.0000000001
 43
0.0000000001
 40
0.0
 40
0.0
 40
0.0
 40
0.0
 40
1.0
 40
1.0
 40
1.0
 40
1.0
 10
4810.193615277778
 20
2292.039590833333
 30
0.0
 10
4810.214570277777
 20
2291.893082222222
 30
0.0
 10
4810.179609999999
 20
2291.797091388889
 30
0.0
 10
4810.069296388888
 20
2291.698419444445
 30
0.0
  0
SPLINE
  5
BE
330
1F
100
AcDbEntity
  8
Linee visibili 2D
100
AcDbSpline
210
0.0
220
0.0
230
1.0
 70
     8
 71
     3
 72
     8
 73
     4
 74
     0
 42
0.0000000001
 43
0.0000000001
 40
0.0
 40
0.0
 40
0.0
 40
0.0
 40
1.0
 40
1.0
 40
1.0
 40
1.0
 10
4810.069296388888
 20
2291.698419444445
 30
0.0
 10
4809.7043125
 20
2291.371958888889
 30
0.0
 10
4809.152285833333
 20
2291.371958888889
 30
0.0
 10
4808.787301944445
 20
2291.698419444445
 30
0.0
  0
SPLINE
  5
BF
330
1F
100
AcDbEntity
  8
Linee visibili 2D
100
AcDbSpline
210
0.0
220
0.0
230
1.0
 70
     8
 71
     3
 72
     8
 73
     4
 74
     0
 42
0.0000000001
 43
0.0000000001
 40
0.0
 40
0.0
 40
0.0
 40
0.0
 40
1.0
 40
1.0
 40
1.0
 40
1.0
 10
4808.787301944445
 20
2291.698419444445
 30
0.0
 10
4808.696285277777
 20
2291.779840555555
 30
0.0
 10
4808.6591025
 20
2291.862990277778
 30
0.0
 10
4808.6591025
 20
2291.985086666667
 30
0.0
  0
LINE
  5
C0
330
1F
100
AcDbEntity
  8
Linee visibili 2D
100
AcDbLine
 10
4803.77881
 20
2294.534788055555
 30
0.0
 11
4803.392306666665
 21
2293.308920555555
 31
0.0
  0
LINE
  5
C1
330
1F
100
AcDbEntity
  8
Linee visibili 2D
100
AcDbLine
 10
4804.165313333333
 20
2293.308920555555
 30
0.0
 11
4803.77881
 21
2294.534788055555
 31
0.0
  0
SPLINE
  5
C2
330
1F
100
AcDbEntity
  8
Linee visibili 2D
100
AcDbSpline
210
0.0
220
0.0
230
1.0
 70
     8
 71
     3
 72
     8
 73
     4
 74
     0
 42
0.0000000001
 43
0.0000000001
 40
0.0
 40
0.0
 40
0.0
 40
0.0
 40
1.0
 40
1.0
 40
1.0
 40
1.0
 10
4802.044095833333
 20
2291.453591666666
 30
0.0
 10
4801.935052222223
 20
2291.496771666666
 30
0.0
 10
4801.935052222223
 20
2291.599077222223
 30
0.0
 10
4802.044095833333
 20
2291.6422925
 30
0.0
  0
LINE
  5
C3
330
1F
100
AcDbEntity
  8
Linee visibili 2D
100
AcDbLine
 10
4803.710653333332
 20
2291.453591666666
 30
0.0
 11
4802.044095833333
 21
2291.453591666666
 31
0.0
  0
SPLINE
  5
C4
330
1F
100
AcDbEntity
  8
Linee visibili 2D
100
AcDbSpline
210
0.0
220
0.0
230
1.0
 70
     8
 71
     3
 72
     8
 73
     4
 74
     0
 42
0.0000000001
 43
0.0000000001
 40
0.0
 40
0.0
 40
0.0
 40
0.0
 40
1.0
 40
1.0
 40
1.0
 40
1.0
 10
4803.710653333332
 20
2291.6422925
 30
0.0
 10
4803.819661666667
 20
2291.599077222223
 30
0.0
 10
4803.819661666667
 20
2291.496771666666
 30
0.0
 10
4803.710653333332
 20
2291.453591666666
 30
0.0
  0
LINE
  5
C5
330
1F
100
AcDbEntity
  8
Linee visibili 2D
100
AcDbLine
 10
4803.658548055555
 20
2291.6422925
 30
0.0
 11
4803.710653333332
 21
2291.6422925
 31
0.0
  0
SPLINE
  5
C6
330
1F
100
AcDbEntity
  8
Linee visibili 2D
100
AcDbSpline
210
0.0
220
0.0
230
1.0
 70
     8
 71
     3
 72
     8
 73
     4
 74
     0
 42
0.0000000001
 43
0.0000000001
 40
0.0
 40
0.0
 40
0.0
 40
0.0
 40
1.0
 40
1.0
 40
1.0
 40
1.0
 10
4803.104898611111
 20
2292.397342777778
 30
0.0
 10
4803.001816944444
 20
2292.025867777777
 30
0.0
 10
4803.273208888889
 20
2291.655698055555
 30
0.0
 10
4803.658548055555
 20
2291.6422925
 30
0.0
  0
LINE
  5
C7
330
1F
100
AcDbEntity
  8
Linee visibili 2D
100
AcDbLine
 10
4803.332828333333
 20
2293.120219722222
 30
0.0
 11
4803.104898611111
 21
2292.397342777778
 31
0.0
  0
LINE
  5
C8
330
1F
100
AcDbEntity
  8
Linee visibili 2D
100
AcDbLine
 10
4804.288256388889
 20
2293.120219722222
 30
0.0
 11
4803.332828333333
 21
2293.120219722222
 31
0.0
  0
LINE
  5
C9
330
1F
100
AcDbEntity
  8
Linee visibili 2D
100
AcDbLine
 10
4804.694444722222
 20
2291.892411944444
 30
0.0
 11
4804.288256388889
 21
2293.120219722222
 31
0.0
  0
SPLINE
  5
CA
330
1F
100
AcDbEntity
  8
Linee visibili 2D
100
AcDbSpline
210
0.0
220
0.0
230
1.0
 70
     8
 71
     3
 72
     8
 73
     4
 74
     0
 42
0.0000000001
 43
0.0000000001
 40
0.0
 40
0.0
 40
0.0
 40
0.0
 40
1.0
 40
1.0
 40
1.0
 40
1.0
 10
4804.511035555555
 20
2291.6422925
 30
0.0
 10
4804.681674166666
 20
2291.6422925
 30
0.0
 10
4804.745738611111
 20
2291.729675555556
 30
0.0
 10
4804.694444722222
 20
2291.892411944444
 30
0.0
  0
LINE
  5
CB
330
1F
100
AcDbEntity
  8
Linee visibili 2D
100
AcDbLine
 10
4804.351650555555
 20
2291.6422925
 30
0.0
 11
4804.511035555555
 21
2291.6422925
 31
0.0
  0
SPLINE
  5
CC
330
1F
100
AcDbEntity
  8
Linee visibili 2D
100
AcDbSpline
210
0.0
220
0.0
230
1.0
 70
     8
 71
     3
 72
     8
 73
     4
 74
     0
 42
0.0000000001
 43
0.0000000001
 40
0.0
 40
0.0
 40
0.0
 40
0.0
 40
1.0
 40
1.0
 40
1.0
 40
1.0
 10
4804.351650555555
 20
2291.453591666666
 30
0.0
 10
4804.242642222221
 20
2291.496771666666
 30
0.0
 10
4804.242642222221
 20
2291.599077222223
 30
0.0
 10
4804.351650555555
 20
2291.6422925
 30
0.0
  0
LINE
  5
CD
330
1F
100
AcDbEntity
  8
Linee visibili 2D
100
AcDbLine
 10
4807.748900555555
 20
2291.453591666666
 30
0.0
 11
4804.351650555555
 21
2291.453591666666
 31
0.0
  0
SPLINE
  5
CE
330
1F
100
AcDbEntity
  8
Linee visibili 2D
100
AcDbSpline
210
0.0
220
0.0
230
1.0
 70
     8
 71
     3
 72
     8
 73
     4
 74
     0
 42
0.0000000001
 43
0.0000000001
 40
0.0
 40
0.0
 40
0.0
 40
0.0
 40
1.0
 40
1.0
 40
1.0
 40
1.0
 10
4807.748900555555
 20
2291.6422925
 30
0.0
 10
4807.857908888888
 20
2291.599077222223
 30
0.0
 10
4807.857908888888
 20
2291.496771666666
 30
0.0
 10
4807.748900555555
 20
2291.453591666666
 30
0.0
  0
LINE
  5
CF
330
1F
100
AcDbEntity
  8
Linee visibili 2D
100
AcDbLine
 10
4807.620701111111
 20
2291.6422925
 30
0.0
 11
4807.748900555555
 21
2291.6422925
 31
0.0
  0
SPLINE
  5
D0
330
1F
100
AcDbEntity
  8
Linee visibili 2D
100
AcDbSpline
210
0.0
220
0.0
230
1.0
 70
     8
 71
     3
 72
     8
 73
     4
 74
     0
 42
0.0000000001
 43
0.0000000001
 40
0.0
 40
0.0
 40
0.0
 40
0.0
 40
1.0
 40
1.0
 40
1.0
 40
1.0
 10
4807.492501666667
 20
2291.770491944444
 30
0.0
 10
4807.492501666667
 20
2291.679828055555
 30
0.0
 10
4807.530037222221
 20
2291.6422925
 30
0.0
 10
4807.620701111111
 20
2291.6422925
 30
0.0
  0
LINE
  5
D1
330
1F
100
AcDbEntity
  8
Linee visibili 2D
100
AcDbLine
 10
4807.492501666667
 20
2293.476595833333
 30
0.0
 11
4807.492501666667
 21
2291.770491944444
 31
0.0
  0
SPLINE
  5
D2
330
1F
100
AcDbEntity
  8
Linee visibili 2D
100
AcDbSpline
210
0.0
220
0.0
230
1.0
 70
     8
 71
     3
 72
     8
 73
     4
 74
     0
 42
0.0000000001
 43
0.0000000001
 40
0.0
 40
0.0
 40
0.0
 40
0.0
 40
1.0
 40
1.0
 40
1.0
 40
1.0
 10
4808.194776388888
 20
2294.040828611111
 30
0.0
 10
4807.820479166667
 20
2294.192664166667
 30
0.0
 10
4807.424838888888
 20
2293.874776111111
 30
0.0
 10
4807.492501666667
 20
2293.476595833333
 30
0.0
  0
SPLINE
  5
D3
330
1F
100
AcDbEntity
  8
Linee visibili 2D
100
AcDbSpline
210
0.0
220
0.0
230
1.0
 70
     8
 71
     3
 72
     8
 73
     4
 74
     0
 42
0.0000000001
 43
0.0000000001
 40
0.0
 40
0.0
 40
0.0
 40
0.0
 40
1.0
 40
1.0
 40
1.0
 40
1.0
 10
4808.609643055556
 20
2293.419375277777
 30
0.0
 10
4808.488146388889
 20
2293.075205277778
 30
0.0
 10
4808.028653333333
 20
2293.012834166666
 30
0.0
 10
4807.81882111111
 20
2293.311143055555
 30
0.0
  0
SPLINE
  5
D4
330
1F
100
AcDbEntity
  8
Linee visibili 2D
100
AcDbSpline
210
0.0
220
0.0
230
1.0
 70
     8
 71
     3
 72
     8
 73
     4
 74
     0
 42
0.0000000001
 43
0.0000000001
 40
0.0
 40
0.0
 40
0.0
 40
0.0
 40
1.0
 40
1.0
 40
1.0
 40
1.0
 10
4807.81882111111
 20
2293.311143055555
 30
0.0
 10
4807.608777222221
 20
2293.609734166667
 30
0.0
 10
4807.823654166667
 20
2294.020296944445
 30
0.0
 10
4808.188779166666
 20
2294.017615833333
 30
0.0
  0
SPLINE
  5
D5
330
1F
100
AcDbEntity
  8
Linee visibili 2D
100
AcDbSpline
210
0.0
220
0.0
230
1.0
 70
     8
 71
     3
 72
     8
 73
     4
 74
     0
 42
0.0000000001
 43
0.0000000001
 40
0.0
 40
0.0
 40
0.0
 40
0.0
 40
1.0
 40
1.0
 40
1.0
 40
1.0
 10
4808.60481
 20
2293.859888888889
 30
0.0
 10
4808.491074444444
 20
2294.160455555555
 30
0.0
 10
4808.326644722221
 20
2294.27405
 30
0.0
 10
4808.005299444444
 20
2294.27405
 30
0.0
  0
SPLINE
  5
D6
330
1F
100
AcDbEntity
  8
Linee visibili 2D
100
AcDbSpline
210
0.0
220
0.0
230
1.0
 70
     8
 71
     3
 72
     8
 73
     4
 74
     0
 42
0.0000000001
 43
0.0000000001
 40
0.0
 40
0.0
 40
0.0
 40
0.0
 40
1.0
 40
1.0
 40
1.0
 40
1.0
 10
4808.005299444444
 20
2294.27405
 30
0.0
 10
4807.793068333333
 20
2294.27405
 30
0.0
 10
4807.651886666667
 20
2294.208398055555
 30
0.0
 10
4807.515114722221
 20
2294.046084999999
 30
0.0
  0
SPLINE
  5
D7
330
1F
100
AcDbEntity
  8
Linee visibili 2D
100
AcDbSpline
210
0.0
220
0.0
230
1.0
 70
     8
 71
     3
 72
     8
 73
     4
 74
     0
 42
0.0000000001
 43
0.0000000001
 40
0.0
 40
0.0
 40
0.0
 40
0.0
 40
1.0
 40
1.0
 40
1.0
 40
1.0
 10
4807.428401944444
 20
2294.145850555556
 30
0.0
 10
4807.473733888888
 20
2294.145850555556
 30
0.0
 10
4807.492501666667
 20
2294.127082777777
 30
0.0
 10
4807.492501666667
 20
2294.081750833333
 30
0.0
  0
LINE
  5
D8
330
1F
100
AcDbEntity
  8
Linee visibili 2D
100
AcDbLine
 10
4806.146407499999
 20
2294.145850555556
 30
0.0
 11
4807.428401944444
 21
2294.145850555556
 31
0.0
  0
SPLINE
  5
D9
330
1F
100
AcDbEntity
  8
Linee visibili 2D
100
AcDbSpline
210
0.0
220
0.0
230
1.0
 70
     8
 71
     3
 72
     8
 73
     4
 74
     0
 42
0.0000000001
 43
0.0000000001
 40
0.0
 40
0.0
 40
0.0
 40
0.0
 40
1.0
 40
1.0
 40
1.0
 40
1.0
 10
4806.146407499999
 20
2294.017651111111
 30
0.0
 10
4806.101110833332
 20
2294.017651111111
 30
0.0
 10
4806.082307777778
 20
2294.036418888889
 30
0.0
 10
4806.082307777778
 20
2294.081750833333
 30
0.0
  0
SPLINE
  5
DA
330
1F
100
AcDbEntity
  8
Linee visibili 2D
100
AcDbSpline
210
0.0
220
0.0
230
1.0
 70
     8
 71
     3
 72
     8
 73
     4
 74
     0
 42
0.0000000001
 43
0.0000000001
 40
0.0
 40
0.0
 40
0.0
 40
0.0
 40
1.0
 40
1.0
 40
1.0
 40
1.0
 10
4806.082307777778
 20
2294.081750833333
 30
0.0
 10
4806.082307777778
 20
2294.127082777777
 30
0.0
 10
4806.101110833332
 20
2294.145850555556
 30
0.0
 10
4806.146407499999
 20
2294.145850555556
 30
0.0
  0
LINE
  5
DB
330
1F
100
AcDbEntity
  8
Linee visibili 2D
100
AcDbLine
 10
4806.210507222222
 20
2294.017651111111
 30
0.0
 11
4806.146407499999
 21
2294.017651111111
 31
0.0
  0
SPLINE
  5
DC
330
1F
100
AcDbEntity
  8
Linee visibili 2D
100
AcDbSpline
210
0.0
220
0.0
230
1.0
 70
     8
 71
     3
 72
     8
 73
     4
 74
     0
 42
0.0000000001
 43
0.0000000001
 40
0.0
 40
0.0
 40
0.0
 40
0.0
 40
1.0
 40
1.0
 40
1.0
 40
1.0
 10
4806.402806388888
 20
2293.825351944445
 30
0.0
 10
4806.402806388888
 20
2293.9613125
 30
0.0
 10
4806.346503055555
 20
2294.017651111111
 30
0.0
 10
4806.210507222222
 20
2294.017651111111
 30
0.0
  0
LINE
  5
DD
330
1F
100
AcDbEntity
  8
Linee visibili 2D
100
AcDbLine
 10
4806.402806388888
 20
2291.738459722222
 30
0.0
 11
4806.402806388888
 21
2293.825351944445
 31
0.0
  0
SPLINE
  5
DE
330
1F
100
AcDbEntity
  8
Linee visibili 2D
100
AcDbSpline
210
0.0
220
0.0
230
1.0
 70
     8
 71
     3
 72
     8
 73
     4
 74
     0
 42
0.0000000001
 43
0.0000000001
 40
0.0
 40
0.0
 40
0.0
 40
0.0
 40
1.0
 40
1.0
 40
1.0
 40
1.0
 10
4806.30738
 20
2291.6422925
 30
0.0
 10
4806.374936944444
 20
2291.642786388889
 30
0.0
 10
4806.402806388888
 20
2291.6708675
 30
0.0
 10
4806.402806388888
 20
2291.738424444444
 30
0.0
  0
SPLINE
  5
DF
330
1F
100
AcDbEntity
  8
Linee visibili 2D
100
AcDbSpline
210
0.0
220
0.0
230
1.0
 70
     8
 71
     3
 72
     8
 73
     4
 74
     0
 42
0.0000000001
 43
0.0000000001
 40
0.0
 40
0.0
 40
0.0
 40
0.0
 40
1.0
 40
1.0
 40
1.0
 40
1.0
 10
4806.060964722222
 20
2291.821574166666
 30
0.0
 10
4806.102274999999
 20
2291.690481944444
 30
0.0
 10
4806.169937777777
 20
2291.641269444444
 30
0.0
 10
4806.30738
 20
2291.6422925
 30
0.0
  0
LINE
  5
E0
330
1F
100
AcDbEntity
  8
Linee visibili 2D
100
AcDbLine
 10
4804.878559444444
 20
2295.511241666666
 30
0.0
 11
4806.060964722222
 21
2291.821574166666
 31
0.0
  0
SPLINE
  5
E1
330
1F
100
AcDbEntity
  8
Linee visibili 2D
100
AcDbSpline
210
0.0
220
0.0
230
1.0
 70
     8
 71
     3
 72
     8
 73
     4
 74
     0
 42
0.0000000001
 43
0.0000000001
 40
0.0
 40
0.0
 40
0.0
 40
0.0
 40
1.0
 40
1.0
 40
1.0
 40
1.0
 10
4804.817458333332
 20
2295.556079722222
 30
0.0
 10
4804.851536666666
 20
2295.556079722222
 30
0.0
 10
4804.868328888889
 20
2295.543767777778
 30
0.0
 10
4804.878559444444
 20
2295.511241666666
 30
0.0
  0
LINE
  5
E2
330
1F
100
AcDbEntity
  8
Linee visibili 2D
100
AcDbLine
 10
4803.9499425
 20
2295.556079722222
 30
0.0
 11
4804.817458333332
 21
2295.556079722222
 31
0.0
  0
SPLINE
  5
E3
330
1F
100
AcDbEntity
  8
Linee visibili 2D
100
AcDbSpline
210
0.0
220
0.0
230
1.0
 70
     8
 71
     3
 72
     8
 73
     4
 74
     0
 42
0.0000000001
 43
0.0000000001
 40
0.0
 40
0.0
 40
0.0
 40
0.0
 40
1.0
 40
1.0
 40
1.0
 40
1.0
 10
4803.88880611111
 20
2295.511241666666
 30
0.0
 10
4803.899071944443
 20
2295.543767777778
 30
0.0
 10
4803.915864166667
 20
2295.556079722222
 30
0.0
 10
4803.9499425
 20
2295.556079722222
 30
0.0
  0
LINE
  5
E4
330
1F
100
AcDbEntity
  8
Linee visibili 2D
100
AcDbLine
 10
4802.860353055556
 20
2292.249211388889
 30
0.0
 11
4803.88880611111
 21
2295.511241666666
 31
0.0
  0
SPLINE
  5
E5
330
1F
100
AcDbEntity
  8
Linee visibili 2D
100
AcDbSpline
210
0.0
220
0.0
230
1.0
 70
     8
 71
     3
 72
     8
 73
     4
 74
     0
 42
0.0000000001
 43
0.0000000001
 40
0.0
 40
0.0
 40
0.0
 40
0.0
 40
1.0
 40
1.0
 40
1.0
 40
1.0
 10
4802.044095833333
 20
2291.6422925
 30
0.0
 10
4802.470321944444
 20
2291.685190277778
 30
0.0
 10
4802.696523055555
 20
2291.853394722222
 30
0.0
 10
4802.860353055556
 20
2292.249211388889
 30
0.0
  0
LINE
  5
E6
330
1F
100
AcDbEntity
  8
Linee visibili 2D
100
AcDbLine
 10
4803.392306666665
 20
2293.308920555555
 30
0.0
 11
4804.165313333333
 21
2293.308920555555
 31
0.0
  0
SPLINE
  5
E7
330
1F
100
AcDbEntity
  8
Linee visibili 2D
100
AcDbSpline
210
0.0
220
0.0
230
1.0
 70
     8
 71
     3
 72
     8
 73
     4
 74
     0
 42
0.0000000001
 43
0.0000000001
 40
0.0
 40
0.0
 40
0.0
 40
0.0
 40
1.0
 40
1.0
 40
1.0
 40
1.0
 10
4820.001437222221
 20
2291.780651944444
 30
0.0
 10
4819.924037777777
 20
2292.506774444444
 30
0.0
 10
4819.924037777777
 20
2293.220867222222
 30
0.0
 10
4820.001437222221
 20
2293.946954444444
 30
0.0
  0
SPLINE
  5
E8
330
1F
100
AcDbEntity
  8
Linee visibili 2D
100
AcDbSpline
210
0.0
220
0.0
230
1.0
 70
     8
 71
     3
 72
     8
 73
     4
 74
     0
 42
0.0000000001
 43
0.0000000001
 40
0.0
 40
0.0
 40
0.0
 40
0.0
 40
1.0
 40
1.0
 40
1.0
 40
1.0
 10
4820.001437222221
 20
2293.946954444444
 30
0.0
 10
4820.017206388889
 20
2294.011689166666
 30
0.0
 10
4820.057211388888
 20
2294.027493611111
 30
0.0
 10
4820.112950277778
 20
2293.991016388889
 30
0.0
  0
SPLINE
  5
E9
330
1F
100
AcDbEntity
  8
Linee visibili 2D
100
AcDbSpline
210
0.0
220
0.0
230
1.0
 70
     8
 71
     3
 72
     8
 73
     4
 74
     0
 42
0.0000000001
 43
0.0000000001
 40
0.0
 40
0.0
 40
0.0
 40
0.0
 40
1.0
 40
1.0
 40
1.0
 40
1.0
 10
4820.112950277778
 20
2293.991016388889
 30
0.0
 10
4820.184564166666
 20
2293.928045555555
 30
0.0
 10
4820.223475555554
 20
2293.859924166667
 30
0.0
 10
4820.24132611111
 20
2293.766261666667
 30
0.0
  0
SPLINE
  5
EA
330
1F
100
AcDbEntity
  8
Linee visibili 2D
100
AcDbSpline
210
0.0
220
0.0
230
1.0
 70
     8
 71
     3
 72
     8
 73
     4
 74
     0
 42
0.0000000001
 43
0.0000000001
 40
0.0
 40
0.0
 40
0.0
 40
0.0
 40
1.0
 40
1.0
 40
1.0
 40
1.0
 10
4820.24132611111
 20
2293.766261666667
 30
0.0
 10
4820.350934166666
 20
2293.155603333334
 30
0.0
 10
4820.350934166666
 20
2292.572003055555
 30
0.0
 10
4820.24132611111
 20
2291.961344722222
 30
0.0
  0
SPLINE
  5
EB
330
1F
100
AcDbEntity
  8
Linee visibili 2D
100
AcDbSpline
210
0.0
220
0.0
230
1.0
 70
     8
 71
     3
 72
     8
 73
     4
 74
     0
 42
0.0000000001
 43
0.0000000001
 40
0.0
 40
0.0
 40
0.0
 40
0.0
 40
1.0
 40
1.0
 40
1.0
 40
1.0
 10
4820.24132611111
 20
2291.961344722222
 30
0.0
 10
4820.223440277778
 20
2291.867682222222
 30
0.0
 10
4820.184564166666
 20
2291.799596111111
 30
0.0
 10
4820.112985555556
 20
2291.73659
 30
0.0
  0
SPLINE
  5
EC
330
1F
100
AcDbEntity
  8
Linee visibili 2D
100
AcDbSpline
210
0.0
220
0.0
230
1.0
 70
     8
 71
     3
 72
     8
 73
     4
 74
     0
 42
0.0000000001
 43
0.0000000001
 40
0.0
 40
0.0
 40
0.0
 40
0.0
 40
1.0
 40
1.0
 40
1.0
 40
1.0
 10
4819.571542222222
 20
2291.530497222222
 30
0.0
 10
4818.543688888888
 20
2292.122211388889
 30
0.0
 10
4818.543688888888
 20
2293.605395
 30
0.0
 10
4819.571542222222
 20
2294.197109166667
 30
0.0
  0
SPLINE
  5
ED
330
1F
100
AcDbEntity
  8
Linee visibili 2D
100
AcDbSpline
210
0.0
220
0.0
230
1.0
 70
     8
 71
     3
 72
     8
 73
     4
 74
     0
 42
0.0000000001
 43
0.0000000001
 40
0.0
 40
0.0
 40
0.0
 40
0.0
 40
1.0
 40
1.0
 40
1.0
 40
1.0
 10
4820.365186388888
 20
2291.7531
 30
0.0
 10
4820.209717222223
 20
2291.469643055556
 30
0.0
 10
4819.851718333332
 20
2291.369207222222
 30
0.0
 10
4819.571542222222
 20
2291.530497222222
 30
0.0
  0
LINE
  5
EE
330
1F
100
AcDbEntity
  8
Linee visibili 2D
100
AcDbLine
 10
4820.389245833332
 20
2291.517691388889
 30
0.0
 11
4820.389245833332
 21
2291.746926388889
 31
0.0
  0
SPLINE
  5
EF
330
1F
100
AcDbEntity
  8
Linee visibili 2D
100
AcDbSpline
210
0.0
220
0.0
230
1.0
 70
     8
 71
     3
 72
     8
 73
     4
 74
     0
 42
0.0000000001
 43
0.0000000001
 40
0.0
 40
0.0
 40
0.0
 40
0.0
 40
1.0
 40
1.0
 40
1.0
 40
1.0
 10
4820.453345555556
 20
2291.453591666666
 30
0.0
 10
4820.40801361111
 20
2291.453591666666
 30
0.0
 10
4820.389245833332
 20
2291.472359444445
 30
0.0
 10
4820.389245833332
 20
2291.517691388889
 30
0.0
  0
LINE
  5
F0
330
1F
100
AcDbEntity
  8
Linee visibili 2D
100
AcDbLine
 10
4821.671205
 20
2291.453591666666
 30
0.0
 11
4820.453345555556
 21
2291.453591666666
 31
0.0
  0
SPLINE
  5
F1
330
1F
100
AcDbEntity
  8
Linee visibili 2D
100
AcDbSpline
210
0.0
220
0.0
230
1.0
 70
     8
 71
     3
 72
     8
 73
     4
 74
     0
 42
0.0000000001
 43
0.0000000001
 40
0.0
 40
0.0
 40
0.0
 40
0.0
 40
1.0
 40
1.0
 40
1.0
 40
1.0
 10
4821.671205
 20
2291.6422925
 30
0.0
 10
4821.780213333333
 20
2291.599077222223
 30
0.0
 10
4821.780213333333
 20
2291.496771666666
 30
0.0
 10
4821.671205
 20
2291.453591666666
 30
0.0
  0
LINE
  5
F2
330
1F
100
AcDbEntity
  8
Linee visibili 2D
100
AcDbLine
 10
4821.607105277777
 20
2291.6422925
 30
0.0
 11
4821.671205
 21
2291.6422925
 31
0.0
  0
SPLINE
  5
F3
330
1F
100
AcDbEntity
  8
Linee visibili 2D
100
AcDbSpline
210
0.0
220
0.0
230
1.0
 70
     8
 71
     3
 72
     8
 73
     4
 74
     0
 42
0.0000000001
 43
0.0000000001
 40
0.0
 40
0.0
 40
0.0
 40
0.0
 40
1.0
 40
1.0
 40
1.0
 40
1.0
 10
4821.414806111111
 20
2291.834591666666
 30
0.0
 10
4821.414806111111
 20
2291.698595833334
 30
0.0
 10
4821.471144722221
 20
2291.6422925
 30
0.0
 10
4821.607105277777
 20
2291.6422925
 30
0.0
  0
LINE
  5
F4
330
1F
100
AcDbEntity
  8
Linee visibili 2D
100
AcDbLine
 10
4821.414806111111
 20
2295.363780555556
 30
0.0
 11
4821.414806111111
 21
2291.834591666666
 31
0.0
  0
SPLINE
  5
F5
330
1F
100
AcDbEntity
  8
Linee visibili 2D
100
AcDbSpline
210
0.0
220
0.0
230
1.0
 70
     8
 71
     3
 72
     8
 73
     4
 74
     0
 42
0.0000000001
 43
0.0000000001
 40
0.0
 40
0.0
 40
0.0
 40
0.0
 40
1.0
 40
1.0
 40
1.0
 40
1.0
 10
4821.350706388888
 20
2295.427880277777
 30
0.0
 10
4821.396038333332
 20
2295.427880277777
 30
0.0
 10
4821.414806111111
 20
2295.4091125
 30
0.0
 10
4821.414806111111
 20
2295.363780555556
 30
0.0
  0
LINE
  5
F6
330
1F
100
AcDbEntity
  8
Linee visibili 2D
100
AcDbLine
 10
4820.132846944444
 20
2295.427880277777
 30
0.0
 11
4821.350706388888
 21
2295.427880277777
 31
0.0
  0
SPLINE
  5
F7
330
1F
100
AcDbEntity
  8
Linee visibili 2D
100
AcDbSpline
210
0.0
220
0.0
230
1.0
 70
     8
 71
     3
 72
     8
 73
     4
 74
     0
 42
0.0000000001
 43
0.0000000001
 40
0.0
 40
0.0
 40
0.0
 40
0.0
 40
1.0
 40
1.0
 40
1.0
 40
1.0
 10
4820.132846944444
 20
2295.299680833333
 30
0.0
 10
4820.087514999999
 20
2295.299680833333
 30
0.0
 10
4820.068747222222
 20
2295.318448611111
 30
0.0
 10
4820.068747222222
 20
2295.363780555556
 30
0.0
  0
SPLINE
  5
F8
330
1F
100
AcDbEntity
  8
Linee visibili 2D
100
AcDbSpline
210
0.0
220
0.0
230
1.0
 70
     8
 71
     3
 72
     8
 73
     4
 74
     0
 42
0.0000000001
 43
0.0000000001
 40
0.0
 40
0.0
 40
0.0
 40
0.0
 40
1.0
 40
1.0
 40
1.0
 40
1.0
 10
4820.068747222222
 20
2295.363780555556
 30
0.0
 10
4820.068747222222
 20
2295.4091125
 30
0.0
 10
4820.087514999999
 20
2295.427880277777
 30
0.0
 10
4820.132846944444
 20
2295.427880277777
 30
0.0
  0
LINE
  5
F9
330
1F
100
AcDbEntity
  8
Linee visibili 2D
100
AcDbLine
 10
4820.196946666666
 20
2295.299680833333
 30
0.0
 11
4820.132846944444
 21
2295.299680833333
 31
0.0
  0
SPLINE
  5
FA
330
1F
100
AcDbEntity
  8
Linee visibili 2D
100
AcDbSpline
210
0.0
220
0.0
230
1.0
 70
     8
 71
     3
 72
     8
 73
     4
 74
     0
 42
0.0000000001
 43
0.0000000001
 40
0.0
 40
0.0
 40
0.0
 40
0.0
 40
1.0
 40
1.0
 40
1.0
 40
1.0
 10
4820.389245833332
 20
2295.107381666667
 30
0.0
 10
4820.389245833332
 20
2295.243342222222
 30
0.0
 10
4820.332907222222
 20
2295.299680833333
 30
0.0
 10
4820.196946666666
 20
2295.299680833333
 30
0.0
  0
LINE
  5
FB
330
1F
100
AcDbEntity
  8
Linee visibili 2D
100
AcDbLine
 10
4820.389245833332
 20
2293.98068
 30
0.0
 11
4820.389245833332
 21
2295.107381666667
 31
0.0
  0
SPLINE
  5
FC
330
1F
100
AcDbEntity
  8
Linee visibili 2D
100
AcDbSpline
210
0.0
220
0.0
230
1.0
 70
     8
 71
     3
 72
     8
 73
     4
 74
     0
 42
0.0000000001
 43
0.0000000001
 40
0.0
 40
0.0
 40
0.0
 40
0.0
 40
1.0
 40
1.0
 40
1.0
 40
1.0
 10
4820.365186388888
 20
2293.974506388889
 30
0.0
 10
4820.246511944444
 20
2294.190935555556
 30
0.0
 10
4820.106176944444
 20
2294.27405
 30
0.0
 10
4819.859338333333
 20
2294.27405
 30
0.0
  0
SPLINE
  5
FD
330
1F
100
AcDbEntity
  8
Linee visibili 2D
100
AcDbSpline
210
0.0
220
0.0
230
1.0
 70
     8
 71
     3
 72
     8
 73
     4
 74
     0
 42
0.0000000001
 43
0.0000000001
 40
0.0
 40
0.0
 40
0.0
 40
0.0
 40
1.0
 40
1.0
 40
1.0
 40
1.0
 10
4819.859338333333
 20
2294.27405
 30
0.0
 10
4819.753434444444
 20
2294.27405
 30
0.0
 10
4819.663334999999
 20
2294.249955277777
 30
0.0
 10
4819.571542222222
 20
2294.197109166667
 30
0.0
  0
SPLINE
  5
FE
330
1F
100
AcDbEntity
  8
Linee visibili 2D
100
AcDbSpline
210
0.0
220
0.0
230
1.0
 70
     8
 71
     3
 72
     8
 73
     4
 74
     0
 42
0.0000000001
 43
0.0000000001
 40
0.0
 40
0.0
 40
0.0
 40
0.0
 40
1.0
 40
1.0
 40
1.0
 40
1.0
 10
4820.112985555556
 20
2291.73659
 30
0.0
 10
4820.057211388888
 20
2291.700112777778
 30
0.0
 10
4820.017206388889
 20
2291.715917222222
 30
0.0
 10
4820.001437222221
 20
2291.780651944444
 30
0.0
  0
LINE
  5
FF
330
1F
100
AcDbEntity
  8
Linee visibili 2D
100
AcDbLine
 10
4815.389502777778
 20
2291.770491944444
 30
0.0
 11
4815.389502777778
 21
2293.508416388889
 31
0.0
  0
SPLINE
  5
100
330
1F
100
AcDbEntity
  8
Linee visibili 2D
100
AcDbSpline
210
0.0
220
0.0
230
1.0
 70
     8
 71
     3
 72
     8
 73
     4
 74
     0
 42
0.0000000001
 43
0.0000000001
 40
0.0
 40
0.0
 40
0.0
 40
0.0
 40
1.0
 40
1.0
 40
1.0
 40
1.0
 10
4815.389502777778
 20
2293.508416388889
 30
0.0
 10
4815.397934166666
 20
2293.763157222223
 30
0.0
 10
4815.494806944443
 20
2293.883101666667
 30
0.0
 10
4815.742068888887
 20
2293.944908333333
 30
0.0
  0
SPLINE
  5
101
330
1F
100
AcDbEntity
  8
Linee visibili 2D
100
AcDbSpline
210
0.0
220
0.0
230
1.0
 70
     8
 71
     3
 72
     8
 73
     4
 74
     0
 42
0.0000000001
 43
0.0000000001
 40
0.0
 40
0.0
 40
0.0
 40
0.0
 40
1.0
 40
1.0
 40
1.0
 40
1.0
 10
4815.742068888887
 20
2293.944908333333
 30
0.0
 10
4815.883250555555
 20
2293.949776666666
 30
0.0
 10
4815.946644722222
 20
2293.896577777778
 30
0.0
 10
4815.966400277777
 20
2293.756701388889
 30
0.0
  0
LINE
  5
102
330
1F
100
AcDbEntity
  8
Linee visibili 2D
100
AcDbLine
 10
4815.966400277777
 20
2293.756701388889
 30
0.0
 11
4815.966400277777
 21
2291.770491944444
 31
0.0
  0
SPLINE
  5
103
330
1F
100
AcDbEntity
  8
Linee visibili 2D
100
AcDbSpline
210
0.0
220
0.0
230
1.0
 70
     8
 71
     3
 72
     8
 73
     4
 74
     0
 42
0.0000000001
 43
0.0000000001
 40
0.0
 40
0.0
 40
0.0
 40
0.0
 40
1.0
 40
1.0
 40
1.0
 40
1.0
 10
4815.966400277777
 20
2291.770491944444
 30
0.0
 10
4815.966400277777
 20
2291.679828055555
 30
0.0
 10
4815.928864722222
 20
2291.6422925
 30
0.0
 10
4815.838200833333
 20
2291.6422925
 30
0.0
  0
LINE
  5
104
330
1F
100
AcDbEntity
  8
Linee visibili 2D
100
AcDbLine
 10
4815.838200833333
 20
2291.6422925
 30
0.0
 11
4815.517702222223
 21
2291.6422925
 31
0.0
  0
LINE
  5
105
330
1F
100
AcDbEntity
  8
Linee visibili 2D
100
AcDbLine
 10
4813.787045
 20
2293.508416388889
 30
0.0
 11
4813.787045
 21
2291.770491944444
 31
0.0
  0
SPLINE
  5
106
330
1F
100
AcDbEntity
  8
Linee visibili 2D
100
AcDbSpline
210
0.0
220
0.0
230
1.0
 70
     8
 71
     3
 72
     8
 73
     4
 74
     0
 42
0.0000000001
 43
0.0000000001
 40
0.0
 40
0.0
 40
0.0
 40
0.0
 40
1.0
 40
1.0
 40
1.0
 40
1.0
 10
4814.139575833333
 20
2293.944908333333
 30
0.0
 10
4813.892313888889
 20
2293.883101666667
 30
0.0
 10
4813.795441111111
 20
2293.763157222223
 30
0.0
 10
4813.787045
 20
2293.508416388889
 30
0.0
  0
SPLINE
  5
107
330
1F
100
AcDbEntity
  8
Linee visibili 2D
100
AcDbSpline
210
0.0
220
0.0
230
1.0
 70
     8
 71
     3
 72
     8
 73
     4
 74
     0
 42
0.0000000001
 43
0.0000000001
 40
0.0
 40
0.0
 40
0.0
 40
0.0
 40
1.0
 40
1.0
 40
1.0
 40
1.0
 10
4814.363907222221
 20
2293.756701388889
 30
0.0
 10
4814.344186944444
 20
2293.896577777778
 30
0.0
 10
4814.2807575
 20
2293.949776666666
 30
0.0
 10
4814.139575833333
 20
2293.944908333333
 30
0.0
  0
LINE
  5
108
330
1F
100
AcDbEntity
  8
Linee visibili 2D
100
AcDbLine
 10
4814.363907222221
 20
2291.770491944444
 30
0.0
 11
4814.363907222221
 21
2293.756701388889
 31
0.0
  0
SPLINE
  5
109
330
1F
100
AcDbEntity
  8
Linee visibili 2D
100
AcDbSpline
210
0.0
220
0.0
230
1.0
 70
     8
 71
     3
 72
     8
 73
     4
 74
     0
 42
0.0000000001
 43
0.0000000001
 40
0.0
 40
0.0
 40
0.0
 40
0.0
 40
1.0
 40
1.0
 40
1.0
 40
1.0
 10
4814.235707777778
 20
2291.6422925
 30
0.0
 10
4814.326371666666
 20
2291.6422925
 30
0.0
 10
4814.363907222221
 20
2291.679828055555
 30
0.0
 10
4814.363907222221
 20
2291.770491944444
 30
0.0
  0
LINE
  5
10A
330
1F
100
AcDbEntity
  8
Linee visibili 2D
100
AcDbLine
 10
4813.915244444444
 20
2291.6422925
 30
0.0
 11
4814.235707777778
 21
2291.6422925
 31
0.0
  0
SPLINE
  5
10B
330
1F
100
AcDbEntity
  8
Linee visibili 2D
100
AcDbSpline
210
0.0
220
0.0
230
1.0
 70
     8
 71
     3
 72
     8
 73
     4
 74
     0
 42
0.0000000001
 43
0.0000000001
 40
0.0
 40
0.0
 40
0.0
 40
0.0
 40
1.0
 40
1.0
 40
1.0
 40
1.0
 10
4812.505050555555
 20
2291.453591666666
 30
0.0
 10
4812.45971861111
 20
2291.453591666666
 30
0.0
 10
4812.440950833333
 20
2291.472359444445
 30
0.0
 10
4812.440950833333
 20
2291.517691388889
 30
0.0
  0
SPLINE
  5
10C
330
1F
100
AcDbEntity
  8
Linee visibili 2D
100
AcDbSpline
210
0.0
220
0.0
230
1.0
 70
     8
 71
     3
 72
     8
 73
     4
 74
     0
 42
0.0000000001
 43
0.0000000001
 40
0.0
 40
0.0
 40
0.0
 40
0.0
 40
1.0
 40
1.0
 40
1.0
 40
1.0
 10
4812.440950833333
 20
2291.517691388889
 30
0.0
 10
4812.440950833333
 20
2291.563023333333
 30
0.0
 10
4812.45971861111
 20
2291.581791111111
 30
0.0
 10
4812.505050555555
 20
2291.581791111111
 30
0.0
  0
LINE
  5
10D
330
1F
100
AcDbEntity
  8
Linee visibili 2D
100
AcDbLine
 10
4818.850852499999
 20
2291.453591666666
 30
0.0
 11
4812.505050555555
 21
2291.453591666666
 31
0.0
  0
SPLINE
  5
10E
330
1F
100
AcDbEntity
  8
Linee visibili 2D
100
AcDbSpline
210
0.0
220
0.0
230
1.0
 70
     8
 71
     3
 72
     8
 73
     4
 74
     0
 42
0.0000000001
 43
0.0000000001
 40
0.0
 40
0.0
 40
0.0
 40
0.0
 40
1.0
 40
1.0
 40
1.0
 40
1.0
 10
4818.850852499999
 20
2291.6422925
 30
0.0
 10
4818.959860833333
 20
2291.599077222223
 30
0.0
 10
4818.959860833333
 20
2291.496771666666
 30
0.0
 10
4818.850852499999
 20
2291.453591666666
 30
0.0
  0
LINE
  5
10F
330
1F
100
AcDbEntity
  8
Linee visibili 2D
100
AcDbLine
 10
4818.722653055555
 20
2291.6422925
 30
0.0
 11
4818.850852499999
 21
2291.6422925
 31
0.0
  0
SPLINE
  5
110
330
1F
100
AcDbEntity
  8
Linee visibili 2D
100
AcDbSpline
210
0.0
220
0.0
230
1.0
 70
     8
 71
     3
 72
     8
 73
     4
 74
     0
 42
0.0000000001
 43
0.0000000001
 40
0.0
 40
0.0
 40
0.0
 40
0.0
 40
1.0
 40
1.0
 40
1.0
 40
1.0
 10
4818.594453611111
 20
2291.770491944444
 30
0.0
 10
4818.594453611111
 20
2291.679828055555
 30
0.0
 10
4818.632024444444
 20
2291.6422925
 30
0.0
 10
4818.722653055555
 20
2291.6422925
 30
0.0
  0
LINE
  5
111
330
1F
100
AcDbEntity
  8
Linee visibili 2D
100
AcDbLine
 10
4818.594453611111
 20
2294.081750833333
 30
0.0
 11
4818.594453611111
 21
2291.770491944444
 31
0.0
  0
SPLINE
  5
112
330
1F
100
AcDbEntity
  8
Linee visibili 2D
100
AcDbSpline
210
0.0
220
0.0
230
1.0
 70
     8
 71
     3
 72
     8
 73
     4
 74
     0
 42
0.0000000001
 43
0.0000000001
 40
0.0
 40
0.0
 40
0.0
 40
0.0
 40
1.0
 40
1.0
 40
1.0
 40
1.0
 10
4818.530353888888
 20
2294.145850555556
 30
0.0
 10
4818.575685833334
 20
2294.145850555556
 30
0.0
 10
4818.594453611111
 20
2294.127082777777
 30
0.0
 10
4818.594453611111
 20
2294.081750833333
 30
0.0
  0
LINE
  5
113
330
1F
100
AcDbEntity
  8
Linee visibili 2D
100
AcDbLine
 10
4817.312494444444
 20
2294.145850555556
 30
0.0
 11
4818.530353888888
 21
2294.145850555556
 31
0.0
  0
SPLINE
  5
114
330
1F
100
AcDbEntity
  8
Linee visibili 2D
100
AcDbSpline
210
0.0
220
0.0
230
1.0
 70
     8
 71
     3
 72
     8
 73
     4
 74
     0
 42
0.0000000001
 43
0.0000000001
 40
0.0
 40
0.0
 40
0.0
 40
0.0
 40
1.0
 40
1.0
 40
1.0
 40
1.0
 10
4817.312494444444
 20
2294.017651111111
 30
0.0
 10
4817.267162500001
 20
2294.017651111111
 30
0.0
 10
4817.248394722222
 20
2294.036418888889
 30
0.0
 10
4817.248394722222
 20
2294.081750833333
 30
0.0
  0
SPLINE
  5
115
330
1F
100
AcDbEntity
  8
Linee visibili 2D
100
AcDbSpline
210
0.0
220
0.0
230
1.0
 70
     8
 71
     3
 72
     8
 73
     4
 74
     0
 42
0.0000000001
 43
0.0000000001
 40
0.0
 40
0.0
 40
0.0
 40
0.0
 40
1.0
 40
1.0
 40
1.0
 40
1.0
 10
4817.248394722222
 20
2294.081750833333
 30
0.0
 10
4817.248394722222
 20
2294.127082777777
 30
0.0
 10
4817.267162500001
 20
2294.145850555556
 30
0.0
 10
4817.312494444444
 20
2294.145850555556
 30
0.0
  0
LINE
  5
116
330
1F
100
AcDbEntity
  8
Linee visibili 2D
100
AcDbLine
 10
4817.376594166666
 20
2294.017651111111
 30
0.0
 11
4817.312494444444
 21
2294.017651111111
 31
0.0
  0
SPLINE
  5
117
330
1F
100
AcDbEntity
  8
Linee visibili 2D
100
AcDbSpline
210
0.0
220
0.0
230
1.0
 70
     8
 71
     3
 72
     8
 73
     4
 74
     0
 42
0.0000000001
 43
0.0000000001
 40
0.0
 40
0.0
 40
0.0
 40
0.0
 40
1.0
 40
1.0
 40
1.0
 40
1.0
 10
4817.568858055555
 20
2293.825351944445
 30
0.0
 10
4817.568893333334
 20
2293.9613125
 30
0.0
 10
4817.512554722221
 20
2294.017651111111
 30
0.0
 10
4817.376594166666
 20
2294.017651111111
 30
0.0
  0
LINE
  5
118
330
1F
100
AcDbEntity
  8
Linee visibili 2D
100
AcDbLine
 10
4817.568858055555
 20
2291.834591666666
 30
0.0
 11
4817.568858055555
 21
2293.825351944445
 31
0.0
  0
SPLINE
  5
119
330
1F
100
AcDbEntity
  8
Linee visibili 2D
100
AcDbSpline
210
0.0
220
0.0
230
1.0
 70
     8
 71
     3
 72
     8
 73
     4
 74
     0
 42
0.0000000001
 43
0.0000000001
 40
0.0
 40
0.0
 40
0.0
 40
0.0
 40
1.0
 40
1.0
 40
1.0
 40
1.0
 10
4817.376594166666
 20
2291.6422925
 30
0.0
 10
4817.512554722221
 20
2291.6422925
 30
0.0
 10
4817.568893333334
 20
2291.698595833334
 30
0.0
 10
4817.568858055555
 20
2291.834591666666
 30
0.0
  0
LINE
  5
11A
330
1F
100
AcDbEntity
  8
Linee visibili 2D
100
AcDbLine
 10
4817.120195277778
 20
2291.6422925
 30
0.0
 11
4817.376594166666
 21
2291.6422925
 31
0.0
  0
SPLINE
  5
11B
330
1F
100
AcDbEntity
  8
Linee visibili 2D
100
AcDbSpline
210
0.0
220
0.0
230
1.0
 70
     8
 71
     3
 72
     8
 73
     4
 74
     0
 42
0.0000000001
 43
0.0000000001
 40
0.0
 40
0.0
 40
0.0
 40
0.0
 40
1.0
 40
1.0
 40
1.0
 40
1.0
 10
4816.991995833333
 20
2291.770491944444
 30
0.0
 10
4816.991995833333
 20
2291.679828055555
 30
0.0
 10
4817.02953138889
 20
2291.6422925
 30
0.0
 10
4817.120195277778
 20
2291.6422925
 30
0.0
  0
LINE
  5
11C
330
1F
100
AcDbEntity
  8
Linee visibili 2D
100
AcDbLine
 10
4816.991995833333
 20
2293.568847222222
 30
0.0
 11
4816.991995833333
 21
2291.770491944444
 31
0.0
  0
SPLINE
  5
11D
330
1F
100
AcDbEntity
  8
Linee visibili 2D
100
AcDbSpline
210
0.0
220
0.0
230
1.0
 70
     8
 71
     3
 72
     8
 73
     4
 74
     0
 42
0.0000000001
 43
0.0000000001
 40
0.0
 40
0.0
 40
0.0
 40
0.0
 40
1.0
 40
1.0
 40
1.0
 40
1.0
 10
4816.847744999999
 20
2293.9505175
 30
0.0
 10
4816.948921666666
 20
2293.835758888889
 30
0.0
 10
4816.991995833333
 20
2293.721846944444
 30
0.0
 10
4816.991995833333
 20
2293.568847222222
 30
0.0
  0
SPLINE
  5
11E
330
1F
100
AcDbEntity
  8
Linee visibili 2D
100
AcDbSpline
210
0.0
220
0.0
230
1.0
 70
     8
 71
     3
 72
     8
 73
     4
 74
     0
 42
0.0000000001
 43
0.0000000001
 40
0.0
 40
0.0
 40
0.0
 40
0.0
 40
1.0
 40
1.0
 40
1.0
 40
1.0
 10
4816.847744999999
 20
2293.9505175
 30
0.0
 10
4816.643768888888
 20
2294.181763333333
 30
0.0
 10
4816.434994999999
 20
2294.276025555555
 30
0.0
 10
4816.126631944444
 20
2294.276025555555
 30
0.0
  0
SPLINE
  5
11F
330
1F
100
AcDbEntity
  8
Linee visibili 2D
100
AcDbSpline
210
0.0
220
0.0
230
1.0
 70
     8
 71
     3
 72
     8
 73
     4
 74
     0
 42
0.0000000001
 43
0.0000000001
 40
0.0
 40
0.0
 40
0.0
 40
0.0
 40
1.0
 40
1.0
 40
1.0
 40
1.0
 10
4816.126631944444
 20
2294.276025555555
 30
0.0
 10
4815.762600555555
 20
2294.276025555555
 30
0.0
 10
4815.538868888889
 20
2294.158056666667
 30
0.0
 10
4815.333234722221
 20
2293.857666388888
 30
0.0
  0
SPLINE
  5
120
330
1F
100
AcDbEntity
  8
Linee visibili 2D
100
AcDbSpline
210
0.0
220
0.0
230
1.0
 70
     8
 71
     3
 72
     8
 73
     4
 74
     0
 42
0.0000000001
 43
0.0000000001
 40
0.0
 40
0.0
 40
0.0
 40
0.0
 40
1.0
 40
1.0
 40
1.0
 40
1.0
 10
4815.2453225
 20
2293.950482222222
 30
0.0
 10
4815.270546111111
 20
2293.921871944444
 30
0.0
 10
4815.292418333333
 20
2293.891497777778
 30
0.0
 10
4815.311574166666
 20
2293.858477777777
 30
0.0
  0
SPLINE
  5
121
330
1F
100
AcDbEntity
  8
Linee visibili 2D
100
AcDbSpline
210
0.0
220
0.0
230
1.0
 70
     8
 71
     3
 72
     8
 73
     4
 74
     0
 42
0.0000000001
 43
0.0000000001
 40
0.0
 40
0.0
 40
0.0
 40
0.0
 40
1.0
 40
1.0
 40
1.0
 40
1.0
 10
4815.2453225
 20
2293.950482222222
 30
0.0
 10
4815.041346388889
 20
2294.181833888889
 30
0.0
 10
4814.8325725
 20
2294.276096111111
 30
0.0
 10
4814.524138888888
 20
2294.276096111111
 30
0.0
  0
SPLINE
  5
122
330
1F
100
AcDbEntity
  8
Linee visibili 2D
100
AcDbSpline
210
0.0
220
0.0
230
1.0
 70
     8
 71
     3
 72
     8
 73
     4
 74
     0
 42
0.0000000001
 43
0.0000000001
 40
0.0
 40
0.0
 40
0.0
 40
0.0
 40
1.0
 40
1.0
 40
1.0
 40
1.0
 10
4814.524138888888
 20
2294.276096111111
 30
0.0
 10
4814.220115000001
 20
2294.276096111111
 30
0.0
 10
4814.012716944444
 20
2294.183668333333
 30
0.0
 10
4813.809375833333
 20
2293.957678888889
 30
0.0
  0
LINE
  5
123
330
1F
100
AcDbEntity
  8
Linee visibili 2D
100
AcDbLine
 10
4813.787045
 20
2294.081750833333
 30
0.0
 11
4813.787045
 21
2293.966251388889
 31
0.0
  0
SPLINE
  5
124
330
1F
100
AcDbEntity
  8
Linee visibili 2D
100
AcDbSpline
210
0.0
220
0.0
230
1.0
 70
     8
 71
     3
 72
     8
 73
     4
 74
     0
 42
0.0000000001
 43
0.0000000001
 40
0.0
 40
0.0
 40
0.0
 40
0.0
 40
1.0
 40
1.0
 40
1.0
 40
1.0
 10
4813.722945277778
 20
2294.145850555556
 30
0.0
 10
4813.768241944444
 20
2294.145850555556
 30
0.0
 10
4813.787045
 20
2294.127082777777
 30
0.0
 10
4813.787045
 20
2294.081750833333
 30
0.0
  0
LINE
  5
125
330
1F
100
AcDbEntity
  8
Linee visibili 2D
100
AcDbLine
 10
4812.505050555555
 20
2294.145850555556
 30
0.0
 11
4813.722945277778
 21
2294.145850555556
 31
0.0
  0
SPLINE
  5
126
330
1F
100
AcDbEntity
  8
Linee visibili 2D
100
AcDbSpline
210
0.0
220
0.0
230
1.0
 70
     8
 71
     3
 72
     8
 73
     4
 74
     0
 42
0.0000000001
 43
0.0000000001
 40
0.0
 40
0.0
 40
0.0
 40
0.0
 40
1.0
 40
1.0
 40
1.0
 40
1.0
 10
4812.505050555555
 20
2294.017651111111
 30
0.0
 10
4812.45971861111
 20
2294.017651111111
 30
0.0
 10
4812.440950833333
 20
2294.036418888889
 30
0.0
 10
4812.440950833333
 20
2294.081750833333
 30
0.0
  0
SPLINE
  5
127
330
1F
100
AcDbEntity
  8
Linee visibili 2D
100
AcDbSpline
210
0.0
220
0.0
230
1.0
 70
     8
 71
     3
 72
     8
 73
     4
 74
     0
 42
0.0000000001
 43
0.0000000001
 40
0.0
 40
0.0
 40
0.0
 40
0.0
 40
1.0
 40
1.0
 40
1.0
 40
1.0
 10
4812.440950833333
 20
2294.081750833333
 30
0.0
 10
4812.440950833333
 20
2294.127082777777
 30
0.0
 10
4812.45971861111
 20
2294.145850555556
 30
0.0
 10
4812.505050555555
 20
2294.145850555556
 30
0.0
  0
LINE
  5
128
330
1F
100
AcDbEntity
  8
Linee visibili 2D
100
AcDbLine
 10
4812.569150277777
 20
2294.017651111111
 30
0.0
 11
4812.505050555555
 21
2294.017651111111
 31
0.0
  0
SPLINE
  5
129
330
1F
100
AcDbEntity
  8
Linee visibili 2D
100
AcDbSpline
210
0.0
220
0.0
230
1.0
 70
     8
 71
     3
 72
     8
 73
     4
 74
     0
 42
0.0000000001
 43
0.0000000001
 40
0.0
 40
0.0
 40
0.0
 40
0.0
 40
1.0
 40
1.0
 40
1.0
 40
1.0
 10
4812.761449444444
 20
2293.825351944445
 30
0.0
 10
4812.761449444444
 20
2293.9613125
 30
0.0
 10
4812.705110833333
 20
2294.017651111111
 30
0.0
 10
4812.569150277777
 20
2294.017651111111
 30
0.0
  0
LINE
  5
12A
330
1F
100
AcDbEntity
  8
Linee visibili 2D
100
AcDbLine
 10
4812.761449444444
 20
2291.774090277778
 30
0.0
 11
4812.761449444444
 21
2293.825351944445
 31
0.0
  0
SPLINE
  5
12B
330
1F
100
AcDbEntity
  8
Linee visibili 2D
100
AcDbSpline
210
0.0
220
0.0
230
1.0
 70
     8
 71
     3
 72
     8
 73
     4
 74
     0
 42
0.0000000001
 43
0.0000000001
 40
0.0
 40
0.0
 40
0.0
 40
0.0
 40
1.0
 40
1.0
 40
1.0
 40
1.0
 10
4812.569150277777
 20
2291.581791111111
 30
0.0
 10
4812.705110833333
 20
2291.581791111111
 30
0.0
 10
4812.761449444444
 20
2291.638094444444
 30
0.0
 10
4812.761449444444
 20
2291.774090277778
 30
0.0
  0
SPLINE
  5
12C
330
1F
100
AcDbEntity
  8
Linee visibili 2D
100
AcDbSpline
210
0.0
220
0.0
230
1.0
 70
     8
 71
     3
 72
     8
 73
     4
 74
     0
 42
0.0000000001
 43
0.0000000001
 40
0.0
 40
0.0
 40
0.0
 40
0.0
 40
1.0
 40
1.0
 40
1.0
 40
1.0
 10
4813.787045
 20
2291.770491944444
 30
0.0
 10
4813.787045
 20
2291.679828055555
 30
0.0
 10
4813.824580555555
 20
2291.6422925
 30
0.0
 10
4813.915244444444
 20
2291.6422925
 30
0.0
  0
LINE
  5
12D
330
1F
100
AcDbEntity
  8
Linee visibili 2D
100
AcDbLine
 10
4812.505050555555
 20
2291.581791111111
 30
0.0
 11
4812.569150277777
 21
2291.581791111111
 31
0.0
  0
SPLINE
  5
12E
330
1F
100
AcDbEntity
  8
Linee visibili 2D
100
AcDbSpline
210
0.0
220
0.0
230
1.0
 70
     8
 71
     3
 72
     8
 73
     4
 74
     0
 42
0.0000000001
 43
0.0000000001
 40
0.0
 40
0.0
 40
0.0
 40
0.0
 40
1.0
 40
1.0
 40
1.0
 40
1.0
 10
4815.389502777778
 20
2291.770491944444
 30
0.0
 10
4815.389502777778
 20
2291.679828055555
 30
0.0
 10
4815.427038333332
 20
2291.6422925
 30
0.0
 10
4815.517702222223
 20
2291.6422925
 30
0.0
  0
LINE
  5
12F
330
1F
100
AcDbEntity
  8
Linee visibili 2D
100
AcDbLine
 10
4824.340674444443
 20
2294.6267925
 30
0.0
 11
4824.340674444443
 21
2295.199033333334
 31
0.0
  0
LINE
  5
130
330
1F
100
AcDbEntity
  8
Linee visibili 2D
100
AcDbLine
 10
4824.340674444443
 20
2295.199033333334
 30
0.0
 11
4824.588747777777
 21
2295.199033333334
 31
0.0
  0
LINE
  5
131
330
1F
100
AcDbEntity
  8
Linee visibili 2D
100
AcDbLine
 10
4824.588747777777
 20
2295.199033333334
 30
0.0
 11
4824.686326111112
 21
2295.132640555555
 31
0.0
  0
LINE
  5
132
330
1F
100
AcDbEntity
  8
Linee visibili 2D
100
AcDbLine
 10
4824.686326111112
 20
2295.132640555555
 30
0.0
 11
4824.686326111112
 21
2294.938930277778
 31
0.0
  0
LINE
  5
133
330
1F
100
AcDbEntity
  8
Linee visibili 2D
100
AcDbLine
 10
4824.686326111112
 20
2294.938930277778
 30
0.0
 11
4824.610549444445
 21
2294.885096388889
 31
0.0
  0
LINE
  5
134
330
1F
100
AcDbEntity
  8
Linee visibili 2D
100
AcDbLine
 10
4824.610549444445
 20
2294.885096388889
 30
0.0
 11
4824.683927222221
 21
2294.630390833333
 31
0.0
  0
LINE
  5
135
330
1F
100
AcDbEntity
  8
Linee visibili 2D
100
AcDbLine
 10
4824.585396388888
 20
2294.885096388889
 30
0.0
 11
4824.364874999999
 21
2294.885096388889
 31
0.0
  0
SPLINE
  5
136
330
1F
100
AcDbEntity
  8
Linee visibili 2D
100
AcDbSpline
210
0.0
220
0.0
230
1.0
 70
     8
 71
     3
 72
     8
 73
     4
 74
     0
 42
0.0000000001
 43
0.0000000001
 40
0.0
 40
0.0
 40
0.0
 40
0.0
 40
1.0
 40
1.0
 40
1.0
 40
1.0
 10
4824.508385
 20
2294.347321944444
 30
0.0
 10
4824.206301388888
 20
2294.347321944444
 30
0.0
 10
4823.961438333333
 20
2294.592220277777
 30
0.0
 10
4823.961438333333
 20
2294.894303888889
 30
0.0
  0
SPLINE
  5
137
330
1F
100
AcDbEntity
  8
Linee visibili 2D
100
AcDbSpline
210
0.0
220
0.0
230
1.0
 70
     8
 71
     3
 72
     8
 73
     4
 74
     0
 42
0.0000000001
 43
0.0000000001
 40
0.0
 40
0.0
 40
0.0
 40
0.0
 40
1.0
 40
1.0
 40
1.0
 40
1.0
 10
4823.961438333333
 20
2294.894303888889
 30
0.0
 10
4823.961438333333
 20
2295.1963875
 30
0.0
 10
4824.206301388888
 20
2295.441285833333
 30
0.0
 10
4824.508385
 20
2295.441285833333
 30
0.0
  0
SPLINE
  5
138
330
1F
100
AcDbEntity
  8
Linee visibili 2D
100
AcDbSpline
210
0.0
220
0.0
230
1.0
 70
     8
 71
     3
 72
     8
 73
     4
 74
     0
 42
0.0000000001
 43
0.0000000001
 40
0.0
 40
0.0
 40
0.0
 40
0.0
 40
1.0
 40
1.0
 40
1.0
 40
1.0
 10
4824.508385
 20
2295.441285833333
 30
0.0
 10
4824.810503888888
 20
2295.441285833333
 30
0.0
 10
4825.055366944444
 20
2295.1963875
 30
0.0
 10
4825.055366944444
 20
2294.894303888889
 30
0.0
  0
SPLINE
  5
139
330
1F
100
AcDbEntity
  8
Linee visibili 2D
100
AcDbSpline
210
0.0
220
0.0
230
1.0
 70
     8
 71
     3
 72
     8
 73
     4
 74
     0
 42
0.0000000001
 43
0.0000000001
 40
0.0
 40
0.0
 40
0.0
 40
0.0
 40
1.0
 40
1.0
 40
1.0
 40
1.0
 10
4825.055366944444
 20
2294.894303888889
 30
0.0
 10
4825.055366944444
 20
2294.592220277777
 30
0.0
 10
4824.810468611111
 20
2294.347321944444
 30
0.0
 10
4824.508385
 20
2294.347321944444
 30
0.0
  0
SPLINE
  5
13A
330
1F
100
AcDbEntity
  8
Linee visibili 2D
100
AcDbSpline
210
0.0
220
0.0
230
1.0
 70
     8
 71
     3
 72
     8
 73
     4
 74
     0
 42
0.0000000001
 43
0.0000000001
 40
0.0
 40
0.0
 40
0.0
 40
0.0
 40
1.0
 40
1.0
 40
1.0
 40
1.0
 10
4811.097079166666
 20
2293.861688055556
 30
0.0
 10
4811.058979166666
 20
2293.613085555556
 30
0.0
 10
4811.035695833333
 20
2293.364377222222
 30
0.0
 10
4811.026982222222
 20
2293.113023055556
 30
0.0
  0
SPLINE
  5
13B
330
1F
100
AcDbEntity
  8
Linee visibili 2D
100
AcDbSpline
210
0.0
220
0.0
230
1.0
 70
     8
 71
     3
 72
     8
 73
     4
 74
     0
 42
0.0000000001
 43
0.0000000001
 40
0.0
 40
0.0
 40
0.0
 40
0.0
 40
1.0
 40
1.0
 40
1.0
 40
1.0
 10
4811.477267777777
 20
2293.861688055556
 30
0.0
 10
4811.459240833332
 20
2293.979233611111
 30
0.0
 10
4811.4061125
 20
2294.024847777777
 30
0.0
 10
4811.287191111111
 20
2294.024847777777
 30
0.0
  0
SPLINE
  5
13C
330
1F
100
AcDbEntity
  8
Linee visibili 2D
100
AcDbSpline
210
0.0
220
0.0
230
1.0
 70
     8
 71
     3
 72
     8
 73
     4
 74
     0
 42
0.0000000001
 43
0.0000000001
 40
0.0
 40
0.0
 40
0.0
 40
0.0
 40
1.0
 40
1.0
 40
1.0
 40
1.0
 10
4811.287191111111
 20
2294.024847777777
 30
0.0
 10
4811.168234444444
 20
2294.024847777777
 30
0.0
 10
4811.115106111111
 20
2293.979233611111
 30
0.0
 10
4811.097079166666
 20
2293.861688055556
 30
0.0
  0
SPLINE
  5
13D
330
1F
100
AcDbEntity
  8
Linee visibili 2D
100
AcDbSpline
210
0.0
220
0.0
230
1.0
 70
     8
 71
     3
 72
     8
 73
     4
 74
     0
 42
0.0000000001
 43
0.0000000001
 40
0.0
 40
0.0
 40
0.0
 40
0.0
 40
1.0
 40
1.0
 40
1.0
 40
1.0
 10
4811.547364722222
 20
2293.113023055556
 30
0.0
 10
4811.538615833333
 20
2293.364377222222
 30
0.0
 10
4811.515332499999
 20
2293.613085555556
 30
0.0
 10
4811.477267777777
 20
2293.861688055556
 30
0.0
  0
SPLINE
  5
13E
330
1F
100
AcDbEntity
  8
Linee visibili 2D
100
AcDbSpline
210
0.0
220
0.0
230
1.0
 70
     8
 71
     3
 72
     8
 73
     4
 74
     0
 42
0.0000000001
 43
0.0000000001
 40
0.0
 40
0.0
 40
0.0
 40
0.0
 40
1.0
 40
1.0
 40
1.0
 40
1.0
 10
4810.011617222222
 20
2292.607421944444
 30
0.0
 10
4809.994366388888
 20
2292.779189444444
 30
0.0
 10
4809.994366388888
 20
2292.948452222222
 30
0.0
 10
4810.011617222222
 20
2293.120219722222
 30
0.0
  0
SPLINE
  5
13F
330
1F
100
AcDbEntity
  8
Linee visibili 2D
100
AcDbSpline
210
0.0
220
0.0
230
1.0
 70
     8
 71
     3
 72
     8
 73
     4
 74
     0
 42
0.0000000001
 43
0.0000000001
 40
0.0
 40
0.0
 40
0.0
 40
0.0
 40
1.0
 40
1.0
 40
1.0
 40
1.0
 10
4812.562765
 20
2292.607845277777
 30
0.0
 10
4812.408671666666
 20
2291.069099166667
 30
0.0
 10
4810.166239722222
 20
2291.068746388889
 30
0.0
 10
4810.011617222222
 20
2292.607421944444
 30
0.0
  0
SPLINE
  5
140
330
1F
100
AcDbEntity
  8
Linee visibili 2D
100
AcDbSpline
210
0.0
220
0.0
230
1.0
 70
     8
 71
     3
 72
     8
 73
     4
 74
     0
 42
0.0000000001
 43
0.0000000001
 40
0.0
 40
0.0
 40
0.0
 40
0.0
 40
1.0
 40
1.0
 40
1.0
 40
1.0
 10
4812.37399361111
 20
2292.617793611111
 30
0.0
 10
4812.427580555556
 20
2292.719499444444
 30
0.0
 10
4812.520184722223
 20
2292.714595833333
 30
0.0
 10
4812.562765
 20
2292.607845277777
 30
0.0
  0
SPLINE
  5
141
330
1F
100
AcDbEntity
  8
Linee visibili 2D
100
AcDbSpline
210
0.0
220
0.0
230
1.0
 70
     8
 71
     3
 72
     8
 73
     4
 74
     0
 42
0.0000000001
 43
0.0000000001
 40
0.0
 40
0.0
 40
0.0
 40
0.0
 40
1.0
 40
1.0
 40
1.0
 40
1.0
 10
4811.778751666666
 20
2291.758991388888
 30
0.0
 10
4812.160915833334
 20
2291.951396388888
 30
0.0
 10
4812.32795611111
 20
2292.192414166667
 30
0.0
 10
4812.37399361111
 20
2292.617793611111
 30
0.0
  0
SPLINE
  5
142
330
1F
100
AcDbEntity
  8
Linee visibili 2D
100
AcDbSpline
210
0.0
220
0.0
230
1.0
 70
     8
 71
     3
 72
     8
 73
     4
 74
     0
 42
0.0000000001
 43
0.0000000001
 40
0.0
 40
0.0
 40
0.0
 40
0.0
 40
1.0
 40
1.0
 40
1.0
 40
1.0
 10
4811.066034722222
 20
2292.103796388889
 30
0.0
 10
4811.157545277778
 20
2291.802982777778
 30
0.0
 10
4811.486087222221
 20
2291.644056388889
 30
0.0
 10
4811.778751666666
 20
2291.758991388888
 30
0.0
  0
SPLINE
  5
143
330
1F
100
AcDbEntity
  8
Linee visibili 2D
100
AcDbSpline
210
0.0
220
0.0
230
1.0
 70
     8
 71
     3
 72
     8
 73
     4
 74
     0
 42
0.0000000001
 43
0.0000000001
 40
0.0
 40
0.0
 40
0.0
 40
0.0
 40
1.0
 40
1.0
 40
1.0
 40
1.0
 10
4811.023172222221
 20
2292.863820833333
 30
0.0
 10
4811.022360833333
 20
2292.609185833333
 30
0.0
 10
4811.036613055555
 20
2292.356738055556
 30
0.0
 10
4811.066034722222
 20
2292.103796388889
 30
0.0
  0
LINE
  5
144
330
1F
100
AcDbEntity
  8
Linee visibili 2D
100
AcDbLine
 10
4812.503357222222
 20
2292.863820833333
 30
0.0
 11
4811.023172222221
 21
2292.863820833333
 31
0.0
  0
SPLINE
  5
145
330
1F
100
AcDbEntity
  8
Linee visibili 2D
100
AcDbSpline
210
0.0
220
0.0
230
1.0
 70
     8
 71
     3
 72
     8
 73
     4
 74
     0
 42
0.0000000001
 43
0.0000000001
 40
0.0
 40
0.0
 40
0.0
 40
0.0
 40
1.0
 40
1.0
 40
1.0
 40
1.0
 10
4812.567139444444
 20
2292.920194722222
 30
0.0
 10
4812.564740555555
 20
2292.877543888889
 30
0.0
 10
4812.545972777777
 20
2292.860963333333
 30
0.0
 10
4812.503357222222
 20
2292.863820833333
 30
0.0
  0
SPLINE
  5
146
330
1F
100
AcDbEntity
  8
Linee visibili 2D
100
AcDbSpline
210
0.0
220
0.0
230
1.0
 70
     8
 71
     3
 72
     8
 73
     4
 74
     0
 42
0.0000000001
 43
0.0000000001
 40
0.0
 40
0.0
 40
0.0
 40
0.0
 40
1.0
 40
1.0
 40
1.0
 40
1.0
 10
4812.567139444444
 20
2292.920194722222
 30
0.0
 10
4812.608414444444
 20
2293.655313055555
 30
0.0
 10
4812.023473611111
 20
2294.27405
 30
0.0
 10
4811.287191111111
 20
2294.27405
 30
0.0
  0
SPLINE
  5
147
330
1F
100
AcDbEntity
  8
Linee visibili 2D
100
AcDbSpline
210
0.0
220
0.0
230
1.0
 70
     8
 71
     3
 72
     8
 73
     4
 74
     0
 42
0.0000000001
 43
0.0000000001
 40
0.0
 40
0.0
 40
0.0
 40
0.0
 40
1.0
 40
1.0
 40
1.0
 40
1.0
 10
4811.287191111111
 20
2294.27405
 30
0.0
 10
4810.628766666666
 20
2294.27405
 30
0.0
 10
4810.077445555555
 20
2293.775328055556
 30
0.0
 10
4810.011617222222
 20
2293.120219722222
 30
0.0
  0
LINE
  5
148
330
1F
100
AcDbEntity
  8
Linee visibili 2D
100
AcDbLine
 10
4811.026982222222
 20
2293.113023055556
 30
0.0
 11
4811.547364722222
 21
2293.113023055556
 31
0.0
  0
SPLINE
  5
149
330
1F
100
AcDbEntity
  8
Linee visibili 2D
100
AcDbSpline
210
0.0
220
0.0
230
1.0
 70
     8
 71
     3
 72
     8
 73
     4
 74
     0
 42
0.0000000001
 43
0.0000000001
 40
0.0
 40
0.0
 40
0.0
 40
0.0
 40
1.0
 40
1.0
 40
1.0
 40
1.0
 10
4817.665131111111
 20
2294.494359722222
 30
0.0
 10
4817.365869722221
 20
2294.667044444445
 30
0.0
 10
4817.365869722221
 20
2295.098950277778
 30
0.0
 10
4817.665131111111
 20
2295.271670277777
 30
0.0
  0
SPLINE
  5
14A
330
1F
100
AcDbEntity
  8
Linee visibili 2D
100
AcDbSpline
210
0.0
220
0.0
230
1.0
 70
     8
 71
     3
 72
     8
 73
     4
 74
     0
 42
0.0000000001
 43
0.0000000001
 40
0.0
 40
0.0
 40
0.0
 40
0.0
 40
1.0
 40
1.0
 40
1.0
 40
1.0
 10
4817.665131111111
 20
2295.271670277777
 30
0.0
 10
4817.777490833333
 20
2295.336510833333
 30
0.0
 10
4817.887769166666
 20
2295.366038333333
 30
0.0
 10
4818.017520833333
 20
2295.366038333333
 30
0.0
  0
SPLINE
  5
14B
330
1F
100
AcDbEntity
  8
Linee visibili 2D
100
AcDbSpline
210
0.0
220
0.0
230
1.0
 70
     8
 71
     3
 72
     8
 73
     4
 74
     0
 42
0.0000000001
 43
0.0000000001
 40
0.0
 40
0.0
 40
0.0
 40
0.0
 40
1.0
 40
1.0
 40
1.0
 40
1.0
 10
4818.017520833333
 20
2295.366038333333
 30
0.0
 10
4818.147378333332
 20
2295.366038333333
 30
0.0
 10
4818.257691944443
 20
2295.336475555556
 30
0.0
 10
4818.370122222222
 20
2295.271529166666
 30
0.0
  0
SPLINE
  5
14C
330
1F
100
AcDbEntity
  8
Linee visibili 2D
100
AcDbSpline
210
0.0
220
0.0
230
1.0
 70
     8
 71
     3
 72
     8
 73
     4
 74
     0
 42
0.0000000001
 43
0.0000000001
 40
0.0
 40
0.0
 40
0.0
 40
0.0
 40
1.0
 40
1.0
 40
1.0
 40
1.0
 10
4818.370122222222
 20
2295.271529166666
 30
0.0
 10
4818.669171944445
 20
2295.098844444444
 30
0.0
 10
4818.669171944445
 20
2294.667185555556
 30
0.0
 10
4818.370122222222
 20
2294.494500833334
 30
0.0
  0
SPLINE
  5
14D
330
1F
100
AcDbEntity
  8
Linee visibili 2D
100
AcDbSpline
210
0.0
220
0.0
230
1.0
 70
     8
 71
     3
 72
     8
 73
     4
 74
     0
 42
0.0000000001
 43
0.0000000001
 40
0.0
 40
0.0
 40
0.0
 40
0.0
 40
1.0
 40
1.0
 40
1.0
 40
1.0
 10
4818.370122222222
 20
2294.494500833334
 30
0.0
 10
4818.115769444443
 20
2294.347568888889
 30
0.0
 10
4817.919554444444
 20
2294.347533611111
 30
0.0
 10
4817.665131111111
 20
2294.494359722222
 30
0.0
  0
LINE
  5
14E
330
1F
100
AcDbEntity
  8
Linee visibili 2D
100
AcDbLine
 10
4821.115438888889
 20
1801.914523333333
 30
0.0
 11
4821.115438888889
 21
2279.382171111111
 31
0.0
  0
LINE
  5
14F
330
1F
100
AcDbEntity
  8
Linee visibili 2D
100
AcDbLine
 10
4806.115468888889
 20
2279.382171111111
 30
0.0
 11
4806.115468888889
 21
1801.914523333333
 31
0.0
  0
LINE
  5
150
330
1F
100
AcDbEntity
  8
Linee visibili 2D
100
AcDbLine
 10
4848.281656111111
 20
1801.914523333333
 30
0.0
 11
4778.91475
 21
1801.914523333333
 31
0.0
  0
SPLINE
  5
151
330
1F
100
AcDbEntity
  8
Linee visibili 2D
100
AcDbSpline
210
0.0
220
0.0
230
1.0
 70
     8
 71
     3
 72
     8
 73
     4
 74
     0
 42
0.0000000001
 43
0.0000000001
 40
0.0
 40
0.0
 40
0.0
 40
0.0
 40
1.0
 40
1.0
 40
1.0
 40
1.0
 10
4778.91475
 20
1801.914523333333
 30
0.0
 10
4778.596897222222
 20
1801.914523333333
 30
0.0
 10
4778.457197222222
 20
1801.79091
 30
0.0
 10
4778.418462222222
 20
1801.475456111111
 30
0.0
  0
LINE
  5
152
330
1F
100
AcDbEntity
  8
Linee visibili 2D
100
AcDbLine
 10
4763.615448055555
 20
1680.914497222222
 30
0.0
 11
4863.565753333333
 21
1680.914497222222
 31
0.0
  0
LINE
  5
153
330
1F
100
AcDbEntity
  8
Linee visibili 2D
100
AcDbLine
 10
4848.812445555555
 20
1801.475456111111
 30
0.0
 11
4863.614718888889
 21
1680.920529722222
 31
0.0
  0
SPLINE
  5
154
330
1F
100
AcDbEntity
  8
Linee visibili 2D
100
AcDbSpline
210
0.0
220
0.0
230
1.0
 70
     8
 71
     3
 72
     8
 73
     4
 74
     0
 42
0.0000000001
 43
0.0000000001
 40
0.0
 40
0.0
 40
0.0
 40
0.0
 40
1.0
 40
1.0
 40
1.0
 40
1.0
 10
5115.129187777776
 20
2263.633747777777
 30
0.0
 10
5111.67743361111
 20
2263.633747777777
 30
0.0
 10
5108.879200277777
 20
2266.431945833333
 30
0.0
 10
5108.879200277777
 20
2269.883735277778
 30
0.0
  0
SPLINE
  5
155
330
1F
100
AcDbEntity
  8
Linee visibili 2D
100
AcDbSpline
210
0.0
220
0.0
230
1.0
 70
     8
 71
     3
 72
     8
 73
     4
 74
     0
 42
0.0000000001
 43
0.0000000001
 40
0.0
 40
0.0
 40
0.0
 40
0.0
 40
1.0
 40
1.0
 40
1.0
 40
1.0
 10
5108.879200277777
 20
2269.883735277778
 30
0.0
 10
5108.879200277777
 20
2273.335524722222
 30
0.0
 10
5111.67743361111
 20
2276.133722777778
 30
0.0
 10
5115.129187777776
 20
2276.133722777778
 30
0.0
  0
SPLINE
  5
156
330
1F
100
AcDbEntity
  8
Linee visibili 2D
100
AcDbSpline
210
0.0
220
0.0
230
1.0
 70
     8
 71
     3
 72
     8
 73
     4
 74
     0
 42
0.0000000001
 43
0.0000000001
 40
0.0
 40
0.0
 40
0.0
 40
0.0
 40
1.0
 40
1.0
 40
1.0
 40
1.0
 10
5115.129187777776
 20
2276.133722777778
 30
0.0
 10
5118.580977222222
 20
2276.133722777778
 30
0.0
 10
5121.379210555556
 20
2273.335524722222
 30
0.0
 10
5121.379210555556
 20
2269.883735277778
 30
0.0
  0
SPLINE
  5
157
330
1F
100
AcDbEntity
  8
Linee visibili 2D
100
AcDbSpline
210
0.0
220
0.0
230
1.0
 70
     8
 71
     3
 72
     8
 73
     4
 74
     0
 42
0.0000000001
 43
0.0000000001
 40
0.0
 40
0.0
 40
0.0
 40
0.0
 40
1.0
 40
1.0
 40
1.0
 40
1.0
 10
5121.379210555556
 20
2269.883735277778
 30
0.0
 10
5121.379210555556
 20
2266.431945833333
 30
0.0
 10
5118.580977222222
 20
2263.633747777777
 30
0.0
 10
5115.129187777776
 20
2263.633747777777
 30
0.0
  0
LINE
  5
158
330
1F
100
AcDbEntity
  8
Linee visibili 2D
100
AcDbLine
 10
5115.129187777776
 20
2268.440239166666
 30
0.0
 11
5113.879190277778
 21
2269.162234166667
 31
0.0
  0
LINE
  5
159
330
1F
100
AcDbEntity
  8
Linee visibili 2D
100
AcDbLine
 10
5113.879190277778
 20
2269.162234166667
 30
0.0
 11
5113.879190277778
 21
2270.605236388888
 31
0.0
  0
LINE
  5
15A
330
1F
100
AcDbEntity
  8
Linee visibili 2D
100
AcDbLine
 10
5113.879190277778
 20
2270.605236388888
 30
0.0
 11
5115.129187777776
 21
2271.327231388889
 31
0.0
  0
LINE
  5
15B
330
1F
100
AcDbEntity
  8
Linee visibili 2D
100
AcDbLine
 10
5115.129187777776
 20
2271.327231388889
 30
0.0
 11
5116.379185277778
 21
2270.605236388888
 31
0.0
  0
LINE
  5
15C
330
1F
100
AcDbEntity
  8
Linee visibili 2D
100
AcDbLine
 10
5116.379185277778
 20
2270.605236388888
 30
0.0
 11
5116.379185277778
 21
2269.162234166667
 31
0.0
  0
LINE
  5
15D
330
1F
100
AcDbEntity
  8
Linee visibili 2D
100
AcDbLine
 10
5116.379185277778
 20
2269.162234166667
 30
0.0
 11
5115.129187777776
 21
2268.440239166666
 31
0.0
  0
LINE
  5
15E
330
1F
100
AcDbEntity
  8
Linee visibili 2D
100
AcDbLine
 10
4512.152131944445
 20
2262.383715
 30
0.0
 11
4532.452164722221
 21
2262.383715
 31
0.0
  0
LINE
  5
15F
330
1F
100
AcDbEntity
  8
Linee visibili 2D
100
AcDbLine
 10
4532.452164722221
 20
2277.383720277778
 30
0.0
 11
4512.152131944445
 21
2277.383720277778
 31
0.0
  0
SPLINE
  5
160
330
1F
100
AcDbEntity
  8
Linee visibili 2D
100
AcDbSpline
210
0.0
220
0.0
230
1.0
 70
     8
 71
     3
 72
     8
 73
     4
 74
     0
 42
0.0000000001
 43
0.0000000001
 40
0.0
 40
0.0
 40
0.0
 40
0.0
 40
1.0
 40
1.0
 40
1.0
 40
1.0
 10
4512.152131944445
 20
2276.383736388889
 30
0.0
 10
4508.562300555555
 20
2276.383736388889
 30
0.0
 10
4505.652130833333
 20
2273.473566666667
 30
0.0
 10
4505.652130833333
 20
2269.883735277778
 30
0.0
  0
SPLINE
  5
161
330
1F
100
AcDbEntity
  8
Linee visibili 2D
100
AcDbSpline
210
0.0
220
0.0
230
1.0
 70
     8
 71
     3
 72
     8
 73
     4
 74
     0
 42
0.0000000001
 43
0.0000000001
 40
0.0
 40
0.0
 40
0.0
 40
0.0
 40
1.0
 40
1.0
 40
1.0
 40
1.0
 10
4505.652130833333
 20
2269.883735277778
 30
0.0
 10
4505.652130833333
 20
2266.293868611111
 30
0.0
 10
4508.562300555555
 20
2263.383734166667
 30
0.0
 10
4512.152131944445
 20
2263.383734166667
 30
0.0
  0
SPLINE
  5
162
330
1F
100
AcDbEntity
  8
Linee visibili 2D
100
AcDbSpline
210
0.0
220
0.0
230
1.0
 70
     8
 71
     3
 72
     8
 73
     4
 74
     0
 42
0.0000000001
 43
0.0000000001
 40
0.0
 40
0.0
 40
0.0
 40
0.0
 40
1.0
 40
1.0
 40
1.0
 40
1.0
 10
4512.152131944445
 20
2263.383734166667
 30
0.0
 10
4515.741998611111
 20
2263.383734166667
 30
0.0
 10
4518.652133055555
 20
2266.293868611111
 30
0.0
 10
4518.652133055555
 20
2269.883735277778
 30
0.0
  0
SPLINE
  5
163
330
1F
100
AcDbEntity
  8
Linee visibili 2D
100
AcDbSpline
210
0.0
220
0.0
230
1.0
 70
     8
 71
     3
 72
     8
 73
     4
 74
     0
 42
0.0000000001
 43
0.0000000001
 40
0.0
 40
0.0
 40
0.0
 40
0.0
 40
1.0
 40
1.0
 40
1.0
 40
1.0
 10
4518.652133055555
 20
2269.883735277778
 30
0.0
 10
4518.652133055555
 20
2273.473566666667
 30
0.0
 10
4515.741998611111
 20
2276.383736388889
 30
0.0
 10
4512.152131944445
 20
2276.383736388889
 30
0.0
  0
SPLINE
  5
164
330
1F
100
AcDbEntity
  8
Linee visibili 2D
100
AcDbSpline
210
0.0
220
0.0
230
1.0
 70
     8
 71
     3
 72
     8
 73
     4
 74
     0
 42
0.0000000001
 43
0.0000000001
 40
0.0
 40
0.0
 40
0.0
 40
0.0
 40
1.0
 40
1.0
 40
1.0
 40
1.0
 10
4512.152131944445
 20
2262.383715
 30
0.0
 10
4508.010026944443
 20
2262.383715
 30
0.0
 10
4504.652146944444
 20
2265.741595
 30
0.0
 10
4504.652146944444
 20
2269.883735277778
 30
0.0
  0
SPLINE
  5
165
330
1F
100
AcDbEntity
  8
Linee visibili 2D
100
AcDbSpline
210
0.0
220
0.0
230
1.0
 70
     8
 71
     3
 72
     8
 73
     4
 74
     0
 42
0.0000000001
 43
0.0000000001
 40
0.0
 40
0.0
 40
0.0
 40
0.0
 40
1.0
 40
1.0
 40
1.0
 40
1.0
 10
4504.652146944444
 20
2269.883735277778
 30
0.0
 10
4504.652146944444
 20
2274.025875555556
 30
0.0
 10
4508.010026944443
 20
2277.383720277778
 30
0.0
 10
4512.152131944445
 20
2277.383720277778
 30
0.0
  0
SPLINE
  5
166
330
1F
100
AcDbEntity
  8
Linee visibili 2D
100
AcDbSpline
210
0.0
220
0.0
230
1.0
 70
     8
 71
     3
 72
     8
 73
     4
 74
     0
 42
0.0000000001
 43
0.0000000001
 40
0.0
 40
0.0
 40
0.0
 40
0.0
 40
1.0
 40
1.0
 40
1.0
 40
1.0
 10
4532.593558055554
 20
2277.325159166666
 30
0.0
 10
4532.552212499999
 20
2277.366504722222
 30
0.0
 10
4532.510655277777
 20
2277.383720277778
 30
0.0
 10
4532.452164722221
 20
2277.383720277778
 30
0.0
  0
SPLINE
  5
167
330
1F
100
AcDbEntity
  8
Linee visibili 2D
100
AcDbSpline
210
0.0
220
0.0
230
1.0
 70
     8
 71
     3
 72
     8
 73
     4
 74
     0
 42
0.0000000001
 43
0.0000000001
 40
0.0
 40
0.0
 40
0.0
 40
0.0
 40
1.0
 40
1.0
 40
1.0
 40
1.0
 10
4532.452164722221
 20
2262.383715
 30
0.0
 10
4532.510655277777
 20
2262.383715
 30
0.0
 10
4532.552212499999
 20
2262.400930555555
 30
0.0
 10
4532.593558055554
 20
2262.442311388889
 30
0.0
  0
SPLINE
  5
168
330
1F
100
AcDbEntity
  8
Linee visibili 2D
100
AcDbSpline
210
0.0
220
0.0
230
1.0
 70
     8
 71
     3
 72
     8
 73
     4
 74
     0
 42
0.0000000001
 43
0.0000000001
 40
0.0
 40
0.0
 40
0.0
 40
0.0
 40
1.0
 40
1.0
 40
1.0
 40
1.0
 10
4508.512029722221
 20
2262.761822222222
 30
0.0
 10
4502.70118
 20
2265.731823055556
 30
0.0
 10
4502.70118
 20
2274.0356475
 30
0.0
 10
4508.512029722221
 20
2277.005648333334
 30
0.0
  0
LINE
  5
169
330
1F
100
AcDbEntity
  8
Linee visibili 2D
100
AcDbLine
 10
4511.478255833332
 20
2277.383720277778
 30
0.0
 11
4508.421013055555
 21
2277.383720277778
 31
0.0
  0
LINE
  5
16A
330
1F
100
AcDbEntity
  8
Linee visibili 2D
100
AcDbLine
 10
4508.421013055555
 20
2277.383720277778
 30
0.0
 11
4490.852150555554
 21
2277.383720277778
 31
0.0
  0
LINE
  5
16B
330
1F
100
AcDbEntity
  8
Linee visibili 2D
100
AcDbLine
 10
4490.852150555554
 20
2262.383715
 30
0.0
 11
4508.421013055555
 21
2262.383715
 31
0.0
  0
LINE
  5
16C
330
1F
100
AcDbEntity
  8
Linee visibili 2D
100
AcDbLine
 10
4508.421013055555
 20
2262.383715
 30
0.0
 11
4511.478255833332
 21
2262.383715
 31
0.0
  0
LINE
  5
16D
330
1F
100
AcDbEntity
  8
Linee visibili 2D
100
AcDbLine
 10
4490.652160833334
 20
2277.183730555556
 30
0.0
 11
4490.652160833334
 21
2262.58374
 31
0.0
  0
SPLINE
  5
16E
330
1F
100
AcDbEntity
  8
Linee visibili 2D
100
AcDbSpline
210
0.0
220
0.0
230
1.0
 70
     8
 71
     3
 72
     8
 73
     4
 74
     0
 42
0.0000000001
 43
0.0000000001
 40
0.0
 40
0.0
 40
0.0
 40
0.0
 40
1.0
 40
1.0
 40
1.0
 40
1.0
 10
4508.421013055555
 20
2277.383720277778
 30
0.0
 10
4508.673178611111
 20
2277.383720277778
 30
0.0
 10
4508.736572777777
 20
2277.120406944444
 30
0.0
 10
4508.512029722221
 20
2277.005648333334
 30
0.0
  0
SPLINE
  5
16F
330
1F
100
AcDbEntity
  8
Linee visibili 2D
100
AcDbSpline
210
0.0
220
0.0
230
1.0
 70
     8
 71
     3
 72
     8
 73
     4
 74
     0
 42
0.0000000001
 43
0.0000000001
 40
0.0
 40
0.0
 40
0.0
 40
0.0
 40
1.0
 40
1.0
 40
1.0
 40
1.0
 10
4508.512029722221
 20
2262.761822222222
 30
0.0
 10
4508.736572777777
 20
2262.647063611111
 30
0.0
 10
4508.673178611111
 20
2262.383715
 30
0.0
 10
4508.421013055555
 20
2262.383715
 30
0.0
  0
SPLINE
  5
170
330
1F
100
AcDbEntity
  8
Linee visibili 2D
100
AcDbSpline
210
0.0
220
0.0
230
1.0
 70
     8
 71
     3
 72
     8
 73
     4
 74
     0
 42
0.0000000001
 43
0.0000000001
 40
0.0
 40
0.0
 40
0.0
 40
0.0
 40
1.0
 40
1.0
 40
1.0
 40
1.0
 10
4490.652160833334
 20
2277.183730555556
 30
0.0
 10
4490.652160833334
 20
2277.325159166666
 30
0.0
 10
4490.710721944444
 20
2277.383720277778
 30
0.0
 10
4490.852150555554
 20
2277.383720277778
 30
0.0
  0
SPLINE
  5
171
330
1F
100
AcDbEntity
  8
Linee visibili 2D
100
AcDbSpline
210
0.0
220
0.0
230
1.0
 70
     8
 71
     3
 72
     8
 73
     4
 74
     0
 42
0.0000000001
 43
0.0000000001
 40
0.0
 40
0.0
 40
0.0
 40
0.0
 40
1.0
 40
1.0
 40
1.0
 40
1.0
 10
4490.852150555554
 20
2262.383715
 30
0.0
 10
4490.710721944444
 20
2262.383715
 30
0.0
 10
4490.652160833334
 20
2262.442311388889
 30
0.0
 10
4490.652160833334
 20
2262.58374
 30
0.0
  0
LINE
  5
172
330
1F
100
AcDbEntity
  8
Linee visibili 2D
100
AcDbLine
 10
4792.625458333333
 20
2277.183730555556
 30
0.0
 11
4792.625458333333
 21
2262.58374
 31
0.0
  0
LINE
  5
173
330
1F
100
AcDbEntity
  8
Linee visibili 2D
100
AcDbLine
 10
4792.625458333333
 20
2262.58374
 30
0.0
 11
4792.625458333333
 21
2262.383715
 31
0.0
  0
LINE
  5
174
330
1F
100
AcDbEntity
  8
Linee visibili 2D
100
AcDbLine
 10
4792.625458333333
 20
2277.383720277778
 30
0.0
 11
4792.625458333333
 21
2277.183730555556
 31
0.0
  0
LINE
  5
175
330
1F
100
AcDbEntity
  8
Linee visibili 2D
100
AcDbLine
 10
4532.625449166665
 20
2262.58374
 30
0.0
 11
4532.625449166665
 21
2277.183730555556
 31
0.0
  0
LINE
  5
176
330
1F
100
AcDbEntity
  8
Linee visibili 2D
100
AcDbLine
 10
4532.625449166665
 20
2262.58374
 30
0.0
 11
4532.625449166665
 21
2262.383715
 31
0.0
  0
LINE
  5
177
330
1F
100
AcDbEntity
  8
Linee visibili 2D
100
AcDbLine
 10
4532.625449166665
 20
2262.383715
 30
0.0
 11
4792.625458333333
 21
2262.383715
 31
0.0
  0
LINE
  5
178
330
1F
100
AcDbEntity
  8
Linee visibili 2D
100
AcDbLine
 10
4792.625458333333
 20
2277.383720277778
 30
0.0
 11
4532.625449166665
 21
2277.383720277778
 31
0.0
  0
LINE
  5
179
330
1F
100
AcDbEntity
  8
Linee visibili 2D
100
AcDbLine
 10
4532.625449166665
 20
2277.383720277778
 30
0.0
 11
4532.625449166665
 21
2277.183730555556
 31
0.0
  0
LINE
  5
17A
330
1F
100
AcDbEntity
  8
Linee visibili 2D
100
AcDbLine
 10
4834.625451944443
 20
2277.325159166666
 30
0.0
 11
4834.625451944443
 21
2277.383720277778
 31
0.0
  0
LINE
  5
17B
330
1F
100
AcDbEntity
  8
Linee visibili 2D
100
AcDbLine
 10
4834.625451944443
 20
2262.383715
 30
0.0
 11
5094.62546111111
 21
2262.383715
 31
0.0
  0
LINE
  5
17C
330
1F
100
AcDbEntity
  8
Linee visibili 2D
100
AcDbLine
 10
5094.62546111111
 20
2262.383715
 30
0.0
 11
5094.62546111111
 21
2262.58374
 31
0.0
  0
LINE
  5
17D
330
1F
100
AcDbEntity
  8
Linee visibili 2D
100
AcDbLine
 10
5094.62546111111
 20
2277.183730555556
 30
0.0
 11
5094.62546111111
 21
2262.58374
 31
0.0
  0
LINE
  5
17E
330
1F
100
AcDbEntity
  8
Linee visibili 2D
100
AcDbLine
 10
5094.62546111111
 20
2277.183730555556
 30
0.0
 11
5094.62546111111
 21
2277.383720277778
 31
0.0
  0
LINE
  5
17F
330
1F
100
AcDbEntity
  8
Linee visibili 2D
100
AcDbLine
 10
5094.62546111111
 20
2277.383720277778
 30
0.0
 11
4834.625451944443
 21
2277.383720277778
 31
0.0
  0
SPLINE
  5
180
330
1F
100
AcDbEntity
  8
Linee visibili 2D
100
AcDbSpline
210
0.0
220
0.0
230
1.0
 70
     8
 71
     3
 72
     8
 73
     4
 74
     0
 42
0.0000000001
 43
0.0000000001
 40
0.0
 40
0.0
 40
0.0
 40
0.0
 40
1.0
 40
1.0
 40
1.0
 40
1.0
 10
5115.129187777776
 20
2262.383715
 30
0.0
 10
5110.987082777778
 20
2262.383715
 30
0.0
 10
5107.629202777777
 20
2265.741595
 30
0.0
 10
5107.629202777777
 20
2269.883735277778
 30
0.0
  0
SPLINE
  5
181
330
1F
100
AcDbEntity
  8
Linee visibili 2D
100
AcDbSpline
210
0.0
220
0.0
230
1.0
 70
     8
 71
     3
 72
     8
 73
     4
 74
     0
 42
0.0000000001
 43
0.0000000001
 40
0.0
 40
0.0
 40
0.0
 40
0.0
 40
1.0
 40
1.0
 40
1.0
 40
1.0
 10
5107.629202777777
 20
2269.883735277778
 30
0.0
 10
5107.629202777777
 20
2274.025875555556
 30
0.0
 10
5110.987082777778
 20
2277.383720277778
 30
0.0
 10
5115.129187777776
 20
2277.383720277778
 30
0.0
  0
SPLINE
  5
182
330
1F
100
AcDbEntity
  8
Linee visibili 2D
100
AcDbSpline
210
0.0
220
0.0
230
1.0
 70
     8
 71
     3
 72
     8
 73
     4
 74
     0
 42
0.0000000001
 43
0.0000000001
 40
0.0
 40
0.0
 40
0.0
 40
0.0
 40
1.0
 40
1.0
 40
1.0
 40
1.0
 10
5115.129187777776
 20
2276.383736388889
 30
0.0
 10
5111.539356388888
 20
2276.383736388889
 30
0.0
 10
5108.629186666666
 20
2273.473566666667
 30
0.0
 10
5108.629186666666
 20
2269.883735277778
 30
0.0
  0
SPLINE
  5
183
330
1F
100
AcDbEntity
  8
Linee visibili 2D
100
AcDbSpline
210
0.0
220
0.0
230
1.0
 70
     8
 71
     3
 72
     8
 73
     4
 74
     0
 42
0.0000000001
 43
0.0000000001
 40
0.0
 40
0.0
 40
0.0
 40
0.0
 40
1.0
 40
1.0
 40
1.0
 40
1.0
 10
5108.629186666666
 20
2269.883735277778
 30
0.0
 10
5108.629186666666
 20
2266.293868611111
 30
0.0
 10
5111.539356388888
 20
2263.383734166667
 30
0.0
 10
5115.129187777776
 20
2263.383734166667
 30
0.0
  0
SPLINE
  5
184
330
1F
100
AcDbEntity
  8
Linee visibili 2D
100
AcDbSpline
210
0.0
220
0.0
230
1.0
 70
     8
 71
     3
 72
     8
 73
     4
 74
     0
 42
0.0000000001
 43
0.0000000001
 40
0.0
 40
0.0
 40
0.0
 40
0.0
 40
1.0
 40
1.0
 40
1.0
 40
1.0
 10
5115.129187777776
 20
2263.383734166667
 30
0.0
 10
5118.719054444444
 20
2263.383734166667
 30
0.0
 10
5121.629188888888
 20
2266.293868611111
 30
0.0
 10
5121.629188888888
 20
2269.883735277778
 30
0.0
  0
SPLINE
  5
185
330
1F
100
AcDbEntity
  8
Linee visibili 2D
100
AcDbSpline
210
0.0
220
0.0
230
1.0
 70
     8
 71
     3
 72
     8
 73
     4
 74
     0
 42
0.0000000001
 43
0.0000000001
 40
0.0
 40
0.0
 40
0.0
 40
0.0
 40
1.0
 40
1.0
 40
1.0
 40
1.0
 10
5121.629188888888
 20
2269.883735277778
 30
0.0
 10
5121.629188888888
 20
2273.473566666667
 30
0.0
 10
5118.719054444444
 20
2276.383736388889
 30
0.0
 10
5115.129187777776
 20
2276.383736388889
 30
0.0
  0
LINE
  5
186
330
1F
100
AcDbEntity
  8
Linee visibili 2D
100
AcDbLine
 10
5136.429204444444
 20
2277.383720277778
 30
0.0
 11
5115.129187777776
 21
2277.383720277778
 31
0.0
  0
LINE
  5
187
330
1F
100
AcDbEntity
  8
Linee visibili 2D
100
AcDbLine
 10
5115.129187777776
 20
2262.383715
 30
0.0
 11
5136.429204444444
 21
2262.383715
 31
0.0
  0
LINE
  5
188
330
1F
100
AcDbEntity
  8
Linee visibili 2D
100
AcDbLine
 10
5136.629194166665
 20
2262.58374
 30
0.0
 11
5136.629194166665
 21
2277.183730555556
 31
0.0
  0
SPLINE
  5
189
330
1F
100
AcDbEntity
  8
Linee visibili 2D
100
AcDbSpline
210
0.0
220
0.0
230
1.0
 70
     8
 71
     3
 72
     8
 73
     4
 74
     0
 42
0.0000000001
 43
0.0000000001
 40
0.0
 40
0.0
 40
0.0
 40
0.0
 40
1.0
 40
1.0
 40
1.0
 40
1.0
 10
5136.629194166665
 20
2277.183730555556
 30
0.0
 10
5136.629194166665
 20
2277.325159166666
 30
0.0
 10
5136.570633055555
 20
2277.383720277778
 30
0.0
 10
5136.429204444444
 20
2277.383720277778
 30
0.0
  0
SPLINE
  5
18A
330
1F
100
AcDbEntity
  8
Linee visibili 2D
100
AcDbSpline
210
0.0
220
0.0
230
1.0
 70
     8
 71
     3
 72
     8
 73
     4
 74
     0
 42
0.0000000001
 43
0.0000000001
 40
0.0
 40
0.0
 40
0.0
 40
0.0
 40
1.0
 40
1.0
 40
1.0
 40
1.0
 10
5136.429204444444
 20
2262.383715
 30
0.0
 10
5136.570633055555
 20
2262.383715
 30
0.0
 10
5136.629194166665
 20
2262.442311388889
 30
0.0
 10
5136.629194166665
 20
2262.58374
 30
0.0
  0
SPLINE
  5
18B
330
1F
100
AcDbEntity
  8
Linee visibili 2D
100
AcDbSpline
210
0.0
220
0.0
230
1.0
 70
     8
 71
     3
 72
     8
 73
     4
 74
     0
 42
0.0000000001
 43
0.0000000001
 40
0.0
 40
0.0
 40
0.0
 40
0.0
 40
1.0
 40
1.0
 40
1.0
 40
1.0
 10
4512.152131944445
 20
2263.633747777777
 30
0.0
 10
4508.700377777777
 20
2263.633747777777
 30
0.0
 10
4505.902144444444
 20
2266.431945833333
 30
0.0
 10
4505.902144444444
 20
2269.883735277778
 30
0.0
  0
SPLINE
  5
18C
330
1F
100
AcDbEntity
  8
Linee visibili 2D
100
AcDbSpline
210
0.0
220
0.0
230
1.0
 70
     8
 71
     3
 72
     8
 73
     4
 74
     0
 42
0.0000000001
 43
0.0000000001
 40
0.0
 40
0.0
 40
0.0
 40
0.0
 40
1.0
 40
1.0
 40
1.0
 40
1.0
 10
4505.902144444444
 20
2269.883735277778
 30
0.0
 10
4505.902144444444
 20
2273.335524722222
 30
0.0
 10
4508.700377777777
 20
2276.133722777778
 30
0.0
 10
4512.152131944445
 20
2276.133722777778
 30
0.0
  0
SPLINE
  5
18D
330
1F
100
AcDbEntity
  8
Linee visibili 2D
100
AcDbSpline
210
0.0
220
0.0
230
1.0
 70
     8
 71
     3
 72
     8
 73
     4
 74
     0
 42
0.0000000001
 43
0.0000000001
 40
0.0
 40
0.0
 40
0.0
 40
0.0
 40
1.0
 40
1.0
 40
1.0
 40
1.0
 10
4512.152131944445
 20
2276.133722777778
 30
0.0
 10
4515.603921388888
 20
2276.133722777778
 30
0.0
 10
4518.402154722222
 20
2273.335524722222
 30
0.0
 10
4518.402154722222
 20
2269.883735277778
 30
0.0
  0
SPLINE
  5
18E
330
1F
100
AcDbEntity
  8
Linee visibili 2D
100
AcDbSpline
210
0.0
220
0.0
230
1.0
 70
     8
 71
     3
 72
     8
 73
     4
 74
     0
 42
0.0000000001
 43
0.0000000001
 40
0.0
 40
0.0
 40
0.0
 40
0.0
 40
1.0
 40
1.0
 40
1.0
 40
1.0
 10
4518.402154722222
 20
2269.883735277778
 30
0.0
 10
4518.402154722222
 20
2266.431945833333
 30
0.0
 10
4515.603921388888
 20
2263.633747777777
 30
0.0
 10
4512.152131944445
 20
2263.633747777777
 30
0.0
  0
LINE
  5
18F
330
1F
100
AcDbEntity
  8
Linee visibili 2D
100
AcDbLine
 10
4512.152131944445
 20
2268.440239166666
 30
0.0
 11
4510.902134444443
 21
2269.162234166667
 31
0.0
  0
LINE
  5
190
330
1F
100
AcDbEntity
  8
Linee visibili 2D
100
AcDbLine
 10
4510.902134444443
 20
2269.162234166667
 30
0.0
 11
4510.902134444443
 21
2270.605236388888
 31
0.0
  0
LINE
  5
191
330
1F
100
AcDbEntity
  8
Linee visibili 2D
100
AcDbLine
 10
4510.902134444443
 20
2270.605236388888
 30
0.0
 11
4512.152131944445
 21
2271.327231388889
 31
0.0
  0
LINE
  5
192
330
1F
100
AcDbEntity
  8
Linee visibili 2D
100
AcDbLine
 10
4512.152131944445
 20
2271.327231388889
 30
0.0
 11
4513.402164722221
 21
2270.605236388888
 31
0.0
  0
LINE
  5
193
330
1F
100
AcDbEntity
  8
Linee visibili 2D
100
AcDbLine
 10
4513.402164722221
 20
2270.605236388888
 30
0.0
 11
4513.402164722221
 21
2269.162234166667
 31
0.0
  0
LINE
  5
194
330
1F
100
AcDbEntity
  8
Linee visibili 2D
100
AcDbLine
 10
4513.402164722221
 20
2269.162234166667
 30
0.0
 11
4512.152131944445
 21
2268.440239166666
 31
0.0
  0
LINE
  5
195
330
1F
100
AcDbEntity
  8
Linee visibili 2D
100
AcDbLine
 10
4834.625451944443
 20
2262.383715
 30
0.0
 11
4834.625451944443
 21
2262.58374
 31
0.0
  0
LINE
  5
196
330
1F
100
AcDbEntity
  8
Linee visibili 2D
100
AcDbLine
 10
4834.625451944443
 20
2262.58374
 30
0.0
 11
4834.625451944443
 21
2277.183730555556
 31
0.0
  0
LINE
  5
197
330
1F
100
AcDbEntity
  8
Linee visibili 2D
100
AcDbLine
 10
4834.625451944443
 20
2277.183730555556
 30
0.0
 11
4834.625451944443
 21
2277.325159166666
 31
0.0
  0
LINE
  5
198
330
1F
100
AcDbEntity
  8
Linee visibili 2D
100
AcDbLine
 10
4792.625458333333
 20
2277.383720277778
 30
0.0
 11
4806.115468888889
 21
2277.383720277778
 31
0.0
  0
LINE
  5
199
330
1F
100
AcDbEntity
  8
Linee visibili 2D
100
AcDbLine
 10
4821.115438888889
 20
2277.383720277778
 30
0.0
 11
4834.625451944443
 21
2277.383720277778
 31
0.0
  0
LINE
  5
19A
330
1F
100
AcDbEntity
  8
Linee visibili 2D
100
AcDbLine
 10
4792.625458333333
 20
2262.383715
 30
0.0
 11
4806.115468888889
 21
2262.383715
 31
0.0
  0
LINE
  5
19B
330
1F
100
AcDbEntity
  8
Linee visibili 2D
100
AcDbLine
 10
4821.115438888889
 20
2262.383715
 30
0.0
 11
4834.625451944443
 21
2262.383715
 31
0.0
  0
LINE
  5
19C
330
1F
100
AcDbEntity
  8
Linee visibili 2D
100
AcDbLine
 10
4398.630783055555
 20
2278.087688333333
 30
0.0
 11
4398.630641944444
 21
2277.937581388889
 31
0.0
  0
LINE
  5
19D
330
1F
100
AcDbEntity
  8
Linee visibili 2D
100
AcDbLine
 10
4398.830772777777
 20
2278.2876075
 30
0.0
 11
4418.088594166666
 21
2278.2876075
 31
0.0
  0
SPLINE
  5
19E
330
1F
100
AcDbEntity
  8
Linee visibili 2D
100
AcDbSpline
210
0.0
220
0.0
230
1.0
 70
     8
 71
     3
 72
     8
 73
     4
 74
     0
 42
0.0000000001
 43
0.0000000001
 40
0.0
 40
0.0
 40
0.0
 40
0.0
 40
1.0
 40
1.0
 40
1.0
 40
1.0
 10
4398.630783055555
 20
2278.087688333333
 30
0.0
 10
4398.630818333333
 20
2278.229081666666
 30
0.0
 10
4398.689379444443
 20
2278.287642777778
 30
0.0
 10
4398.830772777777
 20
2278.2876075
 30
0.0
  0
LINE
  5
19F
330
1F
100
AcDbEntity
  8
Linee visibili 2D
100
AcDbLine
 10
5094.829190277778
 20
2262.383715
 30
0.0
 11
5110.640337499999
 21
2262.383715
 31
0.0
  0
LINE
  5
1A0
330
1F
100
AcDbEntity
  8
Linee visibili 2D
100
AcDbLine
 10
5110.640337499999
 20
2262.383715
 30
0.0
 11
5114.455311666667
 21
2262.383715
 31
0.0
  0
LINE
  5
1A1
330
1F
100
AcDbEntity
  8
Linee visibili 2D
100
AcDbLine
 10
5114.455311666667
 20
2277.383720277778
 30
0.0
 11
5110.640337499999
 21
2277.383720277778
 31
0.0
  0
LINE
  5
1A2
330
1F
100
AcDbEntity
  8
Linee visibili 2D
100
AcDbLine
 10
5110.640302222222
 20
2277.383720277778
 30
0.0
 11
5094.829190277778
 21
2277.383720277778
 31
0.0
  0
SPLINE
  5
1A3
330
1F
100
AcDbEntity
  8
Linee visibili 2D
100
AcDbSpline
210
0.0
220
0.0
230
1.0
 70
     8
 71
     3
 72
     8
 73
     4
 74
     0
 42
0.0000000001
 43
0.0000000001
 40
0.0
 40
0.0
 40
0.0
 40
0.0
 40
1.0
 40
1.0
 40
1.0
 40
1.0
 10
5110.854085555555
 20
2263.121831944444
 30
0.0
 10
5105.887574166666
 20
2266.261836388889
 30
0.0
 10
5105.887574166666
 20
2273.505634166666
 30
0.0
 10
5110.854085555555
 20
2276.645638611111
 30
0.0
  0
SPLINE
  5
1A4
330
1F
100
AcDbEntity
  8
Linee visibili 2D
100
AcDbSpline
210
0.0
220
0.0
230
1.0
 70
     8
 71
     3
 72
     8
 73
     4
 74
     0
 42
0.0000000001
 43
0.0000000001
 40
0.0
 40
0.0
 40
0.0
 40
0.0
 40
1.0
 40
1.0
 40
1.0
 40
1.0
 10
5110.640337499999
 20
2277.383720277778
 30
0.0
 10
5111.041128333333
 20
2277.383720277778
 30
0.0
 10
5111.192858055555
 20
2276.85981
 30
0.0
 10
5110.854085555555
 20
2276.645638611111
 30
0.0
  0
SPLINE
  5
1A5
330
1F
100
AcDbEntity
  8
Linee visibili 2D
100
AcDbSpline
210
0.0
220
0.0
230
1.0
 70
     8
 71
     3
 72
     8
 73
     4
 74
     0
 42
0.0000000001
 43
0.0000000001
 40
0.0
 40
0.0
 40
0.0
 40
0.0
 40
1.0
 40
1.0
 40
1.0
 40
1.0
 10
5110.854085555555
 20
2263.121831944444
 30
0.0
 10
5111.192858055555
 20
2262.907660555556
 30
0.0
 10
5111.041128333333
 20
2262.383715
 30
0.0
 10
5110.640337499999
 20
2262.383715
 30
0.0
  0
SPLINE
  5
1A6
330
1F
100
AcDbEntity
  8
Linee visibili 2D
100
AcDbSpline
210
0.0
220
0.0
230
1.0
 70
     8
 71
     3
 72
     8
 73
     4
 74
     0
 42
0.0000000001
 43
0.0000000001
 40
0.0
 40
0.0
 40
0.0
 40
0.0
 40
1.0
 40
1.0
 40
1.0
 40
1.0
 10
5094.829190277778
 20
2277.383720277778
 30
0.0
 10
5094.687796944445
 20
2277.383720277778
 30
0.0
 10
5094.629200555555
 20
2277.325159166666
 30
0.0
 10
5094.629200555555
 20
2277.183730555556
 30
0.0
  0
SPLINE
  5
1A7
330
1F
100
AcDbEntity
  8
Linee visibili 2D
100
AcDbSpline
210
0.0
220
0.0
230
1.0
 70
     8
 71
     3
 72
     8
 73
     4
 74
     0
 42
0.0000000001
 43
0.0000000001
 40
0.0
 40
0.0
 40
0.0
 40
0.0
 40
1.0
 40
1.0
 40
1.0
 40
1.0
 10
5094.829190277778
 20
2262.383715
 30
0.0
 10
5094.687796944445
 20
2262.383715
 30
0.0
 10
5094.629200555555
 20
2262.442311388889
 30
0.0
 10
5094.629200555555
 20
2262.58374
 30
0.0
  0
SPLINE
  5
1A8
330
1F
100
AcDbEntity
  8
Linee visibili 2D
100
AcDbSpline
210
0.0
220
0.0
230
1.0
 70
     8
 71
     3
 72
     8
 73
     4
 74
     0
 42
0.0000000001
 43
0.0000000001
 40
0.0
 40
0.0
 40
0.0
 40
0.0
 40
1.0
 40
1.0
 40
1.0
 40
1.0
 10
4389.629199444445
 20
2277.437589444444
 30
0.0
 10
4389.629834444444
 20
2277.713461666666
 30
0.0
 10
4389.853319166666
 20
2277.936981666666
 30
0.0
 10
4390.129191388888
 20
2277.937581388889
 30
0.0
  0
LINE
  5
1A9
330
1F
100
AcDbEntity
  8
Linee visibili 2D
100
AcDbLine
 10
4389.629199444445
 20
2261.937592222222
 30
0.0
 11
4389.629199444445
 21
2277.437589444444
 31
0.0
  0
SPLINE
  5
1AA
330
1F
100
AcDbEntity
  8
Linee visibili 2D
100
AcDbSpline
210
0.0
220
0.0
230
1.0
 70
     8
 71
     3
 72
     8
 73
     4
 74
     0
 42
0.0000000001
 43
0.0000000001
 40
0.0
 40
0.0
 40
0.0
 40
0.0
 40
1.0
 40
1.0
 40
1.0
 40
1.0
 10
4848.316157777777
 20
1801.914523333333
 30
0.0
 10
4848.633516666666
 20
1801.913782499999
 30
0.0
 10
4848.773040277777
 20
1801.790345555555
 30
0.0
 10
4848.812445555555
 20
1801.475456111111
 30
0.0
  0
LINE
  5
1AB
330
1F
100
AcDbEntity
  8
Linee visibili 2D
100
AcDbLine
 10
4763.615448055555
 20
1680.914497222222
 30
0.0
 11
4778.418462222222
 21
1801.475456111111
 31
0.0
  0
LINE
  5
1AC
330
1F
100
AcDbEntity
  8
Linee visibili 2D
100
AcDbLine
 10
4490.652160833334
 20
2265.383737222222
 30
0.0
 11
4489.59097
 21
2265.383737222222
 31
0.0
  0
LINE
  5
1AD
330
1F
100
AcDbEntity
  8
Linee visibili 2D
100
AcDbLine
 10
4489.572343333332
 20
2274.383733333333
 30
0.0
 11
4490.652160833334
 21
2274.383733333333
 31
0.0
  0
LINE
  5
1AE
330
1F
100
AcDbEntity
  8
Linee visibili 2D
100
AcDbLine
 10
5137.652143888889
 20
2265.383737222222
 30
0.0
 11
5136.629194166665
 21
2265.383737222222
 31
0.0
  0
LINE
  5
1AF
330
1F
100
AcDbEntity
  8
Linee visibili 2D
100
AcDbLine
 10
5136.629194166665
 20
2274.383733333333
 30
0.0
 11
5137.652143888889
 21
2274.383733333333
 31
0.0
  0
LINE
  5
1B0
330
1F
100
AcDbEntity
  8
Linee visibili 2D
100
AcDbLine
 10
4418.327636388887
 20
2278.087758888889
 30
0.0
 11
4418.3277775
 21
2277.937581388889
 31
0.0
  0
SPLINE
  5
1B1
330
1F
100
AcDbEntity
  8
Linee visibili 2D
100
AcDbSpline
210
0.0
220
0.0
230
1.0
 70
     8
 71
     3
 72
     8
 73
     4
 74
     0
 42
0.0000000001
 43
0.0000000001
 40
0.0
 40
0.0
 40
0.0
 40
0.0
 40
1.0
 40
1.0
 40
1.0
 40
1.0
 10
4418.127646666666
 20
2278.2876075
 30
0.0
 10
4418.268651944444
 20
2278.287148888889
 30
0.0
 10
4418.327071944444
 20
2278.228799444445
 30
0.0
 10
4418.327636388887
 20
2278.087758888889
 30
0.0
  0
LINE
  5
1B2
330
1F
100
AcDbEntity
  8
Linee visibili 2D
100
AcDbLine
 10
5562.583489999999
 20
2278.2876075
 30
0.0
 11
5552.974070277777
 21
2278.2876075
 31
0.0
  0
SPLINE
  5
1B3
330
1F
100
AcDbEntity
  8
Linee visibili 2D
100
AcDbSpline
210
0.0
220
0.0
230
1.0
 70
    24
 71
     3
 72
     8
 73
     4
 74
     0
 42
0.0000000001
 43
0.0000000001
 40
0.0
 40
0.0
 40
0.0
 40
0.0
 40
1.0
 40
1.0
 40
1.0
 40
1.0
 10
5572.192874444444
 20
2278.2876075
 30
0.0
 10
5572.34866111111
 20
2278.2876075
 30
0.0
 10
5572.037087777776
 20
2278.2876075
 30
0.0
 10
5571.959194444445
 20
2278.2876075
 30
0.0
  0
SPLINE
  5
1B4
330
1F
100
AcDbEntity
  8
Linee visibili 2D
100
AcDbSpline
210
0.0
220
0.0
230
1.0
 70
    24
 71
     3
 72
     8
 73
     4
 74
     0
 42
0.0000000001
 43
0.0000000001
 40
0.0
 40
0.0
 40
0.0
 40
0.0
 40
1.0
 40
1.0
 40
1.0
 40
1.0
 10
5571.959194444445
 20
2278.2876075
 30
0.0
 10
5571.659756666667
 20
2278.2876075
 30
0.0
 10
5571.360354166666
 20
2278.2876075
 30
0.0
 10
5571.060916388888
 20
2278.2876075
 30
0.0
  0
SPLINE
  5
1B5
330
1F
100
AcDbEntity
  8
Linee visibili 2D
100
AcDbSpline
210
0.0
220
0.0
230
1.0
 70
    24
 71
     3
 72
     8
 73
     4
 74
     0
 42
0.0000000001
 43
0.0000000001
 40
0.0
 40
0.0
 40
0.0
 40
0.0
 40
1.0
 40
1.0
 40
1.0
 40
1.0
 10
5571.060916388888
 20
2278.2876075
 30
0.0
 10
5570.65702111111
 20
2278.2876075
 30
0.0
 10
5570.253090555555
 20
2278.2876075
 30
0.0
 10
5569.849195277777
 20
2278.2876075
 30
0.0
  0
SPLINE
  5
1B6
330
1F
100
AcDbEntity
  8
Linee visibili 2D
100
AcDbSpline
210
0.0
220
0.0
230
1.0
 70
    24
 71
     3
 72
     8
 73
     4
 74
     0
 42
0.0000000001
 43
0.0000000001
 40
0.0
 40
0.0
 40
0.0
 40
0.0
 40
1.0
 40
1.0
 40
1.0
 40
1.0
 10
5569.849195277777
 20
2278.2876075
 30
0.0
 10
5569.041828055555
 20
2278.2876075
 30
0.0
 10
5568.234460833333
 20
2278.2876075
 30
0.0
 10
5567.427093611111
 20
2278.2876075
 30
0.0
  0
SPLINE
  5
1B7
330
1F
100
AcDbEntity
  8
Linee visibili 2D
100
AcDbSpline
210
0.0
220
0.0
230
1.0
 70
    24
 71
     3
 72
     8
 73
     4
 74
     0
 42
0.0000000001
 43
0.0000000001
 40
0.0
 40
0.0
 40
0.0
 40
0.0
 40
1.0
 40
1.0
 40
1.0
 40
1.0
 10
5567.427093611111
 20
2278.2876075
 30
0.0
 10
5565.812535555554
 20
2278.2876075
 30
0.0
 10
5564.198012777777
 20
2278.2876075
 30
0.0
 10
5562.583489999999
 20
2278.2876075
 30
0.0
  0
LINE
  5
1B8
330
1F
100
AcDbEntity
  8
Linee visibili 2D
100
AcDbLine
 10
5612.547194999999
 20
2261.937592222222
 30
0.0
 11
5612.082304444444
 21
2261.937592222222
 31
0.0
  0
LINE
  5
1B9
330
1F
100
AcDbEntity
  8
Linee visibili 2D
100
AcDbLine
 10
5612.082304444444
 20
2261.937592222222
 30
0.0
 11
5513.082311944444
 21
2261.937592222222
 31
0.0
  0
LINE
  5
1BA
330
1F
100
AcDbEntity
  8
Linee visibili 2D
100
AcDbLine
 10
5513.082311944444
 20
2261.937592222222
 30
0.0
 11
5512.617421388888
 21
2261.937592222222
 31
0.0
  0
SPLINE
  5
1BB
330
1F
100
AcDbEntity
  8
Linee visibili 2D
100
AcDbSpline
210
0.0
220
0.0
230
1.0
 70
     8
 71
     3
 72
     8
 73
     4
 74
     0
 42
0.0000000001
 43
0.0000000001
 40
0.0
 40
0.0
 40
0.0
 40
0.0
 40
1.0
 40
1.0
 40
1.0
 40
1.0
 10
5512.617421388888
 20
2277.621633611111
 30
0.0
 10
5512.708155833333
 20
2277.850903888889
 30
0.0
 10
5512.835755555555
 20
2277.937581388889
 30
0.0
 10
5513.082311944444
 20
2277.937581388889
 30
0.0
  0
SPLINE
  5
1BC
330
1F
100
AcDbEntity
  8
Linee visibili 2D
100
AcDbSpline
210
0.0
220
0.0
230
1.0
 70
     8
 71
     3
 72
     8
 73
     4
 74
     0
 42
0.0000000001
 43
0.0000000001
 40
0.0
 40
0.0
 40
0.0
 40
0.0
 40
1.0
 40
1.0
 40
1.0
 40
1.0
 10
5612.082304444444
 20
2277.937581388889
 30
0.0
 10
5612.358458888888
 20
2277.937581388889
 30
0.0
 10
5612.582296388889
 20
2277.713743888889
 30
0.0
 10
5612.582296388889
 20
2277.437589444444
 30
0.0
  0
LINE
  5
1BD
330
1F
100
AcDbEntity
  8
Linee visibili 2D
100
AcDbLine
 10
5612.082304444444
 20
2277.937581388889
 30
0.0
 11
5513.082311944444
 21
2277.937581388889
 31
0.0
  0
LINE
  5
1BE
330
1F
100
AcDbEntity
  8
Linee visibili 2D
100
AcDbLine
 10
5512.582319999999
 20
2261.937592222222
 30
0.0
 11
5512.582319999999
 21
2277.437589444444
 31
0.0
  0
LINE
  5
1BF
330
1F
100
AcDbEntity
  8
Linee visibili 2D
100
AcDbLine
 10
5612.582296388889
 20
2261.937592222222
 30
0.0
 11
5612.582296388889
 21
2277.437589444444
 31
0.0
  0
LINE
  5
1C0
330
1F
100
AcDbEntity
  8
Linee visibili 2D
100
AcDbLine
 10
5548.382314722221
 20
1801.914523333333
 30
0.0
 11
5548.382314722221
 21
2261.937592222222
 31
0.0
  0
LINE
  5
1C1
330
1F
100
AcDbEntity
  8
Linee visibili 2D
100
AcDbLine
 10
5553.382339999999
 20
2261.937592222222
 30
0.0
 11
5553.382339999999
 21
1801.914523333333
 31
0.0
  0
LINE
  5
1C2
330
1F
100
AcDbEntity
  8
Linee visibili 2D
100
AcDbLine
 10
5576.782336944444
 20
2279.382171111111
 30
0.0
 11
5576.782336944444
 21
2307.3280625
 31
0.0
  0
LINE
  5
1C3
330
1F
100
AcDbEntity
  8
Linee visibili 2D
100
AcDbLine
 10
5576.782336944444
 20
2279.382171111111
 30
0.0
 11
5571.782311666666
 21
2279.382171111111
 31
0.0
  0
LINE
  5
1C4
330
1F
100
AcDbEntity
  8
Linee visibili 2D
100
AcDbLine
 10
5571.782311666666
 20
2279.382171111111
 30
0.0
 11
5571.782311666666
 21
2307.3280625
 31
0.0
  0
LINE
  5
1C5
330
1F
100
AcDbEntity
  8
Linee visibili 2D
100
AcDbLine
 10
5571.782311666666
 20
1801.914523333333
 30
0.0
 11
5571.782311666666
 21
2261.937592222222
 31
0.0
  0
LINE
  5
1C6
330
1F
100
AcDbEntity
  8
Linee visibili 2D
100
AcDbLine
 10
5571.782311666666
 20
2277.937581388889
 30
0.0
 11
5571.782311666666
 21
2279.382171111111
 31
0.0
  0
LINE
  5
1C7
330
1F
100
AcDbEntity
  8
Linee visibili 2D
100
AcDbLine
 10
5576.782336944444
 20
1801.914523333333
 30
0.0
 11
5576.782336944444
 21
2261.937592222222
 31
0.0
  0
LINE
  5
1C8
330
1F
100
AcDbEntity
  8
Linee visibili 2D
100
AcDbLine
 10
5576.782336944444
 20
2277.937581388889
 30
0.0
 11
5576.782336944444
 21
2279.382171111111
 31
0.0
  0
SPLINE
  5
1C9
330
1F
100
AcDbEntity
  8
Linee visibili 2D
100
AcDbSpline
210
0.0
220
0.0
230
1.0
 70
    24
 71
     3
 72
     8
 73
     4
 74
     0
 42
0.0000000001
 43
0.0000000001
 40
0.0
 40
0.0
 40
0.0
 40
0.0
 40
1.0
 40
1.0
 40
1.0
 40
1.0
 10
5527.91612361111
 20
1801.914523333333
 30
0.0
 10
5527.777481944443
 20
1801.914523333333
 30
0.0
 10
5528.054765277777
 20
1801.914523333333
 30
0.0
 10
5528.12408611111
 20
1801.914523333333
 30
0.0
  0
SPLINE
  5
1CA
330
1F
100
AcDbEntity
  8
Linee visibili 2D
100
AcDbSpline
210
0.0
220
0.0
230
1.0
 70
    24
 71
     3
 72
     8
 73
     4
 74
     0
 42
0.0000000001
 43
0.0000000001
 40
0.0
 40
0.0
 40
0.0
 40
0.0
 40
1.0
 40
1.0
 40
1.0
 40
1.0
 10
5528.12408611111
 20
1801.914523333333
 30
0.0
 10
5528.381931388889
 20
1801.914523333333
 30
0.0
 10
5528.639776666666
 20
1801.914523333333
 30
0.0
 10
5528.897621944445
 20
1801.914523333333
 30
0.0
  0
SPLINE
  5
1CB
330
1F
100
AcDbEntity
  8
Linee visibili 2D
100
AcDbSpline
210
0.0
220
0.0
230
1.0
 70
    24
 71
     3
 72
     8
 73
     4
 74
     0
 42
0.0000000001
 43
0.0000000001
 40
0.0
 40
0.0
 40
0.0
 40
0.0
 40
1.0
 40
1.0
 40
1.0
 40
1.0
 10
5528.897621944445
 20
1801.914523333333
 30
0.0
 10
5529.99529
 20
1801.914523333333
 30
0.0
 10
5531.092958055555
 20
1801.914523333333
 30
0.0
 10
5532.190626111111
 20
1801.914523333333
 30
0.0
  0
SPLINE
  5
1CC
330
1F
100
AcDbEntity
  8
Linee visibili 2D
100
AcDbSpline
210
0.0
220
0.0
230
1.0
 70
    24
 71
     3
 72
     8
 73
     4
 74
     0
 42
0.0000000001
 43
0.0000000001
 40
0.0
 40
0.0
 40
0.0
 40
0.0
 40
1.0
 40
1.0
 40
1.0
 40
1.0
 10
5532.190626111111
 20
1801.914523333333
 30
0.0
 10
5533.636415277777
 20
1801.914523333333
 30
0.0
 10
5535.082204444444
 20
1801.914523333333
 30
0.0
 10
5536.527993611111
 20
1801.914523333333
 30
0.0
  0
SPLINE
  5
1CD
330
1F
100
AcDbEntity
  8
Linee visibili 2D
100
AcDbSpline
210
0.0
220
0.0
230
1.0
 70
    24
 71
     3
 72
     8
 73
     4
 74
     0
 42
0.0000000001
 43
0.0000000001
 40
0.0
 40
0.0
 40
0.0
 40
0.0
 40
1.0
 40
1.0
 40
1.0
 40
1.0
 10
5536.527993611111
 20
1801.914523333333
 30
0.0
 10
5539.422782222222
 20
1801.914523333333
 30
0.0
 10
5542.317535555555
 20
1801.914523333333
 30
0.0
 10
5545.212324166667
 20
1801.914523333333
 30
0.0
  0
SPLINE
  5
1CE
330
1F
100
AcDbEntity
  8
Linee visibili 2D
100
AcDbSpline
210
0.0
220
0.0
230
1.0
 70
    24
 71
     3
 72
     8
 73
     4
 74
     0
 42
0.0000000001
 43
0.0000000001
 40
0.0
 40
0.0
 40
0.0
 40
0.0
 40
1.0
 40
1.0
 40
1.0
 40
1.0
 10
5545.212324166667
 20
1801.914523333333
 30
0.0
 10
5551.002324722221
 20
1801.914523333333
 30
0.0
 10
5556.792325277777
 20
1801.914523333333
 30
0.0
 10
5562.582325833333
 20
1801.914523333333
 30
0.0
  0
LINE
  5
1CF
330
1F
100
AcDbEntity
  8
Linee visibili 2D
100
AcDbLine
 10
5562.582325833333
 20
1801.914523333333
 30
0.0
 11
5597.248528055555
 21
1801.914523333333
 31
0.0
  0
SPLINE
  5
1D0
330
1F
100
AcDbEntity
  8
Linee visibili 2D
100
AcDbSpline
210
0.0
220
0.0
230
1.0
 70
    24
 71
     3
 72
     8
 73
     4
 74
     0
 42
0.0000000001
 43
0.0000000001
 40
0.0
 40
0.0
 40
0.0
 40
0.0
 40
1.0
 40
1.0
 40
1.0
 40
1.0
 10
5612.532625277777
 20
1680.914497222222
 30
0.0
 10
5612.618385555555
 20
1680.914497222222
 30
0.0
 10
5612.446829722222
 20
1680.914497222222
 30
0.0
 10
5612.403931944443
 20
1680.914497222222
 30
0.0
  0
SPLINE
  5
1D1
330
1F
100
AcDbEntity
  8
Linee visibili 2D
100
AcDbSpline
210
0.0
220
0.0
230
1.0
 70
    24
 71
     3
 72
     8
 73
     4
 74
     0
 42
0.0000000001
 43
0.0000000001
 40
0.0
 40
0.0
 40
0.0
 40
0.0
 40
1.0
 40
1.0
 40
1.0
 40
1.0
 10
5612.403931944443
 20
1680.914497222222
 30
0.0
 10
5612.065018333333
 20
1680.914497222222
 30
0.0
 10
5611.726104722222
 20
1680.914497222222
 30
0.0
 10
5611.387226388888
 20
1680.914497222222
 30
0.0
  0
SPLINE
  5
1D2
330
1F
100
AcDbEntity
  8
Linee visibili 2D
100
AcDbSpline
210
0.0
220
0.0
230
1.0
 70
    24
 71
     3
 72
     8
 73
     4
 74
     0
 42
0.0000000001
 43
0.0000000001
 40
0.0
 40
0.0
 40
0.0
 40
0.0
 40
1.0
 40
1.0
 40
1.0
 40
1.0
 10
5611.387226388888
 20
1680.914497222222
 30
0.0
 10
5609.716647222222
 20
1680.914497222222
 30
0.0
 10
5608.046103333333
 20
1680.914497222222
 30
0.0
 10
5606.375524166667
 20
1680.914497222222
 30
0.0
  0
SPLINE
  5
1D3
330
1F
100
AcDbEntity
  8
Linee visibili 2D
100
AcDbSpline
210
0.0
220
0.0
230
1.0
 70
    24
 71
     3
 72
     8
 73
     4
 74
     0
 42
0.0000000001
 43
0.0000000001
 40
0.0
 40
0.0
 40
0.0
 40
0.0
 40
1.0
 40
1.0
 40
1.0
 40
1.0
 10
5606.375524166667
 20
1680.914497222222
 30
0.0
 10
5604.290501666667
 20
1680.914497222222
 30
0.0
 10
5602.205443888889
 20
1680.914497222222
 30
0.0
 10
5600.120421388887
 20
1680.914497222222
 30
0.0
  0
SPLINE
  5
1D4
330
1F
100
AcDbEntity
  8
Linee visibili 2D
100
AcDbSpline
210
0.0
220
0.0
230
1.0
 70
    24
 71
     3
 72
     8
 73
     4
 74
     0
 42
0.0000000001
 43
0.0000000001
 40
0.0
 40
0.0
 40
0.0
 40
0.0
 40
1.0
 40
1.0
 40
1.0
 40
1.0
 10
5600.120421388887
 20
1680.914497222222
 30
0.0
 10
5595.948294999999
 20
1680.914497222222
 30
0.0
 10
5591.776133333333
 20
1680.914497222222
 30
0.0
 10
5587.604006944444
 20
1680.914497222222
 30
0.0
  0
SPLINE
  5
1D5
330
1F
100
AcDbEntity
  8
Linee visibili 2D
100
AcDbSpline
210
0.0
220
0.0
230
1.0
 70
    24
 71
     3
 72
     8
 73
     4
 74
     0
 42
0.0000000001
 43
0.0000000001
 40
0.0
 40
0.0
 40
0.0
 40
0.0
 40
1.0
 40
1.0
 40
1.0
 40
1.0
 10
5587.604006944444
 20
1680.914497222222
 30
0.0
 10
5579.263458333333
 20
1680.914497222222
 30
0.0
 10
5570.922874444444
 20
1680.914497222222
 30
0.0
 10
5562.582325833333
 20
1680.914497222222
 30
0.0
  0
LINE
  5
1D6
330
1F
100
AcDbEntity
  8
Linee visibili 2D
100
AcDbLine
 10
5562.582325833333
 20
1680.914497222222
 30
0.0
 11
5512.632026388889
 21
1680.914497222222
 31
0.0
  0
SPLINE
  5
1D7
330
1F
100
AcDbEntity
  8
Linee visibili 2D
100
AcDbSpline
210
0.0
220
0.0
230
1.0
 70
     8
 71
     3
 72
     8
 73
     4
 74
     0
 42
0.0000000001
 43
0.0000000001
 40
0.0
 40
0.0
 40
0.0
 40
0.0
 40
1.0
 40
1.0
 40
1.0
 40
1.0
 10
5513.651801111111
 20
1689.624509999999
 30
0.0
 10
5513.820287777778
 20
1690.6821025
 30
0.0
 10
5513.95392
 20
1691.742340833333
 30
0.0
 10
5514.053085833332
 20
1692.808646944444
 30
0.0
  0
SPLINE
  5
1D8
330
1F
100
AcDbEntity
  8
Linee visibili 2D
100
AcDbSpline
210
0.0
220
0.0
230
1.0
 70
     8
 71
     3
 72
     8
 73
     4
 74
     0
 42
0.0000000001
 43
0.0000000001
 40
0.0
 40
0.0
 40
0.0
 40
0.0
 40
1.0
 40
1.0
 40
1.0
 40
1.0
 10
5514.053085833332
 20
1692.808646944444
 30
0.0
 10
5514.062046388888
 20
1692.904743611111
 30
0.0
 10
5514.070724722222
 20
1693.000875555555
 30
0.0
 10
5514.079156111111
 20
1693.097042777777
 30
0.0
  0
SPLINE
  5
1D9
330
1F
100
AcDbEntity
  8
Linee visibili 2D
100
AcDbSpline
210
0.0
220
0.0
230
1.0
 70
     8
 71
     3
 72
     8
 73
     4
 74
     0
 42
0.0000000001
 43
0.0000000001
 40
0.0
 40
0.0
 40
0.0
 40
0.0
 40
1.0
 40
1.0
 40
1.0
 40
1.0
 10
5512.618373888888
 20
2277.621245555556
 30
0.0
 10
5512.594173333333
 20
2277.561343888889
 30
0.0
 10
5512.582566944444
 20
2277.502218333333
 30
0.0
 10
5512.582319999999
 20
2277.437589444444
 30
0.0
  0
LINE
  5
1DA
330
1F
100
AcDbEntity
  8
Linee visibili 2D
100
AcDbLine
 10
5576.782336944444
 20
2307.372547777777
 30
0.0
 11
5571.782311666666
 21
2307.372547777777
 31
0.0
  0
SPLINE
  5
1DB
330
1F
100
AcDbEntity
  8
Linee visibili 2D
100
AcDbSpline
210
0.0
220
0.0
230
1.0
 70
     8
 71
     3
 72
     8
 73
     4
 74
     0
 42
0.0000000001
 43
0.0000000001
 40
0.0
 40
0.0
 40
0.0
 40
0.0
 40
1.0
 40
1.0
 40
1.0
 40
1.0
 10
5597.779317499999
 20
1801.475456111111
 30
0.0
 10
5597.739806388887
 20
1801.790239722222
 30
0.0
 10
5597.600318055555
 20
1801.913676666666
 30
0.0
 10
5597.283029722222
 20
1801.914523333333
 30
0.0
  0
SPLINE
  5
1DC
330
1F
100
AcDbEntity
  8
Linee visibili 2D
100
AcDbSpline
210
0.0
220
0.0
230
1.0
 70
     8
 71
     3
 72
     8
 73
     4
 74
     0
 42
0.0000000001
 43
0.0000000001
 40
0.0
 40
0.0
 40
0.0
 40
0.0
 40
1.0
 40
1.0
 40
1.0
 40
1.0
 10
5527.881621944444
 20
1801.914523333333
 30
0.0
 10
5527.564263055555
 20
1801.913782499999
 30
0.0
 10
5527.424739444444
 20
1801.790345555555
 30
0.0
 10
5527.385334166666
 20
1801.475456111111
 30
0.0
  0
LINE
  5
1DD
330
1F
100
AcDbEntity
  8
Linee visibili 2D
100
AcDbLine
 10
5527.385334166666
 20
1801.475456111111
 30
0.0
 11
5514.079932222221
 21
1693.111647777778
 31
0.0
  0
LINE
  5
1DE
330
1F
100
AcDbEntity
  8
Linee visibili 2D
100
AcDbLine
 10
5513.651765833333
 20
1689.624509999999
 30
0.0
 11
5512.583060833333
 21
1680.920529722222
 31
0.0
  0
LINE
  5
1DF
330
1F
100
AcDbEntity
  8
Linee visibili 2D
100
AcDbLine
 10
5612.581590833332
 20
1680.920529722222
 30
0.0
 11
5597.779317499999
 21
1801.475456111111
 31
0.0
  0
LINE
  5
1E0
330
1F
100
AcDbEntity
  8
Linee visibili 2D
100
AcDbLine
 10
5552.732699722222
 20
2278.087758888889
 30
0.0
 11
5552.732558611111
 21
2277.937581388889
 31
0.0
  0
SPLINE
  5
1E1
330
1F
100
AcDbEntity
  8
Linee visibili 2D
100
AcDbSpline
210
0.0
220
0.0
230
1.0
 70
     8
 71
     3
 72
     8
 73
     4
 74
     0
 42
0.0000000001
 43
0.0000000001
 40
0.0
 40
0.0
 40
0.0
 40
0.0
 40
1.0
 40
1.0
 40
1.0
 40
1.0
 10
5552.932689444443
 20
2278.2876075
 30
0.0
 10
5552.791684166667
 20
2278.287148888889
 30
0.0
 10
5552.733264166666
 20
2278.228799444445
 30
0.0
 10
5552.732699722222
 20
2278.087758888889
 30
0.0
  0
SPLINE
  5
1E2
330
1F
100
AcDbEntity
  8
Linee visibili 2D
100
AcDbSpline
210
0.0
220
0.0
230
1.0
 70
     8
 71
     3
 72
     8
 73
     4
 74
     0
 42
0.0000000001
 43
0.0000000001
 40
0.0
 40
0.0
 40
0.0
 40
0.0
 40
1.0
 40
1.0
 40
1.0
 40
1.0
 10
5115.82303111111
 20
1335.088381944444
 30
0.0
 10
5116.771156666667
 20
1335.104080555555
 30
0.0
 10
5117.715719166667
 20
1335.153363611111
 30
0.0
 10
5118.660352222222
 20
1335.236442777778
 30
0.0
  0
SPLINE
  5
1E3
330
1F
100
AcDbEntity
  8
Linee visibili 2D
100
AcDbSpline
210
0.0
220
0.0
230
1.0
 70
     8
 71
     3
 72
     8
 73
     4
 74
     0
 42
0.0000000001
 43
0.0000000001
 40
0.0
 40
0.0
 40
0.0
 40
0.0
 40
1.0
 40
1.0
 40
1.0
 40
1.0
 10
5115.822995833333
 20
1335.088381944444
 30
0.0
 10
5114.222054999999
 20
1335.060971111111
 30
0.0
 10
5112.633355555556
 20
1335.127646111111
 30
0.0
 10
5111.040316944444
 20
1335.289147777778
 30
0.0
  0
SPLINE
  5
1E4
330
1F
100
AcDbEntity
  8
Linee visibili 2D
100
AcDbSpline
210
0.0
220
0.0
230
1.0
 70
     8
 71
     3
 72
     8
 73
     4
 74
     0
 42
0.0000000001
 43
0.0000000001
 40
0.0
 40
0.0
 40
0.0
 40
0.0
 40
1.0
 40
1.0
 40
1.0
 40
1.0
 10
5118.345921388888
 20
1335.712445833333
 30
0.0
 10
5118.304716944443
 20
1335.709023888889
 30
0.0
 10
5118.2635125
 20
1335.705707777777
 30
0.0
 10
5118.222308055555
 20
1335.702462222222
 30
0.0
  0
SPLINE
  5
1E5
330
1F
100
AcDbEntity
  8
Linee visibili 2D
100
AcDbSpline
210
0.0
220
0.0
230
1.0
 70
     8
 71
     3
 72
     8
 73
     4
 74
     0
 42
0.0000000001
 43
0.0000000001
 40
0.0
 40
0.0
 40
0.0
 40
0.0
 40
1.0
 40
1.0
 40
1.0
 40
1.0
 10
5118.122930555555
 20
1335.694771666666
 30
0.0
 10
5116.13404
 20
1335.543359444444
 30
0.0
 10
5114.161871111111
 20
1335.542371666667
 30
0.0
 10
5112.172839444443
 20
1335.691808333333
 30
0.0
  0
SPLINE
  5
1E6
330
1F
100
AcDbEntity
  8
Linee visibili 2D
100
AcDbSpline
210
0.0
220
0.0
230
1.0
 70
     8
 71
     3
 72
     8
 73
     4
 74
     0
 42
0.0000000001
 43
0.0000000001
 40
0.0
 40
0.0
 40
0.0
 40
0.0
 40
1.0
 40
1.0
 40
1.0
 40
1.0
 10
5112.036984722222
 20
1335.702356388889
 30
0.0
 10
5112.00001361111
 20
1335.705319722222
 30
0.0
 10
5111.963007222222
 20
1335.708318333333
 30
0.0
 10
5111.92603611111
 20
1335.7113875
 30
0.0
  0
SPLINE
  5
1E7
330
1F
100
AcDbEntity
  8
Linee visibili 2D
100
AcDbSpline
210
0.0
220
0.0
230
1.0
 70
     8
 71
     3
 72
     8
 73
     4
 74
     0
 42
0.0000000001
 43
0.0000000001
 40
0.0
 40
0.0
 40
0.0
 40
0.0
 40
1.0
 40
1.0
 40
1.0
 40
1.0
 10
5229.300564999999
 20
1335.293733888889
 30
0.0
 10
5229.300564999999
 20
1340.622406944444
 30
0.0
 10
5224.980836388889
 20
1344.942170833333
 30
0.0
 10
5219.652163333333
 20
1344.942170833333
 30
0.0
  0
SPLINE
  5
1E8
330
1F
100
AcDbEntity
  8
Linee visibili 2D
100
AcDbSpline
210
0.0
220
0.0
230
1.0
 70
     8
 71
     3
 72
     8
 73
     4
 74
     0
 42
0.0000000001
 43
0.0000000001
 40
0.0
 40
0.0
 40
0.0
 40
0.0
 40
1.0
 40
1.0
 40
1.0
 40
1.0
 10
5219.652163333333
 20
1344.942170833333
 30
0.0
 10
5214.323454999999
 20
1344.942170833333
 30
0.0
 10
5210.003726388888
 20
1340.622406944444
 30
0.0
 10
5210.003726388888
 20
1335.293733888889
 30
0.0
  0
SPLINE
  5
1E9
330
1F
100
AcDbEntity
  8
Linee visibili 2D
100
AcDbSpline
210
0.0
220
0.0
230
1.0
 70
     8
 71
     3
 72
     8
 73
     4
 74
     0
 42
0.0000000001
 43
0.0000000001
 40
0.0
 40
0.0
 40
0.0
 40
0.0
 40
1.0
 40
1.0
 40
1.0
 40
1.0
 10
5210.003726388888
 20
1335.293733888889
 30
0.0
 10
5210.003726388888
 20
1329.965060833333
 30
0.0
 10
5214.323454999999
 20
1325.645296944444
 30
0.0
 10
5219.652163333333
 20
1325.645296944444
 30
0.0
  0
SPLINE
  5
1EA
330
1F
100
AcDbEntity
  8
Linee visibili 2D
100
AcDbSpline
210
0.0
220
0.0
230
1.0
 70
     8
 71
     3
 72
     8
 73
     4
 74
     0
 42
0.0000000001
 43
0.0000000001
 40
0.0
 40
0.0
 40
0.0
 40
0.0
 40
1.0
 40
1.0
 40
1.0
 40
1.0
 10
5219.652163333333
 20
1325.645296944444
 30
0.0
 10
5224.980836388889
 20
1325.645296944444
 30
0.0
 10
5229.300564999999
 20
1329.965060833333
 30
0.0
 10
5229.300564999999
 20
1335.293733888889
 30
0.0
  0
SPLINE
  5
1EB
330
1F
100
AcDbEntity
  8
Linee visibili 2D
100
AcDbSpline
210
0.0
220
0.0
230
1.0
 70
     8
 71
     3
 72
     8
 73
     4
 74
     0
 42
0.0000000001
 43
0.0000000001
 40
0.0
 40
0.0
 40
0.0
 40
0.0
 40
1.0
 40
1.0
 40
1.0
 40
1.0
 10
5138.152135833333
 20
1285.2949275
 30
0.0
 10
5137.876016666666
 20
1285.2949275
 30
0.0
 10
5137.652143888889
 20
1285.518765
 30
0.0
 10
5137.652143888889
 20
1285.794919444444
 30
0.0
  0
SPLINE
  5
1EC
330
1F
100
AcDbEntity
  8
Linee visibili 2D
100
AcDbSpline
210
0.0
220
0.0
230
1.0
 70
     8
 71
     3
 72
     8
 73
     4
 74
     0
 42
0.0000000001
 43
0.0000000001
 40
0.0
 40
0.0
 40
0.0
 40
0.0
 40
1.0
 40
1.0
 40
1.0
 40
1.0
 10
5138.152135833333
 20
1385.294903888889
 30
0.0
 10
5137.876016666666
 20
1385.294903888889
 30
0.0
 10
5137.652143888889
 20
1385.071066388889
 30
0.0
 10
5137.652143888889
 20
1384.794911944444
 30
0.0
  0
LINE
  5
1ED
330
1F
100
AcDbEntity
  8
Linee visibili 2D
100
AcDbLine
 10
5137.652143888889
 20
1384.794911944444
 30
0.0
 11
5137.652143888889
 21
1285.794919444444
 31
0.0
  0
LINE
  5
1EE
330
1F
100
AcDbEntity
  8
Linee visibili 2D
100
AcDbLine
 10
5237.15216361111
 20
1385.294903888889
 30
0.0
 11
5138.152135833333
 21
1385.294903888889
 31
0.0
  0
SPLINE
  5
1EF
330
1F
100
AcDbEntity
  8
Linee visibili 2D
100
AcDbSpline
210
0.0
220
0.0
230
1.0
 70
     8
 71
     3
 72
     8
 73
     4
 74
     0
 42
0.0000000001
 43
0.0000000001
 40
0.0
 40
0.0
 40
0.0
 40
0.0
 40
1.0
 40
1.0
 40
1.0
 40
1.0
 10
5237.15216361111
 20
1385.294903888889
 30
0.0
 10
5237.428282777777
 20
1385.294903888889
 30
0.0
 10
5237.652155555555
 20
1385.071066388889
 30
0.0
 10
5237.652155555555
 20
1384.794911944444
 30
0.0
  0
LINE
  5
1F0
330
1F
100
AcDbEntity
  8
Linee visibili 2D
100
AcDbLine
 10
5237.15216361111
 20
1285.2949275
 30
0.0
 11
5138.152135833333
 21
1285.2949275
 31
0.0
  0
LINE
  5
1F1
330
1F
100
AcDbEntity
  8
Linee visibili 2D
100
AcDbLine
 10
5237.652155555555
 20
1384.794911944444
 30
0.0
 11
5237.652155555555
 21
1285.794919444444
 31
0.0
  0
SPLINE
  5
1F2
330
1F
100
AcDbEntity
  8
Linee visibili 2D
100
AcDbSpline
210
0.0
220
0.0
230
1.0
 70
     8
 71
     3
 72
     8
 73
     4
 74
     0
 42
0.0000000001
 43
0.0000000001
 40
0.0
 40
0.0
 40
0.0
 40
0.0
 40
1.0
 40
1.0
 40
1.0
 40
1.0
 10
5237.652155555555
 20
1285.794919444444
 30
0.0
 10
5237.652155555555
 20
1285.518765
 30
0.0
 10
5237.428282777777
 20
1285.2949275
 30
0.0
 10
5237.15216361111
 20
1285.2949275
 30
0.0
  0
SPLINE
  5
1F3
330
1F
100
AcDbEntity
  8
Linee visibili 2D
100
AcDbSpline
210
0.0
220
0.0
230
1.0
 70
     8
 71
     3
 72
     8
 73
     4
 74
     0
 42
0.0000000001
 43
0.0000000001
 40
0.0
 40
0.0
 40
0.0
 40
0.0
 40
1.0
 40
1.0
 40
1.0
 40
1.0
 10
5229.652143333333
 20
1335.293733888889
 30
0.0
 10
5229.652143333333
 20
1329.770891944444
 30
0.0
 10
5225.175005277778
 20
1325.293753888888
 30
0.0
 10
5219.652163333333
 20
1325.293753888888
 30
0.0
  0
SPLINE
  5
1F4
330
1F
100
AcDbEntity
  8
Linee visibili 2D
100
AcDbSpline
210
0.0
220
0.0
230
1.0
 70
     8
 71
     3
 72
     8
 73
     4
 74
     0
 42
0.0000000001
 43
0.0000000001
 40
0.0
 40
0.0
 40
0.0
 40
0.0
 40
1.0
 40
1.0
 40
1.0
 40
1.0
 10
5219.652163333333
 20
1325.293753888888
 30
0.0
 10
5214.12928611111
 20
1325.293753888888
 30
0.0
 10
5209.652148055556
 20
1329.770891944444
 30
0.0
 10
5209.652148055556
 20
1335.293733888889
 30
0.0
  0
SPLINE
  5
1F5
330
1F
100
AcDbEntity
  8
Linee visibili 2D
100
AcDbSpline
210
0.0
220
0.0
230
1.0
 70
     8
 71
     3
 72
     8
 73
     4
 74
     0
 42
0.0000000001
 43
0.0000000001
 40
0.0
 40
0.0
 40
0.0
 40
0.0
 40
1.0
 40
1.0
 40
1.0
 40
1.0
 10
5209.652148055556
 20
1335.293733888889
 30
0.0
 10
5209.652148055556
 20
1340.816575833333
 30
0.0
 10
5214.12928611111
 20
1345.293749166666
 30
0.0
 10
5219.652163333333
 20
1345.293749166666
 30
0.0
  0
SPLINE
  5
1F6
330
1F
100
AcDbEntity
  8
Linee visibili 2D
100
AcDbSpline
210
0.0
220
0.0
230
1.0
 70
     8
 71
     3
 72
     8
 73
     4
 74
     0
 42
0.0000000001
 43
0.0000000001
 40
0.0
 40
0.0
 40
0.0
 40
0.0
 40
1.0
 40
1.0
 40
1.0
 40
1.0
 10
5219.652163333333
 20
1345.293749166666
 30
0.0
 10
5225.175005277778
 20
1345.293749166666
 30
0.0
 10
5229.652143333333
 20
1340.816575833333
 30
0.0
 10
5229.652143333333
 20
1335.293733888889
 30
0.0
  0
SPLINE
  5
1F7
330
1F
100
AcDbEntity
  8
Linee visibili 2D
100
AcDbSpline
210
0.0
220
0.0
230
1.0
 70
     8
 71
     3
 72
     8
 73
     4
 74
     0
 42
0.0000000001
 43
0.0000000001
 40
0.0
 40
0.0
 40
0.0
 40
0.0
 40
1.0
 40
1.0
 40
1.0
 40
1.0
 10
4389.629199444445
 20
1335.293733888889
 30
0.0
 10
4389.629199444445
 20
1362.907978888889
 30
0.0
 10
4412.014960277777
 20
1385.293739722222
 30
0.0
 10
4439.629205277777
 20
1385.293739722222
 30
0.0
  0
SPLINE
  5
1F8
330
1F
100
AcDbEntity
  8
Linee visibili 2D
100
AcDbSpline
210
0.0
220
0.0
230
1.0
 70
     8
 71
     3
 72
     8
 73
     4
 74
     0
 42
0.0000000001
 43
0.0000000001
 40
0.0
 40
0.0
 40
0.0
 40
0.0
 40
1.0
 40
1.0
 40
1.0
 40
1.0
 10
4439.629205277777
 20
1385.293739722222
 30
0.0
 10
4467.243450277776
 20
1385.293739722222
 30
0.0
 10
4489.62921111111
 20
1362.907978888889
 30
0.0
 10
4489.62921111111
 20
1335.293733888889
 30
0.0
  0
SPLINE
  5
1F9
330
1F
100
AcDbEntity
  8
Linee visibili 2D
100
AcDbSpline
210
0.0
220
0.0
230
1.0
 70
     8
 71
     3
 72
     8
 73
     4
 74
     0
 42
0.0000000001
 43
0.0000000001
 40
0.0
 40
0.0
 40
0.0
 40
0.0
 40
1.0
 40
1.0
 40
1.0
 40
1.0
 10
4489.62921111111
 20
1335.293733888889
 30
0.0
 10
4489.62921111111
 20
1307.679488888888
 30
0.0
 10
4467.243450277776
 20
1285.293728055555
 30
0.0
 10
4439.629205277777
 20
1285.293728055555
 30
0.0
  0
SPLINE
  5
1FA
330
1F
100
AcDbEntity
  8
Linee visibili 2D
100
AcDbSpline
210
0.0
220
0.0
230
1.0
 70
     8
 71
     3
 72
     8
 73
     4
 74
     0
 42
0.0000000001
 43
0.0000000001
 40
0.0
 40
0.0
 40
0.0
 40
0.0
 40
1.0
 40
1.0
 40
1.0
 40
1.0
 10
4439.629205277777
 20
1285.293728055555
 30
0.0
 10
4412.014960277777
 20
1285.293728055555
 30
0.0
 10
4389.629199444445
 20
1307.679488888888
 30
0.0
 10
4389.629199444445
 20
1335.293733888889
 30
0.0
  0
SPLINE
  5
1FB
330
1F
100
AcDbEntity
  8
Linee visibili 2D
100
AcDbSpline
210
0.0
220
0.0
230
1.0
 70
     8
 71
     3
 72
     8
 73
     4
 74
     0
 42
0.0000000001
 43
0.0000000001
 40
0.0
 40
0.0
 40
0.0
 40
0.0
 40
1.0
 40
1.0
 40
1.0
 40
1.0
 10
4418.479189722221
 20
1335.2960975
 30
0.0
 10
4418.479189722221
 20
1329.773255555555
 30
0.0
 10
4414.002051666666
 20
1325.296082222222
 30
0.0
 10
4408.479209722222
 20
1325.296082222222
 30
0.0
  0
SPLINE
  5
1FC
330
1F
100
AcDbEntity
  8
Linee visibili 2D
100
AcDbSpline
210
0.0
220
0.0
230
1.0
 70
     8
 71
     3
 72
     8
 73
     4
 74
     0
 42
0.0000000001
 43
0.0000000001
 40
0.0
 40
0.0
 40
0.0
 40
0.0
 40
1.0
 40
1.0
 40
1.0
 40
1.0
 10
4408.479209722222
 20
1325.296082222222
 30
0.0
 10
4402.956367777778
 20
1325.296082222222
 30
0.0
 10
4398.479194444444
 20
1329.773255555555
 30
0.0
 10
4398.479194444444
 20
1335.2960975
 30
0.0
  0
SPLINE
  5
1FD
330
1F
100
AcDbEntity
  8
Linee visibili 2D
100
AcDbSpline
210
0.0
220
0.0
230
1.0
 70
     8
 71
     3
 72
     8
 73
     4
 74
     0
 42
0.0000000001
 43
0.0000000001
 40
0.0
 40
0.0
 40
0.0
 40
0.0
 40
1.0
 40
1.0
 40
1.0
 40
1.0
 10
4398.479194444444
 20
1335.2960975
 30
0.0
 10
4398.479194444444
 20
1340.818939444444
 30
0.0
 10
4402.956367777778
 20
1345.2960775
 30
0.0
 10
4408.479209722222
 20
1345.2960775
 30
0.0
  0
SPLINE
  5
1FE
330
1F
100
AcDbEntity
  8
Linee visibili 2D
100
AcDbSpline
210
0.0
220
0.0
230
1.0
 70
     8
 71
     3
 72
     8
 73
     4
 74
     0
 42
0.0000000001
 43
0.0000000001
 40
0.0
 40
0.0
 40
0.0
 40
0.0
 40
1.0
 40
1.0
 40
1.0
 40
1.0
 10
4408.479209722222
 20
1345.2960775
 30
0.0
 10
4414.002051666666
 20
1345.2960775
 30
0.0
 10
4418.479189722221
 20
1340.818939444444
 30
0.0
 10
4418.479189722221
 20
1335.2960975
 30
0.0
  0
SPLINE
  5
1FF
330
1F
100
AcDbEntity
  8
Linee visibili 2D
100
AcDbSpline
210
0.0
220
0.0
230
1.0
 70
     8
 71
     3
 72
     8
 73
     4
 74
     0
 42
0.0000000001
 43
0.0000000001
 40
0.0
 40
0.0
 40
0.0
 40
0.0
 40
1.0
 40
1.0
 40
1.0
 40
1.0
 10
4785.049731944444
 20
1340.294923333333
 30
0.0
 10
4787.478571666666
 20
1354.171190277777
 30
0.0
 10
4799.528225833332
 20
1364.294889444444
 30
0.0
 10
4813.615453888889
 20
1364.294889444444
 30
0.0
  0
SPLINE
  5
200
330
1F
100
AcDbEntity
  8
Linee visibili 2D
100
AcDbSpline
210
0.0
220
0.0
230
1.0
 70
     8
 71
     3
 72
     8
 73
     4
 74
     0
 42
0.0000000001
 43
0.0000000001
 40
0.0
 40
0.0
 40
0.0
 40
0.0
 40
1.0
 40
1.0
 40
1.0
 40
1.0
 10
4813.615453888889
 20
1364.294889444444
 30
0.0
 10
4827.702681944444
 20
1364.294889444444
 30
0.0
 10
4839.752300833333
 20
1354.171190277777
 30
0.0
 10
4842.181175833332
 20
1340.294923333333
 30
0.0
  0
SPLINE
  5
201
330
1F
100
AcDbEntity
  8
Linee visibili 2D
100
AcDbSpline
210
0.0
220
0.0
230
1.0
 70
     8
 71
     3
 72
     8
 73
     4
 74
     0
 42
0.0000000001
 43
0.0000000001
 40
0.0
 40
0.0
 40
0.0
 40
0.0
 40
1.0
 40
1.0
 40
1.0
 40
1.0
 10
4842.181175833332
 20
1330.294908055555
 30
0.0
 10
4839.752336111111
 20
1316.418641111111
 30
0.0
 10
4827.702717222222
 20
1306.294906666666
 30
0.0
 10
4813.615453888889
 20
1306.294906666666
 30
0.0
  0
SPLINE
  5
202
330
1F
100
AcDbEntity
  8
Linee visibili 2D
100
AcDbSpline
210
0.0
220
0.0
230
1.0
 70
     8
 71
     3
 72
     8
 73
     4
 74
     0
 42
0.0000000001
 43
0.0000000001
 40
0.0
 40
0.0
 40
0.0
 40
0.0
 40
1.0
 40
1.0
 40
1.0
 40
1.0
 10
4813.615453888889
 20
1306.294906666666
 30
0.0
 10
4799.528190555554
 20
1306.294906666666
 30
0.0
 10
4787.478571666666
 20
1316.418641111111
 30
0.0
 10
4785.049731944444
 20
1330.294908055555
 30
0.0
  0
LINE
  5
203
330
1F
100
AcDbEntity
  8
Linee visibili 2D
100
AcDbLine
 10
4821.115438888889
 20
1349.494873888889
 30
0.0
 11
4821.115438888889
 21
1344.494883888889
 31
0.0
  0
LINE
  5
204
330
1F
100
AcDbEntity
  8
Linee visibili 2D
100
AcDbLine
 10
4806.115468888889
 20
1349.494873888889
 30
0.0
 11
4821.115438888889
 21
1349.494873888889
 31
0.0
  0
LINE
  5
205
330
1F
100
AcDbEntity
  8
Linee visibili 2D
100
AcDbLine
 10
4806.115468888889
 20
1349.494873888889
 30
0.0
 11
4806.115468888889
 21
1344.494883888889
 31
0.0
  0
LINE
  5
206
330
1F
100
AcDbEntity
  8
Linee visibili 2D
100
AcDbLine
 10
4806.115468888889
 20
1344.494883888889
 30
0.0
 11
4821.115438888889
 21
1344.494883888889
 31
0.0
  0
SPLINE
  5
207
330
1F
100
AcDbEntity
  8
Linee visibili 2D
100
AcDbSpline
210
0.0
220
0.0
230
1.0
 70
    24
 71
     3
 72
     8
 73
     4
 74
     0
 42
0.0000000001
 43
0.0000000001
 40
0.0
 40
0.0
 40
0.0
 40
0.0
 40
1.0
 40
1.0
 40
1.0
 40
1.0
 10
4828.591576111112
 20
1321.094886944444
 30
0.0
 10
4828.672468055555
 20
1321.094886944444
 30
0.0
 10
4828.510648888888
 20
1321.094886944444
 30
0.0
 10
4828.470185277777
 20
1321.094886944444
 30
0.0
  0
SPLINE
  5
208
330
1F
100
AcDbEntity
  8
Linee visibili 2D
100
AcDbSpline
210
0.0
220
0.0
230
1.0
 70
    24
 71
     3
 72
     8
 73
     4
 74
     0
 42
0.0000000001
 43
0.0000000001
 40
0.0
 40
0.0
 40
0.0
 40
0.0
 40
1.0
 40
1.0
 40
1.0
 40
1.0
 10
4828.470185277777
 20
1321.094886944444
 30
0.0
 10
4828.25439111111
 20
1321.094886944444
 30
0.0
 10
4828.038596944445
 20
1321.094886944444
 30
0.0
 10
4827.822802777777
 20
1321.094886944444
 30
0.0
  0
SPLINE
  5
209
330
1F
100
AcDbEntity
  8
Linee visibili 2D
100
AcDbSpline
210
0.0
220
0.0
230
1.0
 70
    24
 71
     3
 72
     8
 73
     4
 74
     0
 42
0.0000000001
 43
0.0000000001
 40
0.0
 40
0.0
 40
0.0
 40
0.0
 40
1.0
 40
1.0
 40
1.0
 40
1.0
 10
4827.822802777777
 20
1321.094886944444
 30
0.0
 10
4826.8448675
 20
1321.094886944444
 30
0.0
 10
4825.866932222221
 20
1321.094886944444
 30
0.0
 10
4824.889032222221
 20
1321.094886944444
 30
0.0
  0
SPLINE
  5
20A
330
1F
100
AcDbEntity
  8
Linee visibili 2D
100
AcDbSpline
210
0.0
220
0.0
230
1.0
 70
    24
 71
     3
 72
     8
 73
     4
 74
     0
 42
0.0000000001
 43
0.0000000001
 40
0.0
 40
0.0
 40
0.0
 40
0.0
 40
1.0
 40
1.0
 40
1.0
 40
1.0
 10
4824.889032222221
 20
1321.094886944444
 30
0.0
 10
4823.638152777778
 20
1321.094886944444
 30
0.0
 10
4822.387273333333
 20
1321.094886944444
 30
0.0
 10
4821.136393888889
 20
1321.094886944444
 30
0.0
  0
SPLINE
  5
20B
330
1F
100
AcDbEntity
  8
Linee visibili 2D
100
AcDbSpline
210
0.0
220
0.0
230
1.0
 70
    24
 71
     3
 72
     8
 73
     4
 74
     0
 42
0.0000000001
 43
0.0000000001
 40
0.0
 40
0.0
 40
0.0
 40
0.0
 40
1.0
 40
1.0
 40
1.0
 40
1.0
 10
4821.136393888889
 20
1321.094886944444
 30
0.0
 10
4818.633929444445
 20
1321.094886944444
 30
0.0
 10
4816.131429722222
 20
1321.094886944444
 30
0.0
 10
4813.628965277778
 20
1321.094886944444
 30
0.0
  0
SPLINE
  5
20C
330
1F
100
AcDbEntity
  8
Linee visibili 2D
100
AcDbSpline
210
0.0
220
0.0
230
1.0
 70
    24
 71
     3
 72
     8
 73
     4
 74
     0
 42
0.0000000001
 43
0.0000000001
 40
0.0
 40
0.0
 40
0.0
 40
0.0
 40
1.0
 40
1.0
 40
1.0
 40
1.0
 10
4813.628965277778
 20
1321.094886944444
 30
0.0
 10
4808.626082499999
 20
1321.094886944444
 30
0.0
 10
4803.623199722222
 20
1321.094886944444
 30
0.0
 10
4798.620281666666
 20
1321.094886944444
 30
0.0
  0
SPLINE
  5
20D
330
1F
100
AcDbEntity
  8
Linee visibili 2D
100
AcDbSpline
210
0.0
220
0.0
230
1.0
 70
    24
 71
     3
 72
     8
 73
     4
 74
     0
 42
0.0000000001
 43
0.0000000001
 40
0.0
 40
0.0
 40
0.0
 40
0.0
 40
1.0
 40
1.0
 40
1.0
 40
1.0
 10
4828.591576111112
 20
1326.094876944444
 30
0.0
 10
4828.672468055555
 20
1326.094876944444
 30
0.0
 10
4828.510648888888
 20
1326.094876944444
 30
0.0
 10
4828.470185277777
 20
1326.094876944444
 30
0.0
  0
SPLINE
  5
20E
330
1F
100
AcDbEntity
  8
Linee visibili 2D
100
AcDbSpline
210
0.0
220
0.0
230
1.0
 70
    24
 71
     3
 72
     8
 73
     4
 74
     0
 42
0.0000000001
 43
0.0000000001
 40
0.0
 40
0.0
 40
0.0
 40
0.0
 40
1.0
 40
1.0
 40
1.0
 40
1.0
 10
4828.470185277777
 20
1326.094876944444
 30
0.0
 10
4828.25439111111
 20
1326.094876944444
 30
0.0
 10
4828.038596944445
 20
1326.094876944444
 30
0.0
 10
4827.822802777777
 20
1326.094876944444
 30
0.0
  0
SPLINE
  5
20F
330
1F
100
AcDbEntity
  8
Linee visibili 2D
100
AcDbSpline
210
0.0
220
0.0
230
1.0
 70
    24
 71
     3
 72
     8
 73
     4
 74
     0
 42
0.0000000001
 43
0.0000000001
 40
0.0
 40
0.0
 40
0.0
 40
0.0
 40
1.0
 40
1.0
 40
1.0
 40
1.0
 10
4827.822802777777
 20
1326.094876944444
 30
0.0
 10
4826.8448675
 20
1326.094876944444
 30
0.0
 10
4825.866932222221
 20
1326.094876944444
 30
0.0
 10
4824.889032222221
 20
1326.094876944444
 30
0.0
  0
SPLINE
  5
210
330
1F
100
AcDbEntity
  8
Linee visibili 2D
100
AcDbSpline
210
0.0
220
0.0
230
1.0
 70
    24
 71
     3
 72
     8
 73
     4
 74
     0
 42
0.0000000001
 43
0.0000000001
 40
0.0
 40
0.0
 40
0.0
 40
0.0
 40
1.0
 40
1.0
 40
1.0
 40
1.0
 10
4824.889032222221
 20
1326.094876944444
 30
0.0
 10
4823.638152777778
 20
1326.094876944444
 30
0.0
 10
4822.387273333333
 20
1326.094876944444
 30
0.0
 10
4821.136393888889
 20
1326.094876944444
 30
0.0
  0
SPLINE
  5
211
330
1F
100
AcDbEntity
  8
Linee visibili 2D
100
AcDbSpline
210
0.0
220
0.0
230
1.0
 70
    24
 71
     3
 72
     8
 73
     4
 74
     0
 42
0.0000000001
 43
0.0000000001
 40
0.0
 40
0.0
 40
0.0
 40
0.0
 40
1.0
 40
1.0
 40
1.0
 40
1.0
 10
4821.136393888889
 20
1326.094876944444
 30
0.0
 10
4818.633929444445
 20
1326.094876944444
 30
0.0
 10
4816.131429722222
 20
1326.094876944444
 30
0.0
 10
4813.628965277778
 20
1326.094876944444
 30
0.0
  0
SPLINE
  5
212
330
1F
100
AcDbEntity
  8
Linee visibili 2D
100
AcDbSpline
210
0.0
220
0.0
230
1.0
 70
    24
 71
     3
 72
     8
 73
     4
 74
     0
 42
0.0000000001
 43
0.0000000001
 40
0.0
 40
0.0
 40
0.0
 40
0.0
 40
1.0
 40
1.0
 40
1.0
 40
1.0
 10
4813.628965277778
 20
1326.094876944444
 30
0.0
 10
4808.626082499999
 20
1326.094876944444
 30
0.0
 10
4803.623199722222
 20
1326.094876944444
 30
0.0
 10
4798.620281666666
 20
1326.094876944444
 30
0.0
  0
SPLINE
  5
213
330
1F
100
AcDbEntity
  8
Linee visibili 2D
100
AcDbSpline
210
0.0
220
0.0
230
1.0
 70
     8
 71
     3
 72
     8
 73
     4
 74
     0
 42
0.0000000001
 43
0.0000000001
 40
0.0
 40
0.0
 40
0.0
 40
0.0
 40
1.0
 40
1.0
 40
1.0
 40
1.0
 10
4844.2095775
 20
1340.294923333333
 30
0.0
 10
4841.759394722222
 20
1355.286955833333
 30
0.0
 10
4828.806417777777
 20
1366.2948925
 30
0.0
 10
4813.615453888889
 20
1366.2948925
 30
0.0
  0
SPLINE
  5
214
330
1F
100
AcDbEntity
  8
Linee visibili 2D
100
AcDbSpline
210
0.0
220
0.0
230
1.0
 70
     8
 71
     3
 72
     8
 73
     4
 74
     0
 42
0.0000000001
 43
0.0000000001
 40
0.0
 40
0.0
 40
0.0
 40
0.0
 40
1.0
 40
1.0
 40
1.0
 40
1.0
 10
4813.615453888889
 20
1366.2948925
 30
0.0
 10
4798.424489999999
 20
1366.2948925
 30
0.0
 10
4785.471513055555
 20
1355.286955833333
 30
0.0
 10
4783.021330277778
 20
1340.294923333333
 30
0.0
  0
SPLINE
  5
215
330
1F
100
AcDbEntity
  8
Linee visibili 2D
100
AcDbSpline
210
0.0
220
0.0
230
1.0
 70
     8
 71
     3
 72
     8
 73
     4
 74
     0
 42
0.0000000001
 43
0.0000000001
 40
0.0
 40
0.0
 40
0.0
 40
0.0
 40
1.0
 40
1.0
 40
1.0
 40
1.0
 10
4783.021330277778
 20
1330.294908055555
 30
0.0
 10
4785.471477777777
 20
1315.302840277778
 30
0.0
 10
4798.424489999999
 20
1304.294903611111
 30
0.0
 10
4813.615453888889
 20
1304.294903611111
 30
0.0
  0
SPLINE
  5
216
330
1F
100
AcDbEntity
  8
Linee visibili 2D
100
AcDbSpline
210
0.0
220
0.0
230
1.0
 70
     8
 71
     3
 72
     8
 73
     4
 74
     0
 42
0.0000000001
 43
0.0000000001
 40
0.0
 40
0.0
 40
0.0
 40
0.0
 40
1.0
 40
1.0
 40
1.0
 40
1.0
 10
4813.615453888889
 20
1304.294903611111
 30
0.0
 10
4828.806417777777
 20
1304.294903611111
 30
0.0
 10
4841.759429999999
 20
1315.302840277778
 30
0.0
 10
4844.2095775
 20
1330.294908055555
 30
0.0
  0
SPLINE
  5
217
330
1F
100
AcDbEntity
  8
Linee visibili 2D
100
AcDbSpline
210
0.0
220
0.0
230
1.0
 70
     8
 71
     3
 72
     8
 73
     4
 74
     0
 42
0.0000000001
 43
0.0000000001
 40
0.0
 40
0.0
 40
0.0
 40
0.0
 40
1.0
 40
1.0
 40
1.0
 40
1.0
 10
4763.866061388888
 20
1330.294908055555
 30
0.0
 10
4766.433860277777
 20
1304.745577222222
 30
0.0
 10
4787.937429722222
 20
1285.294892222222
 30
0.0
 10
4813.615453888889
 20
1285.294892222222
 30
0.0
  0
SPLINE
  5
218
330
1F
100
AcDbEntity
  8
Linee visibili 2D
100
AcDbSpline
210
0.0
220
0.0
230
1.0
 70
     8
 71
     3
 72
     8
 73
     4
 74
     0
 42
0.0000000001
 43
0.0000000001
 40
0.0
 40
0.0
 40
0.0
 40
0.0
 40
1.0
 40
1.0
 40
1.0
 40
1.0
 10
4813.615453888889
 20
1285.294892222222
 30
0.0
 10
4839.293478055555
 20
1285.294892222222
 30
0.0
 10
4860.7970475
 20
1304.745577222222
 30
0.0
 10
4863.364811111111
 20
1330.294908055555
 30
0.0
  0
SPLINE
  5
219
330
1F
100
AcDbEntity
  8
Linee visibili 2D
100
AcDbSpline
210
0.0
220
0.0
230
1.0
 70
     8
 71
     3
 72
     8
 73
     4
 74
     0
 42
0.0000000001
 43
0.0000000001
 40
0.0
 40
0.0
 40
0.0
 40
0.0
 40
1.0
 40
1.0
 40
1.0
 40
1.0
 10
4863.364811111111
 20
1340.294923333333
 30
0.0
 10
4860.797012222221
 20
1365.844218888889
 30
0.0
 10
4839.293478055555
 20
1385.294903888889
 30
0.0
 10
4813.615453888889
 20
1385.294903888889
 30
0.0
  0
SPLINE
  5
21A
330
1F
100
AcDbEntity
  8
Linee visibili 2D
100
AcDbSpline
210
0.0
220
0.0
230
1.0
 70
     8
 71
     3
 72
     8
 73
     4
 74
     0
 42
0.0000000001
 43
0.0000000001
 40
0.0
 40
0.0
 40
0.0
 40
0.0
 40
1.0
 40
1.0
 40
1.0
 40
1.0
 10
4813.615453888889
 20
1385.294903888889
 30
0.0
 10
4787.937429722222
 20
1385.294903888889
 30
0.0
 10
4766.433895555555
 20
1365.844218888889
 30
0.0
 10
4763.866096666666
 20
1340.294923333333
 30
0.0
  0
SPLINE
  5
21B
330
1F
100
AcDbEntity
  8
Linee visibili 2D
100
AcDbSpline
210
0.0
220
0.0
230
1.0
 70
     8
 71
     3
 72
     8
 73
     4
 74
     0
 42
0.0000000001
 43
0.0000000001
 40
0.0
 40
0.0
 40
0.0
 40
0.0
 40
1.0
 40
1.0
 40
1.0
 40
1.0
 10
4812.612365555556
 20
1384.176351388889
 30
0.0
 10
4812.946340277777
 20
1384.209935833333
 30
0.0
 10
4813.279821111112
 20
1384.226269444444
 30
0.0
 10
4813.615453888889
 20
1384.225422777777
 30
0.0
  0
SPLINE
  5
21C
330
1F
100
AcDbEntity
  8
Linee visibili 2D
100
AcDbSpline
210
0.0
220
0.0
230
1.0
 70
     8
 71
     3
 72
     8
 73
     4
 74
     0
 42
0.0000000001
 43
0.0000000001
 40
0.0
 40
0.0
 40
0.0
 40
0.0
 40
1.0
 40
1.0
 40
1.0
 40
1.0
 10
4813.615453888889
 20
1384.225422777777
 30
0.0
 10
4814.014092777778
 20
1384.222635833333
 30
0.0
 10
4814.412167222222
 20
1384.2069725
 30
0.0
 10
4814.807631111111
 20
1384.151586388888
 30
0.0
  0
SPLINE
  5
21D
330
1F
100
AcDbEntity
  8
Linee visibili 2D
100
AcDbSpline
210
0.0
220
0.0
230
1.0
 70
     8
 71
     3
 72
     8
 73
     4
 74
     0
 42
0.0000000001
 43
0.0000000001
 40
0.0
 40
0.0
 40
0.0
 40
0.0
 40
1.0
 40
1.0
 40
1.0
 40
1.0
 10
4814.807631111111
 20
1384.151586388888
 30
0.0
 10
4814.940698888888
 20
1384.132959722222
 30
0.0
 10
4815.073449166666
 20
1384.109852777777
 30
0.0
 10
4815.201401666666
 20
1384.075845
 30
0.0
  0
SPLINE
  5
21E
330
1F
100
AcDbEntity
  8
Linee visibili 2D
100
AcDbSpline
210
0.0
220
0.0
230
1.0
 70
     8
 71
     3
 72
     8
 73
     4
 74
     0
 42
0.0000000001
 43
0.0000000001
 40
0.0
 40
0.0
 40
0.0
 40
0.0
 40
1.0
 40
1.0
 40
1.0
 40
1.0
 10
4815.201401666666
 20
1384.075845
 30
0.0
 10
4815.242359166667
 20
1384.064944166667
 30
0.0
 10
4815.282858055555
 20
1384.052949722222
 30
0.0
 10
4815.322404444444
 20
1384.026985277778
 30
0.0
  0
SPLINE
  5
21F
330
1F
100
AcDbEntity
  8
Linee visibili 2D
100
AcDbSpline
210
0.0
220
0.0
230
1.0
 70
     8
 71
     3
 72
     8
 73
     4
 74
     0
 42
0.0000000001
 43
0.0000000001
 40
0.0
 40
0.0
 40
0.0
 40
0.0
 40
1.0
 40
1.0
 40
1.0
 40
1.0
 10
4815.322404444444
 20
1384.026985277778
 30
0.0
 10
4815.342618611111
 20
1384.013756111111
 30
0.0
 10
4815.362585833333
 20
1383.996858055555
 30
0.0
 10
4815.363361944445
 20
1383.980806666667
 30
0.0
  0
SPLINE
  5
220
330
1F
100
AcDbEntity
  8
Linee visibili 2D
100
AcDbSpline
210
0.0
220
0.0
230
1.0
 70
     8
 71
     3
 72
     8
 73
     4
 74
     0
 42
0.0000000001
 43
0.0000000001
 40
0.0
 40
0.0
 40
0.0
 40
0.0
 40
1.0
 40
1.0
 40
1.0
 40
1.0
 10
4815.363361944445
 20
1383.980806666667
 30
0.0
 10
4815.364208611111
 20
1383.963026666666
 30
0.0
 10
4815.341419166666
 20
1383.946269722222
 30
0.0
 10
4815.318418055555
 20
1383.933393333333
 30
0.0
  0
SPLINE
  5
221
330
1F
100
AcDbEntity
  8
Linee visibili 2D
100
AcDbSpline
210
0.0
220
0.0
230
1.0
 70
     8
 71
     3
 72
     8
 73
     4
 74
     0
 42
0.0000000001
 43
0.0000000001
 40
0.0
 40
0.0
 40
0.0
 40
0.0
 40
1.0
 40
1.0
 40
1.0
 40
1.0
 10
4815.318418055555
 20
1383.933393333333
 30
0.0
 10
4815.269135
 20
1383.905806111111
 30
0.0
 10
4815.21879361111
 20
1383.896034166666
 30
0.0
 10
4815.167993611111
 20
1383.887144166666
 30
0.0
  0
SPLINE
  5
222
330
1F
100
AcDbEntity
  8
Linee visibili 2D
100
AcDbSpline
210
0.0
220
0.0
230
1.0
 70
     8
 71
     3
 72
     8
 73
     4
 74
     0
 42
0.0000000001
 43
0.0000000001
 40
0.0
 40
0.0
 40
0.0
 40
0.0
 40
1.0
 40
1.0
 40
1.0
 40
1.0
 10
4815.167993611111
 20
1383.887144166666
 30
0.0
 10
4814.987724166666
 20
1383.855605833333
 30
0.0
 10
4814.801563333332
 20
1383.835074166666
 30
0.0
 10
4814.618083611111
 20
1383.824102777778
 30
0.0
  0
SPLINE
  5
223
330
1F
100
AcDbEntity
  8
Linee visibili 2D
100
AcDbSpline
210
0.0
220
0.0
230
1.0
 70
     8
 71
     3
 72
     8
 73
     4
 74
     0
 42
0.0000000001
 43
0.0000000001
 40
0.0
 40
0.0
 40
0.0
 40
0.0
 40
1.0
 40
1.0
 40
1.0
 40
1.0
 10
4814.618083611111
 20
1383.824102777778
 30
0.0
 10
4813.979767500001
 20
1383.789213055555
 30
0.0
 10
4813.341557222222
 20
1383.784274166666
 30
0.0
 10
4812.702429722222
 20
1383.819058055555
 30
0.0
  0
SPLINE
  5
224
330
1F
100
AcDbEntity
  8
Linee visibili 2D
100
AcDbSpline
210
0.0
220
0.0
230
1.0
 70
     8
 71
     3
 72
     8
 73
     4
 74
     0
 42
0.0000000001
 43
0.0000000001
 40
0.0
 40
0.0
 40
0.0
 40
0.0
 40
1.0
 40
1.0
 40
1.0
 40
1.0
 10
4812.702429722222
 20
1383.819058055555
 30
0.0
 10
4812.500640833333
 20
1383.830029444444
 30
0.0
 10
4812.29874611111
 20
1383.844987222222
 30
0.0
 10
4812.102495833332
 20
1383.876843055555
 30
0.0
  0
SPLINE
  5
225
330
1F
100
AcDbEntity
  8
Linee visibili 2D
100
AcDbSpline
210
0.0
220
0.0
230
1.0
 70
     8
 71
     3
 72
     8
 73
     4
 74
     0
 42
0.0000000001
 43
0.0000000001
 40
0.0
 40
0.0
 40
0.0
 40
0.0
 40
1.0
 40
1.0
 40
1.0
 40
1.0
 10
4812.102495833332
 20
1383.876843055555
 30
0.0
 10
4812.0449225
 20
1383.886191666667
 30
0.0
 10
4811.987807777778
 20
1383.897021944444
 30
0.0
 10
4811.92663611111
 20
1383.922457222222
 30
0.0
  0
SPLINE
  5
226
330
1F
100
AcDbEntity
  8
Linee visibili 2D
100
AcDbSpline
210
0.0
220
0.0
230
1.0
 70
     8
 71
     3
 72
     8
 73
     4
 74
     0
 42
0.0000000001
 43
0.0000000001
 40
0.0
 40
0.0
 40
0.0
 40
0.0
 40
1.0
 40
1.0
 40
1.0
 40
1.0
 10
4811.92663611111
 20
1383.922457222222
 30
0.0
 10
4811.898484444444
 20
1383.934169444444
 30
0.0
 10
4811.869450833333
 20
1383.948950833333
 30
0.0
 10
4811.865817222223
 20
1383.968141944444
 30
0.0
  0
SPLINE
  5
227
330
1F
100
AcDbEntity
  8
Linee visibili 2D
100
AcDbSpline
210
0.0
220
0.0
230
1.0
 70
     8
 71
     3
 72
     8
 73
     4
 74
     0
 42
0.0000000001
 43
0.0000000001
 40
0.0
 40
0.0
 40
0.0
 40
0.0
 40
1.0
 40
1.0
 40
1.0
 40
1.0
 10
4811.865817222223
 20
1383.968141944444
 30
0.0
 10
4811.862254166666
 20
1383.986768611111
 30
0.0
 10
4811.882715277778
 20
1384.009522777778
 30
0.0
 10
4811.904940277777
 20
1384.026879444444
 30
0.0
  0
SPLINE
  5
228
330
1F
100
AcDbEntity
  8
Linee visibili 2D
100
AcDbSpline
210
0.0
220
0.0
230
1.0
 70
     8
 71
     3
 72
     8
 73
     4
 74
     0
 42
0.0000000001
 43
0.0000000001
 40
0.0
 40
0.0
 40
0.0
 40
0.0
 40
1.0
 40
1.0
 40
1.0
 40
1.0
 10
4811.904940277777
 20
1384.026879444444
 30
0.0
 10
4811.948684722222
 20
1384.061098888889
 30
0.0
 10
4811.999343611111
 20
1384.074398611111
 30
0.0
 10
4812.050214166667
 20
1384.086534166666
 30
0.0
  0
SPLINE
  5
229
330
1F
100
AcDbEntity
  8
Linee visibili 2D
100
AcDbSpline
210
0.0
220
0.0
230
1.0
 70
     8
 71
     3
 72
     8
 73
     4
 74
     0
 42
0.0000000001
 43
0.0000000001
 40
0.0
 40
0.0
 40
0.0
 40
0.0
 40
1.0
 40
1.0
 40
1.0
 40
1.0
 10
4812.050214166667
 20
1384.086534166666
 30
0.0
 10
4812.235210833334
 20
1384.130631388889
 30
0.0
 10
4812.422712222222
 20
1384.158783055555
 30
0.0
 10
4812.612365555556
 20
1384.176351388889
 30
0.0
  0
LINE
  5
22A
330
1F
100
AcDbEntity
  8
Linee visibili 2D
100
AcDbLine
 10
4792.625458333333
 20
1335.294933333333
 30
0.0
 11
4792.625458333333
 21
1340.094898333333
 31
0.0
  0
LINE
  5
22B
330
1F
100
AcDbEntity
  8
Linee visibili 2D
100
AcDbLine
 10
4792.625458333333
 20
1340.094898333333
 30
0.0
 11
4792.625458333333
 21
1340.294923333333
 31
0.0
  0
LINE
  5
22C
330
1F
100
AcDbEntity
  8
Linee visibili 2D
100
AcDbLine
 10
4834.625451944443
 20
1335.294933333333
 30
0.0
 11
4834.625451944443
 21
1340.094898333333
 31
0.0
  0
LINE
  5
22D
330
1F
100
AcDbEntity
  8
Linee visibili 2D
100
AcDbLine
 10
4834.625451944443
 20
1340.094898333333
 30
0.0
 11
4834.625451944443
 21
1340.294923333333
 31
0.0
  0
LINE
  5
22E
330
1F
100
AcDbEntity
  8
Linee visibili 2D
100
AcDbLine
 10
4792.625458333333
 20
1340.294923333333
 30
0.0
 11
4834.625451944443
 21
1340.294923333333
 31
0.0
  0
LINE
  5
22F
330
1F
100
AcDbEntity
  8
Linee visibili 2D
100
AcDbLine
 10
4834.625451944443
 20
1335.294933333333
 30
0.0
 11
4792.625458333333
 21
1335.294933333333
 31
0.0
  0
LINE
  5
230
330
1F
100
AcDbEntity
  8
Linee visibili 2D
100
AcDbLine
 10
4512.152131944445
 20
1334.859958333333
 30
0.0
 11
4516.641017499999
 21
1334.859958333333
 31
0.0
  0
LINE
  5
231
330
1F
100
AcDbEntity
  8
Linee visibili 2D
100
AcDbLine
 10
4532.452164722221
 20
1340.259963055556
 30
0.0
 11
4516.641017499999
 21
1340.259963055556
 31
0.0
  0
LINE
  5
232
330
1F
100
AcDbEntity
  8
Linee visibili 2D
100
AcDbLine
 10
4516.641017499999
 20
1340.259963055556
 30
0.0
 11
4516.44893
 21
1340.259963055556
 31
0.0
  0
LINE
  5
233
330
1F
100
AcDbEntity
  8
Linee visibili 2D
100
AcDbLine
 10
4508.5200025
 20
1330.259947777777
 30
0.0
 11
4512.152131944445
 21
1330.259947777777
 31
0.0
  0
LINE
  5
234
330
1F
100
AcDbEntity
  8
Linee visibili 2D
100
AcDbLine
 10
4512.152131944445
 20
1330.259947777777
 30
0.0
 11
4532.452164722221
 21
1330.259947777777
 31
0.0
  0
LINE
  5
235
330
1F
100
AcDbEntity
  8
Linee visibili 2D
100
AcDbLine
 10
4508.596978611111
 20
1334.859958333333
 30
0.0
 11
4512.152131944445
 21
1334.859958333333
 31
0.0
  0
SPLINE
  5
236
330
1F
100
AcDbEntity
  8
Linee visibili 2D
100
AcDbSpline
210
0.0
220
0.0
230
1.0
 70
     8
 71
     3
 72
     8
 73
     4
 74
     0
 42
0.0000000001
 43
0.0000000001
 40
0.0
 40
0.0
 40
0.0
 40
0.0
 40
1.0
 40
1.0
 40
1.0
 40
1.0
 10
4532.593558055554
 20
1330.318544166666
 30
0.0
 10
4532.552212499999
 20
1330.277163333333
 30
0.0
 10
4532.510655277777
 20
1330.259947777777
 30
0.0
 10
4532.452164722221
 20
1330.259947777777
 30
0.0
  0
SPLINE
  5
237
330
1F
100
AcDbEntity
  8
Linee visibili 2D
100
AcDbSpline
210
0.0
220
0.0
230
1.0
 70
     8
 71
     3
 72
     8
 73
     4
 74
     0
 42
0.0000000001
 43
0.0000000001
 40
0.0
 40
0.0
 40
0.0
 40
0.0
 40
1.0
 40
1.0
 40
1.0
 40
1.0
 10
4532.452164722221
 20
1340.259963055556
 30
0.0
 10
4532.510655277777
 20
1340.259963055556
 30
0.0
 10
4532.552212499999
 20
1340.2427475
 30
0.0
 10
4532.593558055554
 20
1340.201366666667
 30
0.0
  0
LINE
  5
238
330
1F
100
AcDbEntity
  8
Linee visibili 2D
100
AcDbLine
 10
4490.652160833334
 20
1330.759939722222
 30
0.0
 11
4489.423224166666
 21
1330.759939722222
 31
0.0
  0
LINE
  5
239
330
1F
100
AcDbEntity
  8
Linee visibili 2D
100
AcDbLine
 10
4516.241038055555
 20
1335.6599525
 30
0.0
 11
4512.152131944445
 21
1335.6599525
 31
0.0
  0
LINE
  5
23A
330
1F
100
AcDbEntity
  8
Linee visibili 2D
100
AcDbLine
 10
4512.152131944445
 20
1335.6599525
 30
0.0
 11
4508.621002777778
 21
1335.6599525
 31
0.0
  0
LINE
  5
23B
330
1F
100
AcDbEntity
  8
Linee visibili 2D
100
AcDbLine
 10
4516.44893
 20
1340.259963055556
 30
0.0
 11
4512.152131944445
 21
1340.259963055556
 31
0.0
  0
LINE
  5
23C
330
1F
100
AcDbEntity
  8
Linee visibili 2D
100
AcDbLine
 10
4512.152131944445
 20
1340.259963055556
 30
0.0
 11
4490.852150555554
 21
1340.259963055556
 31
0.0
  0
LINE
  5
23D
330
1F
100
AcDbEntity
  8
Linee visibili 2D
100
AcDbLine
 10
4490.852150555554
 20
1330.259947777777
 30
0.0
 11
4508.421013055555
 21
1330.259947777777
 31
0.0
  0
LINE
  5
23E
330
1F
100
AcDbEntity
  8
Linee visibili 2D
100
AcDbLine
 10
4490.652160833334
 20
1340.059973333333
 30
0.0
 11
4490.652160833334
 21
1330.459972777777
 31
0.0
  0
LINE
  5
23F
330
1F
100
AcDbEntity
  8
Linee visibili 2D
100
AcDbLine
 10
4508.606291944444
 20
1335.674663333333
 30
0.0
 11
4508.421013055555
 21
1335.859942222222
 31
0.0
  0
SPLINE
  5
240
330
1F
100
AcDbEntity
  8
Linee visibili 2D
100
AcDbSpline
210
0.0
220
0.0
230
1.0
 70
     8
 71
     3
 72
     8
 73
     4
 74
     0
 42
0.0000000001
 43
0.0000000001
 40
0.0
 40
0.0
 40
0.0
 40
0.0
 40
1.0
 40
1.0
 40
1.0
 40
1.0
 10
4490.652160833334
 20
1330.459972777777
 30
0.0
 10
4490.652160833334
 20
1330.318544166666
 30
0.0
 10
4490.710721944444
 20
1330.259947777777
 30
0.0
 10
4490.852150555554
 20
1330.259947777777
 30
0.0
  0
SPLINE
  5
241
330
1F
100
AcDbEntity
  8
Linee visibili 2D
100
AcDbSpline
210
0.0
220
0.0
230
1.0
 70
     8
 71
     3
 72
     8
 73
     4
 74
     0
 42
0.0000000001
 43
0.0000000001
 40
0.0
 40
0.0
 40
0.0
 40
0.0
 40
1.0
 40
1.0
 40
1.0
 40
1.0
 10
4490.852150555554
 20
1340.259963055556
 30
0.0
 10
4490.710721944444
 20
1340.259963055556
 30
0.0
 10
4490.652160833334
 20
1340.201366666667
 30
0.0
 10
4490.652160833334
 20
1340.059973333333
 30
0.0
  0
LINE
  5
242
330
1F
100
AcDbEntity
  8
Linee visibili 2D
100
AcDbLine
 10
4792.625458333333
 20
1335.294933333333
 30
0.0
 11
4792.625458333333
 21
1330.494933055555
 31
0.0
  0
LINE
  5
243
330
1F
100
AcDbEntity
  8
Linee visibili 2D
100
AcDbLine
 10
4792.625458333333
 20
1330.494933055555
 30
0.0
 11
4792.625458333333
 21
1330.294908055555
 31
0.0
  0
LINE
  5
244
330
1F
100
AcDbEntity
  8
Linee visibili 2D
100
AcDbLine
 10
4532.625449166665
 20
1330.294908055555
 30
0.0
 11
4792.625458333333
 21
1330.294908055555
 31
0.0
  0
LINE
  5
245
330
1F
100
AcDbEntity
  8
Linee visibili 2D
100
AcDbLine
 10
4792.625458333333
 20
1340.294923333333
 30
0.0
 11
4532.625449166665
 21
1340.294923333333
 31
0.0
  0
LINE
  5
246
330
1F
100
AcDbEntity
  8
Linee visibili 2D
100
AcDbLine
 10
4532.625449166665
 20
1340.294923333333
 30
0.0
 11
4532.625449166665
 21
1340.094898333333
 31
0.0
  0
LINE
  5
247
330
1F
100
AcDbEntity
  8
Linee visibili 2D
100
AcDbLine
 10
4532.625449166665
 20
1330.494933055555
 30
0.0
 11
4532.625449166665
 21
1340.059973333333
 31
0.0
  0
LINE
  5
248
330
1F
100
AcDbEntity
  8
Linee visibili 2D
100
AcDbLine
 10
4532.625449166665
 20
1330.459972777777
 30
0.0
 11
4532.625449166665
 21
1330.318544166666
 31
0.0
  0
LINE
  5
249
330
1F
100
AcDbEntity
  8
Linee visibili 2D
100
AcDbLine
 10
4834.625451944443
 20
1330.294908055555
 30
0.0
 11
4834.625451944443
 21
1330.494933055555
 31
0.0
  0
LINE
  5
24A
330
1F
100
AcDbEntity
  8
Linee visibili 2D
100
AcDbLine
 10
4834.625451944443
 20
1330.494933055555
 30
0.0
 11
4834.625451944443
 21
1335.294898055555
 31
0.0
  0
LINE
  5
24B
330
1F
100
AcDbEntity
  8
Linee visibili 2D
100
AcDbLine
 10
5094.62546111111
 20
1340.294923333333
 30
0.0
 11
4834.625451944443
 21
1340.294923333333
 31
0.0
  0
LINE
  5
24C
330
1F
100
AcDbEntity
  8
Linee visibili 2D
100
AcDbLine
 10
4834.625451944443
 20
1330.294908055555
 30
0.0
 11
5094.62546111111
 21
1330.294908055555
 31
0.0
  0
LINE
  5
24D
330
1F
100
AcDbEntity
  8
Linee visibili 2D
100
AcDbLine
 10
5094.62546111111
 20
1330.294908055555
 30
0.0
 11
5094.62546111111
 21
1330.494933055555
 31
0.0
  0
LINE
  5
24E
330
1F
100
AcDbEntity
  8
Linee visibili 2D
100
AcDbLine
 10
5094.62546111111
 20
1340.094898333333
 30
0.0
 11
5094.62546111111
 21
1330.494933055555
 31
0.0
  0
LINE
  5
24F
330
1F
100
AcDbEntity
  8
Linee visibili 2D
100
AcDbLine
 10
5094.62546111111
 20
1340.094898333333
 30
0.0
 11
5094.62546111111
 21
1340.294923333333
 31
0.0
  0
SPLINE
  5
250
330
1F
100
AcDbEntity
  8
Linee visibili 2D
100
AcDbSpline
210
0.0
220
0.0
230
1.0
 70
     8
 71
     3
 72
     8
 73
     4
 74
     0
 42
0.0000000001
 43
0.0000000001
 40
0.0
 40
0.0
 40
0.0
 40
0.0
 40
1.0
 40
1.0
 40
1.0
 40
1.0
 10
4511.458359166666
 20
1335.501449444444
 30
0.0
 10
4513.0593
 20
1335.528860277777
 30
0.0
 10
4514.647999444444
 20
1335.462185277777
 30
0.0
 10
4516.241038055555
 20
1335.300683611111
 30
0.0
  0
SPLINE
  5
251
330
1F
100
AcDbEntity
  8
Linee visibili 2D
100
AcDbSpline
210
0.0
220
0.0
230
1.0
 70
     8
 71
     3
 72
     8
 73
     4
 74
     0
 42
0.0000000001
 43
0.0000000001
 40
0.0
 40
0.0
 40
0.0
 40
0.0
 40
1.0
 40
1.0
 40
1.0
 40
1.0
 10
4509.357285277777
 20
1334.909488333333
 30
0.0
 10
4511.247997777777
 20
1335.043085277777
 30
0.0
 10
4513.124316944444
 20
1335.041568333333
 30
0.0
 10
4515.014817777777
 20
1334.9049375
 30
0.0
  0
SPLINE
  5
252
330
1F
100
AcDbEntity
  8
Linee visibili 2D
100
AcDbSpline
210
0.0
220
0.0
230
1.0
 70
     8
 71
     3
 72
     8
 73
     4
 74
     0
 42
0.0000000001
 43
0.0000000001
 40
0.0
 40
0.0
 40
0.0
 40
0.0
 40
1.0
 40
1.0
 40
1.0
 40
1.0
 10
4509.55678111111
 20
1334.922576388889
 30
0.0
 10
4509.608745277777
 20
1334.9258925
 30
0.0
 10
4509.660709444443
 20
1334.9290675
 30
0.0
 10
4509.712673611111
 20
1334.932171944444
 30
0.0
  0
SPLINE
  5
253
330
1F
100
AcDbEntity
  8
Linee visibili 2D
100
AcDbSpline
210
0.0
220
0.0
230
1.0
 70
     8
 71
     3
 72
     8
 73
     4
 74
     0
 42
0.0000000001
 43
0.0000000001
 40
0.0
 40
0.0
 40
0.0
 40
0.0
 40
1.0
 40
1.0
 40
1.0
 40
1.0
 10
4511.458359166666
 20
1335.501449444444
 30
0.0
 10
4510.510198333333
 20
1335.485750833333
 30
0.0
 10
4509.565635833332
 20
1335.436467777777
 30
0.0
 10
4508.621002777778
 20
1335.353388611111
 30
0.0
  0
LINE
  5
254
330
1F
100
AcDbEntity
  8
Linee visibili 2D
100
AcDbLine
 10
5136.629194166665
 20
1339.829891666666
 30
0.0
 11
5137.652143888889
 21
1339.829891666666
 31
0.0
  0
LINE
  5
255
330
1F
100
AcDbEntity
  8
Linee visibili 2D
100
AcDbLine
 10
5111.040316944444
 20
1334.929878888889
 30
0.0
 11
5115.129187777776
 21
1334.929878888889
 31
0.0
  0
LINE
  5
256
330
1F
100
AcDbEntity
  8
Linee visibili 2D
100
AcDbLine
 10
5115.129187777776
 20
1334.929878888889
 30
0.0
 11
5118.660352222222
 21
1334.929878888889
 31
0.0
  0
LINE
  5
257
330
1F
100
AcDbEntity
  8
Linee visibili 2D
100
AcDbLine
 10
5110.851192777777
 20
1330.329868333333
 30
0.0
 11
5115.129187777776
 21
1330.329868333333
 31
0.0
  0
LINE
  5
258
330
1F
100
AcDbEntity
  8
Linee visibili 2D
100
AcDbLine
 10
5115.129187777776
 20
1330.329868333333
 30
0.0
 11
5136.429204444444
 21
1330.329868333333
 31
0.0
  0
LINE
  5
259
330
1F
100
AcDbEntity
  8
Linee visibili 2D
100
AcDbLine
 10
5136.429204444444
 20
1340.329883611111
 30
0.0
 11
5118.860341944444
 21
1340.329883611111
 31
0.0
  0
LINE
  5
25A
330
1F
100
AcDbEntity
  8
Linee visibili 2D
100
AcDbLine
 10
5136.629194166665
 20
1330.529858055555
 30
0.0
 11
5136.629194166665
 21
1340.129858611111
 31
0.0
  0
LINE
  5
25B
330
1F
100
AcDbEntity
  8
Linee visibili 2D
100
AcDbLine
 10
5118.675027777777
 20
1334.915168055555
 30
0.0
 11
5118.860341944444
 21
1334.729889166666
 31
0.0
  0
SPLINE
  5
25C
330
1F
100
AcDbEntity
  8
Linee visibili 2D
100
AcDbSpline
210
0.0
220
0.0
230
1.0
 70
     8
 71
     3
 72
     8
 73
     4
 74
     0
 42
0.0000000001
 43
0.0000000001
 40
0.0
 40
0.0
 40
0.0
 40
0.0
 40
1.0
 40
1.0
 40
1.0
 40
1.0
 10
5136.629194166665
 20
1340.129858611111
 30
0.0
 10
5136.629194166665
 20
1340.271287222222
 30
0.0
 10
5136.570633055555
 20
1340.329883611111
 30
0.0
 10
5136.429204444444
 20
1340.329883611111
 30
0.0
  0
SPLINE
  5
25D
330
1F
100
AcDbEntity
  8
Linee visibili 2D
100
AcDbSpline
210
0.0
220
0.0
230
1.0
 70
     8
 71
     3
 72
     8
 73
     4
 74
     0
 42
0.0000000001
 43
0.0000000001
 40
0.0
 40
0.0
 40
0.0
 40
0.0
 40
1.0
 40
1.0
 40
1.0
 40
1.0
 10
5136.429204444444
 20
1330.329868333333
 30
0.0
 10
5136.570633055555
 20
1330.329868333333
 30
0.0
 10
5136.629194166665
 20
1330.388464722222
 30
0.0
 10
5136.629194166665
 20
1330.529858055555
 30
0.0
  0
LINE
  5
25E
330
1F
100
AcDbEntity
  8
Linee visibili 2D
100
AcDbLine
 10
4834.625451944443
 20
1330.294908055555
 30
0.0
 11
4814.019208055555
 21
1330.294908055555
 31
0.0
  0
LINE
  5
25F
330
1F
100
AcDbEntity
  8
Linee visibili 2D
100
AcDbLine
 10
4813.211699722222
 20
1330.294908055555
 30
0.0
 11
4792.625458333333
 21
1330.294908055555
 31
0.0
  0
LINE
  5
260
330
1F
100
AcDbEntity
  8
Linee visibili 2D
100
AcDbLine
 10
4814.019208055555
 20
1330.294908055555
 30
0.0
 11
4813.211699722222
 21
1330.294908055555
 31
0.0
  0
SPLINE
  5
261
330
1F
100
AcDbEntity
  8
Linee visibili 2D
100
AcDbSpline
210
0.0
220
0.0
230
1.0
 70
     8
 71
     3
 72
     8
 73
     4
 74
     0
 42
0.0000000001
 43
0.0000000001
 40
0.0
 40
0.0
 40
0.0
 40
0.0
 40
1.0
 40
1.0
 40
1.0
 40
1.0
 10
4398.630783055555
 20
1335.2960975
 30
0.0
 10
4398.630783055555
 20
1340.735225277778
 30
0.0
 10
4403.040046666666
 20
1345.144524166666
 30
0.0
 10
4408.479209722222
 20
1345.144524166666
 30
0.0
  0
SPLINE
  5
262
330
1F
100
AcDbEntity
  8
Linee visibili 2D
100
AcDbSpline
210
0.0
220
0.0
230
1.0
 70
     8
 71
     3
 72
     8
 73
     4
 74
     0
 42
0.0000000001
 43
0.0000000001
 40
0.0
 40
0.0
 40
0.0
 40
0.0
 40
1.0
 40
1.0
 40
1.0
 40
1.0
 10
4408.479209722222
 20
1345.144524166666
 30
0.0
 10
4413.918337499999
 20
1345.144524166666
 30
0.0
 10
4418.327636388887
 20
1340.735225277778
 30
0.0
 10
4418.327636388887
 20
1335.2960975
 30
0.0
  0
SPLINE
  5
263
330
1F
100
AcDbEntity
  8
Linee visibili 2D
100
AcDbSpline
210
0.0
220
0.0
230
1.0
 70
     8
 71
     3
 72
     8
 73
     4
 74
     0
 42
0.0000000001
 43
0.0000000001
 40
0.0
 40
0.0
 40
0.0
 40
0.0
 40
1.0
 40
1.0
 40
1.0
 40
1.0
 10
4418.327636388887
 20
1335.2960975
 30
0.0
 10
4418.327636388887
 20
1329.856934444444
 30
0.0
 10
4413.918337499999
 20
1325.447670833333
 30
0.0
 10
4408.479209722222
 20
1325.447670833333
 30
0.0
  0
SPLINE
  5
264
330
1F
100
AcDbEntity
  8
Linee visibili 2D
100
AcDbSpline
210
0.0
220
0.0
230
1.0
 70
     8
 71
     3
 72
     8
 73
     4
 74
     0
 42
0.0000000001
 43
0.0000000001
 40
0.0
 40
0.0
 40
0.0
 40
0.0
 40
1.0
 40
1.0
 40
1.0
 40
1.0
 10
4408.479209722222
 20
1325.447670833333
 30
0.0
 10
4403.040046666666
 20
1325.447670833333
 30
0.0
 10
4398.630783055555
 20
1329.856934444444
 30
0.0
 10
4398.630783055555
 20
1335.2960975
 30
0.0
  0
LINE
  5
265
330
1F
100
AcDbEntity
  8
Linee visibili 2D
100
AcDbLine
 10
5115.128905555555
 20
1335.729873055555
 30
0.0
 11
5110.640337499999
 21
1335.729873055555
 31
0.0
  0
LINE
  5
266
330
1F
100
AcDbEntity
  8
Linee visibili 2D
100
AcDbLine
 10
5094.829190277778
 20
1330.329868333333
 30
0.0
 11
5110.640337499999
 21
1330.329868333333
 31
0.0
  0
LINE
  5
267
330
1F
100
AcDbEntity
  8
Linee visibili 2D
100
AcDbLine
 10
5110.640337499999
 20
1330.329868333333
 30
0.0
 11
5110.840327222221
 21
1330.329868333333
 31
0.0
  0
LINE
  5
268
330
1F
100
AcDbEntity
  8
Linee visibili 2D
100
AcDbLine
 10
5118.761352499999
 20
1340.329883611111
 30
0.0
 11
5115.129187777776
 21
1340.329883611111
 31
0.0
  0
LINE
  5
269
330
1F
100
AcDbEntity
  8
Linee visibili 2D
100
AcDbLine
 10
5115.129187777776
 20
1340.329883611111
 30
0.0
 11
5094.829190277778
 21
1340.329883611111
 31
0.0
  0
LINE
  5
26A
330
1F
100
AcDbEntity
  8
Linee visibili 2D
100
AcDbLine
 10
5115.129187777776
 20
1335.729873055555
 30
0.0
 11
5118.660352222222
 21
1335.729873055555
 31
0.0
  0
SPLINE
  5
26B
330
1F
100
AcDbEntity
  8
Linee visibili 2D
100
AcDbSpline
210
0.0
220
0.0
230
1.0
 70
     8
 71
     3
 72
     8
 73
     4
 74
     0
 42
0.0000000001
 43
0.0000000001
 40
0.0
 40
0.0
 40
0.0
 40
0.0
 40
1.0
 40
1.0
 40
1.0
 40
1.0
 10
5094.651954722222
 20
1340.222498055555
 30
0.0
 10
5094.692524166667
 20
1340.300144444444
 30
0.0
 10
5094.741560277777
 20
1340.329883611111
 30
0.0
 10
5094.829190277778
 20
1340.329883611111
 30
0.0
  0
SPLINE
  5
26C
330
1F
100
AcDbEntity
  8
Linee visibili 2D
100
AcDbSpline
210
0.0
220
0.0
230
1.0
 70
     8
 71
     3
 72
     8
 73
     4
 74
     0
 42
0.0000000001
 43
0.0000000001
 40
0.0
 40
0.0
 40
0.0
 40
0.0
 40
1.0
 40
1.0
 40
1.0
 40
1.0
 10
5094.829190277778
 20
1330.329868333333
 30
0.0
 10
5094.7075525
 20
1330.329868333333
 30
0.0
 10
5094.652660277777
 20
1330.376152777777
 30
0.0
 10
5094.632093333332
 20
1330.496061944444
 30
0.0
  0
LINE
  5
26D
330
1F
100
AcDbEntity
  8
Linee visibili 2D
100
AcDbLine
 10
4798.615448611111
 20
1321.094886944444
 30
0.0
 11
4798.615448611111
 21
1326.094876944444
 31
0.0
  0
LINE
  5
26E
330
1F
100
AcDbEntity
  8
Linee visibili 2D
100
AcDbLine
 10
4828.615459166666
 20
1326.094876944444
 30
0.0
 11
4828.615459166666
 21
1321.094886944444
 31
0.0
  0
LINE
  5
26F
330
1F
100
AcDbEntity
  8
Linee visibili 2D
100
AcDbLine
 10
4806.31545861111
 20
1340.294923333333
 30
0.0
 11
4806.31545861111
 21
1344.494919166667
 31
0.0
  0
LINE
  5
270
330
1F
100
AcDbEntity
  8
Linee visibili 2D
100
AcDbLine
 10
4820.915449166666
 20
1344.494919166667
 30
0.0
 11
4820.915449166666
 21
1340.294923333333
 31
0.0
  0
LINE
  5
271
330
1F
100
AcDbEntity
  8
Linee visibili 2D
100
AcDbLine
 10
4516.241038055555
 20
1334.859958333333
 30
0.0
 11
4516.241038055555
 21
1340.059973333333
 31
0.0
  0
SPLINE
  5
272
330
1F
100
AcDbEntity
  8
Linee visibili 2D
100
AcDbSpline
210
0.0
220
0.0
230
1.0
 70
     8
 71
     3
 72
     8
 73
     4
 74
     0
 42
0.0000000001
 43
0.0000000001
 40
0.0
 40
0.0
 40
0.0
 40
0.0
 40
1.0
 40
1.0
 40
1.0
 40
1.0
 10
4516.241038055555
 20
1340.059973333333
 30
0.0
 10
4516.241461388888
 20
1340.201084444444
 30
0.0
 10
4516.299881388888
 20
1340.259539722222
 30
0.0
 10
4516.441027777778
 20
1340.259963055556
 30
0.0
  0
LINE
  5
273
330
1F
100
AcDbEntity
  8
Linee visibili 2D
100
AcDbLine
 10
4489.429327222222
 20
1339.759971111111
 30
0.0
 11
4490.652160833334
 21
1339.759971111111
 31
0.0
  0
LINE
  5
274
330
1F
100
AcDbEntity
  8
Linee visibili 2D
100
AcDbLine
 10
4508.621002777778
 20
1335.6599525
 30
0.0
 11
4508.621002777778
 21
1330.459972777777
 31
0.0
  0
SPLINE
  5
275
330
1F
100
AcDbEntity
  8
Linee visibili 2D
100
AcDbSpline
210
0.0
220
0.0
230
1.0
 70
     8
 71
     3
 72
     8
 73
     4
 74
     0
 42
0.0000000001
 43
0.0000000001
 40
0.0
 40
0.0
 40
0.0
 40
0.0
 40
1.0
 40
1.0
 40
1.0
 40
1.0
 10
4508.621002777778
 20
1330.459972777777
 30
0.0
 10
4508.619415277776
 20
1330.319637777777
 30
0.0
 10
4508.561348055555
 20
1330.261570555555
 30
0.0
 10
4508.421013055555
 20
1330.259947777777
 30
0.0
  0
LINE
  5
276
330
1F
100
AcDbEntity
  8
Linee visibili 2D
100
AcDbLine
 10
5111.929528611111
 20
1334.929878888889
 30
0.0
 11
5111.929528611111
 21
1335.208679166666
 31
0.0
  0
LINE
  5
277
330
1F
100
AcDbEntity
  8
Linee visibili 2D
100
AcDbLine
 10
5118.329517222222
 20
1335.085665555555
 30
0.0
 11
5118.329517222222
 21
1334.929878888889
 31
0.0
  0
LINE
  5
278
330
1F
100
AcDbEntity
  8
Linee visibili 2D
100
AcDbLine
 10
4515.352461388888
 20
1335.504024722222
 30
0.0
 11
4515.352461388888
 21
1335.381046388889
 31
0.0
  0
LINE
  5
279
330
1F
100
AcDbEntity
  8
Linee visibili 2D
100
AcDbLine
 10
5137.652143888889
 20
1330.829860277777
 30
0.0
 11
5136.629194166665
 21
1330.829860277777
 31
0.0
  0
LINE
  5
27A
330
1F
100
AcDbEntity
  8
Linee visibili 2D
100
AcDbLine
 10
5118.660352222222
 20
1334.929878888889
 30
0.0
 11
5118.660352222222
 21
1340.129858611111
 31
0.0
  0
SPLINE
  5
27B
330
1F
100
AcDbEntity
  8
Linee visibili 2D
100
AcDbSpline
210
0.0
220
0.0
230
1.0
 70
     8
 71
     3
 72
     8
 73
     4
 74
     0
 42
0.0000000001
 43
0.0000000001
 40
0.0
 40
0.0
 40
0.0
 40
0.0
 40
1.0
 40
1.0
 40
1.0
 40
1.0
 10
5118.660352222222
 20
1340.129858611111
 30
0.0
 10
5118.661939722222
 20
1340.270193611111
 30
0.0
 10
5118.720006944444
 20
1340.328260833333
 30
0.0
 10
5118.860341944444
 20
1340.329883611111
 30
0.0
  0
LINE
  5
27C
330
1F
100
AcDbEntity
  8
Linee visibili 2D
100
AcDbLine
 10
4508.951837777778
 20
1335.381363888888
 30
0.0
 11
4508.951837777778
 21
1335.6599525
 31
0.0
  0
LINE
  5
27D
330
1F
100
AcDbEntity
  8
Linee visibili 2D
100
AcDbLine
 10
4515.351826388889
 20
1335.6599525
 30
0.0
 11
4515.351826388889
 21
1335.504024722222
 31
0.0
  0
LINE
  5
27E
330
1F
100
AcDbEntity
  8
Linee visibili 2D
100
AcDbLine
 10
4806.31545861111
 20
1326.094912222222
 30
0.0
 11
4806.31545861111
 21
1330.294908055555
 31
0.0
  0
LINE
  5
27F
330
1F
100
AcDbEntity
  8
Linee visibili 2D
100
AcDbLine
 10
4820.915449166666
 20
1330.294908055555
 30
0.0
 11
4820.915449166666
 21
1326.094912222222
 31
0.0
  0
LINE
  5
280
330
1F
100
AcDbEntity
  8
Linee visibili 2D
100
AcDbLine
 10
5111.040316944444
 20
1335.729873055555
 30
0.0
 11
5111.040316944444
 21
1330.529858055555
 31
0.0
  0
SPLINE
  5
281
330
1F
100
AcDbEntity
  8
Linee visibili 2D
100
AcDbSpline
210
0.0
220
0.0
230
1.0
 70
     8
 71
     3
 72
     8
 73
     4
 74
     0
 42
0.0000000001
 43
0.0000000001
 40
0.0
 40
0.0
 40
0.0
 40
0.0
 40
1.0
 40
1.0
 40
1.0
 40
1.0
 10
5111.040316944444
 20
1330.529858055555
 30
0.0
 10
5111.039928888889
 20
1330.395132222222
 30
0.0
 10
5110.985706944444
 20
1330.337911666666
 30
0.0
 10
5110.851192777777
 20
1330.330185833333
 30
0.0
  0
ENDSEC
  0
SECTION
  2
OBJECTS
  0
DICTIONARY
  5
C
330
0
100
AcDbDictionary
281
     1
  3
ACAD_CIP_PREVIOUS_PRODUCT_INFO
350
2B6
  3
ACAD_COLOR
350
2AA
  3
ACAD_DETAILVIEWSTYLE
350
2B0
  3
ACAD_GROUP
350
D
  3
ACAD_LAYOUT
350
1A
  3
ACAD_MATERIAL
350
287
  3
ACAD_MLEADERSTYLE
350
285
  3
ACAD_MLINESTYLE
350
17
  3
ACAD_PLOTSETTINGS
350
19
  3
ACAD_PLOTSTYLENAME
350
E
  3
ACAD_SCALELIST
350
3D
  3
ACAD_SECTIONVIEWSTYLE
350
2AD
  3
ACAD_TABLESTYLE
350
284
  3
ACAD_VISUALSTYLE
350
2A
  3
ACDB_RECOMPOSE_DATA
350
2D1
  3
AcDbVariableDictionary
350
282
  0
DICTIONARY
  5
2C0
330
2
100
AcDbDictionary
280
     1
281
     1
  3
ACAD_LAYERSTATES
360
2C1
  0
DICTIONARY
  5
2B7
330
10
100
AcDbDictionary
280
     1
281
     1
  3
ADSK_XREC_LAYER_RECONCILED
360
2B8
  0
DICTIONARY
  5
2B9
330
3B
100
AcDbDictionary
280
     1
281
     1
  3
ADSK_XREC_LAYER_RECONCILED
360
2BA
  0
DICTIONARY
  5
2BB
330
88
100
AcDbDictionary
280
     1
281
     1
  3
ADSK_XREC_LAYER_RECONCILED
360
2BC
  0
XRECORD
  5
2B6
102
{ACAD_REACTORS
330
C
102
}
330
C
100
AcDbXrecord
280
     1
300
ACDMAC
300
2013
300

  0
DICTIONARY
  5
2AA
102
{ACAD_REACTORS
330
C
102
}
330
C
100
AcDbDictionary
281
     1
  0
DICTIONARY
  5
2B0
102
{ACAD_REACTORS
330
C
102
}
330
C
100
AcDbDictionary
281
     1
  3
Imperial24
350
2B1
  0
DICTIONARY
  5
D
102
{ACAD_REACTORS
330
C
102
}
330
C
100
AcDbDictionary
281
     1
  0
DICTIONARY
  5
1A
102
{ACAD_REACTORS
330
C
102
}
330
C
100
AcDbDictionary
281
     1
  3
Layout1
350
1E
  3
Layout2
350
26
  3
Model
350
22
  0
DICTIONARY
  5
287
102
{ACAD_REACTORS
330
C
102
}
330
C
100
AcDbDictionary
281
     1
  3
ByBlock
350
290
  3
ByLayer
350
288
  3
Global
350
298
  0
DICTIONARY
  5
285
102
{ACAD_REACTORS
330
C
102
}
330
C
100
AcDbDictionary
281
     1
  3
Standard
350
2AC
  0
DICTIONARY
  5
17
102
{ACAD_REACTORS
330
C
102
}
330
C
100
AcDbDictionary
281
     1
  3
Standard
350
18
  0
DICTIONARY
  5
19
102
{ACAD_REACTORS
330
C
102
}
330
C
100
AcDbDictionary
281
     1
  0
ACDBDICTIONARYWDFLT
  5
E
102
{ACAD_REACTORS
330
C
102
}
330
C
100
AcDbDictionary
281
     1
  3
Normal
350
F
100
AcDbDictionaryWithDefault
340
F
  0
DICTIONARY
  5
3D
102
{ACAD_REACTORS
330
C
102
}
330
C
100
AcDbDictionary
281
     1
  3
A0
350
3E
  3
A1
350
3F
  3
A2
350
40
  3
A3
350
41
  3
A4
350
42
  3
A5
350
43
  3
A6
350
44
  3
A7
350
45
  3
A8
350
46
  3
A9
350
47
  3
B0
350
48
  3
B1
350
49
  3
B2
350
4A
  3
B3
350
4B
  3
B4
350
4C
  3
B5
350
4D
  3
B6
350
4E
  3
B7
350
4F
  3
B8
350
50
  3
B9
350
51
  3
C0
350
52
  3
C1
350
53
  3
C2
350
54
  3
C3
350
55
  3
C4
350
56
  3
C5
350
57
  3
C6
350
58
  3
C7
350
59
  3
C8
350
5A
  3
C9
350
5B
  3
D0
350
5C
  3
D1
350
5D
  3
D2
350
5E
  0
DICTIONARY
  5
2AD
102
{ACAD_REACTORS
330
C
102
}
330
C
100
AcDbDictionary
281
     1
  3
Imperial24
350
2AF
  0
DICTIONARY
  5
284
102
{ACAD_REACTORS
330
C
102
}
330
C
100
AcDbDictionary
281
     1
  3
Standard
350
2AB
  0
DICTIONARY
  5
2A
102
{ACAD_REACTORS
330
C
102
}
330
C
100
AcDbDictionary
281
     1
  3
2dWireframe
350
2F
  3
3D Hidden
350
31
  3
3dWireframe
350
30
  3
Basic
350
32
  3
Brighten
350
36
  3
ColorChange
350
3A
  3
Conceptual
350
34
  3
Dim
350
35
  3
EdgeColorOff
350
2A9
  3
Facepattern
350
39
  3
Flat
350
2B
  3
FlatWithEdges
350
2C
  3
Gouraud
350
2D
  3
GouraudWithEdges
350
2E
  3
Hidden
350
2A1
  3
JitterOff
350
2A7
  3
Linepattern
350
38
  3
OverhangOff
350
2A8
  3
Realistic
350
33
  3
Shaded
350
2A6
  3
Shaded with edges
350
2A5
  3
Shades of Gray
350
2A2
  3
Sketchy
350
2A3
  3
Thicken
350
37
  3
Wireframe
350
2A0
  3
X-Ray
350
2A4
  0
XRECORD
  5
2D1
102
{ACAD_REACTORS
330
C
102
}
330
C
100
AcDbXrecord
280
     1
 90
        1
330
2AB
  0
DICTIONARY
  5
282
102
{ACAD_REACTORS
330
C
102
}
330
C
100
AcDbDictionary
281
     1
  3
CANNOSCALE
350
283
  3
CMLEADERSTYLE
350
2C7
  3
CTABLESTYLE
350
2C6
  3
CVIEWDETAILSTYLE
350
2C8
  3
CVIEWSECTIONSTYLE
350
2C9
  3
LAYEREVAL
350
2CC
  3
LAYERNOTIFY
350
2CD
  3
LIGHTINGUNITS
350
2CB
  3
MSLTSCALE
350
2CA
  0
DICTIONARY
  5
2C1
102
{ACAD_REACTORS
330
2C0
102
}
330
2C0
100
AcDbDictionary
281
     1
  0
XRECORD
  5
2B8
102
{ACAD_REACTORS
330
2B7
102
}
330
2B7
100
AcDbXrecord
280
     1
290
     1
  0
XRECORD
  5
2BA
102
{ACAD_REACTORS
330
2B9
102
}
330
2B9
100
AcDbXrecord
280
     1
290
     1
  0
XRECORD
  5
2BC
102
{ACAD_REACTORS
330
2BB
102
}
330
2BB
100
AcDbXrecord
280
     1
290
     1
  0
ACDBDETAILVIEWSTYLE
  5
2B1
102
{ACAD_REACTORS
330
2B0
102
}
330
2B0
100
AcDbModelDocViewStyle
 70
     0
  3
Imperial24
290
     1
100
AcDbDetailViewStyle
 70
     0
 71
     0
 90
        3
 71
     1
340
11
 62
   256
 40
0.24
340
0
 62
   256
 40
0.24
300

 40
0.36
280
     3
 71
     2
340
16
 90
       25
 62
   256
 71
     3
340
11
 62
   256
 40
0.24
 90
        1
 40
0.75
 90
        1
300
%<\AcVar ViewType \f "%tc1">% %<\AcVar ViewDetailId>%\PSCALE %<\AcVar ViewScale \f "%sn">%
 71
     4
340
16
 90
       25
 62
   256
340
16
 90
       25
 62
   256
280
     0
  0
LAYOUT
  5
1E
102
{ACAD_REACTORS
330
1A
102
}
330
1A
100
AcDbPlotSettings
  1

  2
none_device
  4

  6

 40
0.0
 41
0.0
 42
0.0
 43
0.0
 44
0.0
 45
0.0
 46
0.0
 47
0.0
 48
0.0
 49
0.0
140
0.0
141
0.0
142
1.0
143
1.0
 70
   688
 72
     0
 73
     0
 74
     5
  7

 75
    16
147
1.0
 76
     0
 77
     2
 78
   300
148
0.0
149
0.0
100
AcDbLayout
  1
Layout1
 70
     1
 71
     1
 10
0.0
 20
0.0
 11
12.0
 21
9.0
 12
0.0
 22
0.0
 32
0.0
 14
1.000000000000000E+20
 24
1.000000000000000E+20
 34
1.000000000000000E+20
 15
-1.000000000000000E+20
 25
-1.000000000000000E+20
 35
-1.000000000000000E+20
146
0.0
 13
0.0
 23
0.0
 33
0.0
 16
1.0
 26
0.0
 36
0.0
 17
0.0
 27
1.0
 37
0.0
 76
     0
330
1B
  0
LAYOUT
  5
26
102
{ACAD_REACTORS
330
1A
102
}
330
1A
100
AcDbPlotSettings
  1

  2
none_device
  4

  6

 40
0.0
 41
0.0
 42
0.0
 43
0.0
 44
0.0
 45
0.0
 46
0.0
 47
0.0
 48
0.0
 49
0.0
140
0.0
141
0.0
142
1.0
143
1.0
 70
   688
 72
     0
 73
     0
 74
     5
  7

 75
    16
147
1.0
 76
     0
 77
     2
 78
   300
148
0.0
149
0.0
100
AcDbLayout
  1
Layout2
 70
     1
 71
     2
 10
0.0
 20
0.0
 11
0.0
 21
0.0
 12
0.0
 22
0.0
 32
0.0
 14
0.0
 24
0.0
 34
0.0
 15
0.0
 25
0.0
 35
0.0
146
0.0
 13
0.0
 23
0.0
 33
0.0
 16
1.0
 26
0.0
 36
0.0
 17
0.0
 27
1.0
 37
0.0
 76
     0
330
23
  0
LAYOUT
  5
22
102
{ACAD_REACTORS
330
1A
102
}
330
1A
100
AcDbPlotSettings
  1

  2
none_device
  4

  6

 40
0.0
 41
0.0
 42
0.0
 43
0.0
 44
0.0
 45
0.0
 46
0.0
 47
0.0
 48
0.0
 49
0.0
140
0.0
141
0.0
142
1.0
143
1.0
 70
  1712
 72
     0
 73
     0
 74
     0
  7

 75
     0
147
1.0
 76
     0
 77
     2
 78
   300
148
0.0
149
0.0
100
AcDbLayout
  1
Model
 70
     1
 71
     0
 10
0.0
 20
0.0
 11
12.0
 21
9.0
 12
0.0
 22
0.0
 32
0.0
 14
4305.694027397896
 24
1285.293728055555
 34
0.0
 15
5763.05024399249
 25
2412.299824297705
 35
0.0
146
0.0
 13
0.0
 23
0.0
 33
0.0
 16
1.0
 26
0.0
 36
0.0
 17
0.0
 27
1.0
 37
0.0
 76
     0
330
1F
331
29
  0
MATERIAL
  5
290
102
{ACAD_XDICTIONARY
360
291
102
}
102
{ACAD_REACTORS
330
287
102
}
330
287
100
AcDbMaterial
  1
ByBlock
 72
     0
 43
0.0008202099737533
 43
0.0
 43
0.0
 43
0.0
 43
0.0
 43
0.0008202099737533
 43
0.0
 43
0.0
 43
0.0
 43
0.0
 43
1.0
 43
0.0
 43
0.0
 43
0.0
 43
0.0
 43
1.0
 77
     0
 47
0.0008202099737533
 47
0.0
 47
0.0
 47
0.0
 47
0.0
 47
0.0008202099737533
 47
0.0
 47
0.0
 47
0.0
 47
0.0
 47
1.0
 47
0.0
 47
0.0
 47
0.0
 47
0.0
 47
1.0
171
     0
 49
0.0008202099737533
 49
0.0
 49
0.0
 49
0.0
 49
0.0
 49
0.0008202099737533
 49
0.0
 49
0.0
 49
0.0
 49
0.0
 49
1.0
 49
0.0
 49
0.0
 49
0.0
 49
0.0
 49
1.0
175
     0
142
0.0008202099737533
142
0.0
142
0.0
142
0.0
142
0.0
142
0.0008202099737533
142
0.0
142
0.0
142
0.0
142
0.0
142
1.0
142
0.0
142
0.0
142
0.0
142
0.0
142
1.0
179
     0
144
0.0008202099737533
144
0.0
144
0.0
144
0.0
144
0.0
144
0.0008202099737533
144
0.0
144
0.0
144
0.0
144
0.0
144
1.0
144
0.0
144
0.0
144
0.0
144
0.0
144
1.0
147
0.0008202099737533
147
0.0
147
0.0
147
0.0
147
0.0
147
0.0008202099737533
147
0.0
147
0.0
147
0.0
147
0.0
147
1.0
147
0.0
147
0.0
147
0.0
147
0.0
147
1.0
  0
MATERIAL
  5
288
102
{ACAD_XDICTIONARY
360
289
102
}
102
{ACAD_REACTORS
330
287
102
}
330
287
100
AcDbMaterial
  1
ByLayer
 72
     0
 43
0.0008202099737533
 43
0.0
 43
0.0
 43
0.0
 43
0.0
 43
0.0008202099737533
 43
0.0
 43
0.0
 43
0.0
 43
0.0
 43
1.0
 43
0.0
 43
0.0
 43
0.0
 43
0.0
 43
1.0
 77
     0
 47
0.0008202099737533
 47
0.0
 47
0.0
 47
0.0
 47
0.0
 47
0.0008202099737533
 47
0.0
 47
0.0
 47
0.0
 47
0.0
 47
1.0
 47
0.0
 47
0.0
 47
0.0
 47
0.0
 47
1.0
171
     0
 49
0.0008202099737533
 49
0.0
 49
0.0
 49
0.0
 49
0.0
 49
0.0008202099737533
 49
0.0
 49
0.0
 49
0.0
 49
0.0
 49
1.0
 49
0.0
 49
0.0
 49
0.0
 49
0.0
 49
1.0
175
     0
142
0.0008202099737533
142
0.0
142
0.0
142
0.0
142
0.0
142
0.0008202099737533
142
0.0
142
0.0
142
0.0
142
0.0
142
1.0
142
0.0
142
0.0
142
0.0
142
0.0
142
1.0
179
     0
144
0.0008202099737533
144
0.0
144
0.0
144
0.0
144
0.0
144
0.0008202099737533
144
0.0
144
0.0
144
0.0
144
0.0
144
1.0
144
0.0
144
0.0
144
0.0
144
0.0
144
1.0
147
0.0008202099737533
147
0.0
147
0.0
147
0.0
147
0.0
147
0.0008202099737533
147
0.0
147
0.0
147
0.0
147
0.0
147
1.0
147
0.0
147
0.0
147
0.0
147
0.0
147
1.0
  0
MATERIAL
  5
298
102
{ACAD_XDICTIONARY
360
299
102
}
102
{ACAD_REACTORS
330
287
102
}
330
287
100
AcDbMaterial
  1
Global
 72
     0
 43
0.0008202099737533
 43
0.0
 43
0.0
 43
0.0
 43
0.0
 43
0.0008202099737533
 43
0.0
 43
0.0
 43
0.0
 43
0.0
 43
1.0
 43
0.0
 43
0.0
 43
0.0
 43
0.0
 43
1.0
 77
     0
 47
0.0008202099737533
 47
0.0
 47
0.0
 47
0.0
 47
0.0
 47
0.0008202099737533
 47
0.0
 47
0.0
 47
0.0
 47
0.0
 47
1.0
 47
0.0
 47
0.0
 47
0.0
 47
0.0
 47
1.0
171
     0
 49
0.0008202099737533
 49
0.0
 49
0.0
 49
0.0
 49
0.0
 49
0.0008202099737533
 49
0.0
 49
0.0
 49
0.0
 49
0.0
 49
1.0
 49
0.0
 49
0.0
 49
0.0
 49
0.0
 49
1.0
175
     0
142
0.0008202099737533
142
0.0
142
0.0
142
0.0
142
0.0
142
0.0008202099737533
142
0.0
142
0.0
142
0.0
142
0.0
142
1.0
142
0.0
142
0.0
142
0.0
142
0.0
142
1.0
179
     0
144
0.0008202099737533
144
0.0
144
0.0
144
0.0
144
0.0
144
0.0008202099737533
144
0.0
144
0.0
144
0.0
144
0.0
144
1.0
144
0.0
144
0.0
144
0.0
144
0.0
144
1.0
147
0.0008202099737533
147
0.0
147
0.0
147
0.0
147
0.0
147
0.0008202099737533
147
0.0
147
0.0
147
0.0
147
0.0
147
1.0
147
0.0
147
0.0
147
0.0
147
0.0
147
1.0
  0
MLEADERSTYLE
  5
2AC
102
{ACAD_REACTORS
330
285
102
}
330
285
100
AcDbMLeaderStyle
179
     2
170
     2
171
     1
172
     0
 90
        2
 40
0.0
 41
0.0
173
     1
 91
-1056964608
340
14
 92
       -2
290
     1
 42
0.09
291
     1
 43
0.36
  3
Standard
 44
0.18
300

342
11
174
     1
178
     6
175
     1
176
     0
 93
-1056964608
 45
0.18
292
     0
297
     0
 46
0.18
 94
-1056964608
 47
1.0
 49
1.0
140
1.0
293
     1
141
0.0
294
     1
177
     0
142
1.0
295
     1
296
     0
143
0.125
271
     0
272
     9
273
     9
298
     1
  0
MLINESTYLE
  5
18
102
{ACAD_REACTORS
330
17
102
}
330
17
100
AcDbMlineStyle
  2
STANDARD
 70
     0
  3

 62
   256
 51
90.0
 52
90.0
 71
     2
 49
0.5
 62
   256
  6
BYLAYER
 49
-0.5
 62
   256
  6
BYLAYER
  0
ACDBPLACEHOLDER
  5
F
102
{ACAD_REACTORS
330
E
102
}
330
E
  0
SCALE
  5
3E
102
{ACAD_REACTORS
330
3D
102
}
330
3D
100
AcDbScale
 70
     0
300
1:1
140
1.0
141
1.0
290
     1
  0
SCALE
  5
3F
102
{ACAD_REACTORS
330
3D
102
}
330
3D
100
AcDbScale
 70
     0
300
1:2
140
1.0
141
2.0
290
     0
  0
SCALE
  5
40
102
{ACAD_REACTORS
330
3D
102
}
330
3D
100
AcDbScale
 70
     0
300
1:4
140
1.0
141
4.0
290
     0
  0
SCALE
  5
41
102
{ACAD_REACTORS
330
3D
102
}
330
3D
100
AcDbScale
 70
     0
300
1:5
140
1.0
141
5.0
290
     0
  0
SCALE
  5
42
102
{ACAD_REACTORS
330
3D
102
}
330
3D
100
AcDbScale
 70
     0
300
1:8
140
1.0
141
8.0
290
     0
  0
SCALE
  5
43
102
{ACAD_REACTORS
330
3D
102
}
330
3D
100
AcDbScale
 70
     0
300
1:10
140
1.0
141
10.0
290
     0
  0
SCALE
  5
44
102
{ACAD_REACTORS
330
3D
102
}
330
3D
100
AcDbScale
 70
     0
300
1:16
140
1.0
141
16.0
290
     0
  0
SCALE
  5
45
102
{ACAD_REACTORS
330
3D
102
}
330
3D
100
AcDbScale
 70
     0
300
1:20
140
1.0
141
20.0
290
     0
  0
SCALE
  5
46
102
{ACAD_REACTORS
330
3D
102
}
330
3D
100
AcDbScale
 70
     0
300
1:30
140
1.0
141
30.0
290
     0
  0
SCALE
  5
47
102
{ACAD_REACTORS
330
3D
102
}
330
3D
100
AcDbScale
 70
     0
300
1:40
140
1.0
141
40.0
290
     0
  0
SCALE
  5
48
102
{ACAD_REACTORS
330
3D
102
}
330
3D
100
AcDbScale
 70
     0
300
1:50
140
1.0
141
50.0
290
     0
  0
SCALE
  5
49
102
{ACAD_REACTORS
330
3D
102
}
330
3D
100
AcDbScale
 70
     0
300
1:100
140
1.0
141
100.0
290
     0
  0
SCALE
  5
4A
102
{ACAD_REACTORS
330
3D
102
}
330
3D
100
AcDbScale
 70
     0
300
2:1
140
2.0
141
1.0
290
     0
  0
SCALE
  5
4B
102
{ACAD_REACTORS
330
3D
102
}
330
3D
100
AcDbScale
 70
     0
300
4:1
140
4.0
141
1.0
290
     0
  0
SCALE
  5
4C
102
{ACAD_REACTORS
330
3D
102
}
330
3D
100
AcDbScale
 70
     0
300
8:1
140
8.0
141
1.0
290
     0
  0
SCALE
  5
4D
102
{ACAD_REACTORS
330
3D
102
}
330
3D
100
AcDbScale
 70
     0
300
10:1
140
10.0
141
1.0
290
     0
  0
SCALE
  5
4E
102
{ACAD_REACTORS
330
3D
102
}
330
3D
100
AcDbScale
 70
     0
300
100:1
140
100.0
141
1.0
290
     0
  0
SCALE
  5
4F
102
{ACAD_REACTORS
330
3D
102
}
330
3D
100
AcDbScale
 70
     0
300
1/128" = 1'-0"
140
0.0078125
141
12.0
290
     0
  0
SCALE
  5
50
102
{ACAD_REACTORS
330
3D
102
}
330
3D
100
AcDbScale
 70
     0
300
1/64" = 1'-0"
140
0.015625
141
12.0
290
     0
  0
SCALE
  5
51
102
{ACAD_REACTORS
330
3D
102
}
330
3D
100
AcDbScale
 70
     0
300
1/32" = 1'-0"
140
0.03125
141
12.0
290
     0
  0
SCALE
  5
52
102
{ACAD_REACTORS
330
3D
102
}
330
3D
100
AcDbScale
 70
     0
300
1/16" = 1'-0"
140
0.0625
141
12.0
290
     0
  0
SCALE
  5
53
102
{ACAD_REACTORS
330
3D
102
}
330
3D
100
AcDbScale
 70
     0
300
3/32" = 1'-0"
140
0.09375
141
12.0
290
     0
  0
SCALE
  5
54
102
{ACAD_REACTORS
330
3D
102
}
330
3D
100
AcDbScale
 70
     0
300
1/8" = 1'-0"
140
0.125
141
12.0
290
     0
  0
SCALE
  5
55
102
{ACAD_REACTORS
330
3D
102
}
330
3D
100
AcDbScale
 70
     0
300
3/16" = 1'-0"
140
0.1875
141
12.0
290
     0
  0
SCALE
  5
56
102
{ACAD_REACTORS
330
3D
102
}
330
3D
100
AcDbScale
 70
     0
300
1/4" = 1'-0"
140
0.25
141
12.0
290
     0
  0
SCALE
  5
57
102
{ACAD_REACTORS
330
3D
102
}
330
3D
100
AcDbScale
 70
     0
300
3/8" = 1'-0"
140
0.375
141
12.0
290
     0
  0
SCALE
  5
58
102
{ACAD_REACTORS
330
3D
102
}
330
3D
100
AcDbScale
 70
     0
300
1/2" = 1'-0"
140
0.5
141
12.0
290
     0
  0
SCALE
  5
59
102
{ACAD_REACTORS
330
3D
102
}
330
3D
100
AcDbScale
 70
     0
300
3/4" = 1'-0"
140
0.75
141
12.0
290
     0
  0
SCALE
  5
5A
102
{ACAD_REACTORS
330
3D
102
}
330
3D
100
AcDbScale
 70
     0
300
1" = 1'-0"
140
1.0
141
12.0
290
     0
  0
SCALE
  5
5B
102
{ACAD_REACTORS
330
3D
102
}
330
3D
100
AcDbScale
 70
     0
300
1-1/2" = 1'-0"
140
1.5
141
12.0
290
     0
  0
SCALE
  5
5C
102
{ACAD_REACTORS
330
3D
102
}
330
3D
100
AcDbScale
 70
     0
300
3" = 1'-0"
140
3.0
141
12.0
290
     0
  0
SCALE
  5
5D
102
{ACAD_REACTORS
330
3D
102
}
330
3D
100
AcDbScale
 70
     0
300
6" = 1'-0"
140
6.0
141
12.0
290
     0
  0
SCALE
  5
5E
102
{ACAD_REACTORS
330
3D
102
}
330
3D
100
AcDbScale
 70
     0
300
1'-0" = 1'-0"
140
12.0
141
12.0
290
     0
  0
ACDBSECTIONVIEWSTYLE
  5
2AF
102
{ACAD_REACTORS
330
2AD
102
}
330
2AD
100
AcDbModelDocViewStyle
 70
     0
  3
Imperial24
290
     1
100
AcDbSectionViewStyle
 70
     0
 71
     0
 90
       78
 71
     1
340
11
 62
   256
 40
0.24
340
0
340
0
 62
   256
 40
0.24
300
I, O, Q, S, X, Z
 40
0.48
 90
        3
 40
0.18
 90
        1
 71
     2
340
2AE
 90
       25
 62
   256
340
16
 90
       50
 62
   256
 40
0.24
 40
0.0
 40
0.24
 71
     3
340
11
 62
   256
 40
0.24
 90
        1
 40
0.75
 90
        1
300
%<\AcVar ViewType \f "%tc1">% %<\AcVar ViewSectionStartId>%-%<\AcVar ViewSectionEndId>%\PSCALE %<\AcVar ViewScale \f "%sn">%
 71
     4
 62
   256
 62
   257
300
ANSI31
 40
1.0
 90
        0
290
     0
290
     0
 90
        6
 40
0.0
 40
1.570796326794896
 40
0.2617993877991494
 40
1.308996938995747
 40
-0.2617993877991494
 40
1.832595714594046
  0
TABLESTYLE
  5
2AB
102
{ACAD_XDICTIONARY
360
2CF
102
}
102
{ACAD_REACTORS
330
284
102
}
330
284
100
AcDbTableStyle
280
     0
  3
Standard
 70
     0
 71
     0
 40
0.06
 41
0.06
280
     0
281
     0
  7
Standard
140
0.18
170
     2
 62
     0
 63
     7
283
     0
 90
      512
 91
        0
  1

274
    -2
284
     1
 64
     0
275
    -2
285
     1
 65
     0
276
    -2
286
     1
 66
     0
277
    -2
287
     1
 67
     0
278
    -2
288
     1
 68
     0
279
    -2
289
     1
 69
     0
  7
Standard
140
0.25
170
     5
 62
     0
 63
     7
283
     0
 90
      512
 91
        0
  1

274
    -2
284
     1
 64
     0
275
    -2
285
     1
 65
     0
276
    -2
286
     1
 66
     0
277
    -2
287
     1
 67
     0
278
    -2
288
     1
 68
     0
279
    -2
289
     1
 69
     0
  7
Standard
140
0.18
170
     5
 62
     0
 63
     7
283
     0
 90
      512
 91
        0
  1

274
    -2
284
     1
 64
     0
275
    -2
285
     1
 65
     0
276
    -2
286
     1
 66
     0
277
    -2
287
     1
 67
     0
278
    -2
288
     1
 68
     0
279
    -2
289
     1
 69
     0
  0
VISUALSTYLE
  5
2F
102
{ACAD_REACTORS
330
2A
102
}
330
2A
100
AcDbVisualStyle
  2
2dWireframe
 70
     4
177
     3
291
     0
 70
    58
 90
        0
176
     1
 90
        2
176
     1
 90
        0
176
     1
 90
        0
176
     1
 40
0.6
176
     1
 40
30.0
176
     1
 62
     7
420
 16777215
176
     1
 90
        1
176
     1
 90
        4
176
     1
 62
     7
176
     1
 62
   257
176
     1
 90
        1
176
     1
 90
        1
176
     1
 40
1.0
176
     1
 90
        0
176
     1
 62
   257
176
     1
 40
1.0
176
     1
 90
        1
176
     1
 90
        6
176
     1
 90
        2
176
     1
 62
     7
176
     1
 90
        5
176
     1
 90
        0
176
     1
 90
        0
176
     1
290
     0
176
     1
 90
        1
176
     1
 40
0.0
176
     1
 90
        0
176
     1
290
     1
176
     1
290
     1
176
     1
290
     0
176
     1
290
     0
176
     1
290
     0
176
     1
290
     0
176
     1
290
     0
176
     1
290
     0
176
     1
290
     0
176
     1
 90
       50
176
     1
 40
0.0
176
     1
 40
1.0
176
     1
 90
        0
176
     1
 62
    18
420
        0
176
     1
 90
       50
176
     1
 90
        3
176
     1
 62
     5
420
      255
176
     1
290
     0
176
     1
 90
       50
176
     1
 90
       50
176
     1
 90
       50
176
     1
290
     0
176
     1
 90
       50
176
     1
 62
   256
176
     0
 40
1.0
176
     0
 90
        2
176
     1
  1
strokes_ogs.tif
176
     1
290
     0
176
     1
 40
1.0
176
     1
 40
1.0
176
     1
  0
VISUALSTYLE
  5
31
102
{ACAD_REACTORS
330
2A
102
}
330
2A
100
AcDbVisualStyle
  2
3D Hidden
 70
     6
177
     3
291
     0
 70
    58
 90
        1
176
     1
 90
        2
176
     1
 90
        2
176
     1
 90
        0
176
     1
 40
0.6
176
     1
 40
30.0
176
     1
 62
     7
420
 16777215
176
     1
 90
        2
176
     1
 90
        2
176
     1
 62
     7
176
     1
 62
   257
176
     1
 90
        2
176
     1
 90
        1
176
     1
 40
40.0
176
     1
 90
        0
176
     1
 62
   257
176
     1
 40
1.0
176
     1
 90
        1
176
     1
 90
        6
176
     1
 90
        2
176
     1
 62
     7
176
     1
 90
        3
176
     1
 90
        0
176
     1
 90
        0
176
     1
290
     0
176
     1
 90
        1
176
     1
 40
0.0
176
     1
 90
        0
176
     1
290
     0
176
     1
290
     1
176
     1
290
     1
176
     1
290
     0
176
     1
290
     0
176
     1
290
     0
176
     1
290
     0
176
     1
290
     0
176
     1
290
     0
176
     1
 90
       50
176
     1
 40
0.0
176
     1
 40
1.0
176
     1
 90
        0
176
     1
 62
    18
420
        0
176
     1
 90
       50
176
     1
 90
        3
176
     1
 62
     5
420
      255
176
     1
290
     0
176
     1
 90
       50
176
     1
 90
       50
176
     1
 90
       50
176
     1
290
     0
176
     1
 90
       50
176
     1
 62
   256
176
     0
 40
1.0
176
     0
 90
        2
176
     1
  1
strokes_ogs.tif
176
     1
290
     0
176
     1
 40
1.0
176
     1
 40
1.0
176
     1
  0
VISUALSTYLE
  5
30
102
{ACAD_REACTORS
330
2A
102
}
330
2A
100
AcDbVisualStyle
  2
3dWireframe
 70
     5
177
     3
291
     0
 70
    58
 90
        0
176
     1
 90
        2
176
     1
 90
        0
176
     1
 90
        0
176
     1
 40
0.6
176
     1
 40
30.0
176
     1
 62
     7
420
 16777215
176
     1
 90
        1
176
     1
 90
        4
176
     1
 62
     7
176
     1
 62
   257
176
     1
 90
        1
176
     1
 90
        1
176
     1
 40
1.0
176
     1
 90
        0
176
     1
 62
   257
176
     1
 40
1.0
176
     1
 90
        1
176
     1
 90
        6
176
     1
 90
        2
176
     1
 62
     7
176
     1
 90
        5
176
     1
 90
        0
176
     1
 90
        0
176
     1
290
     0
176
     1
 90
        1
176
     1
 40
0.0
176
     1
 90
        0
176
     1
290
     0
176
     1
290
     1
176
     1
290
     1
176
     1
290
     0
176
     1
290
     0
176
     1
290
     0
176
     1
290
     0
176
     1
290
     0
176
     1
290
     0
176
     1
 90
       50
176
     1
 40
0.0
176
     1
 40
1.0
176
     1
 90
        0
176
     1
 62
    18
420
        0
176
     1
 90
       50
176
     1
 90
        3
176
     1
 62
     5
420
      255
176
     1
290
     0
176
     1
 90
       50
176
     1
 90
       50
176
     1
 90
       50
176
     1
290
     0
176
     1
 90
       50
176
     1
 62
   256
176
     0
 40
1.0
176
     0
 90
        2
176
     1
  1
strokes_ogs.tif
176
     1
290
     0
176
     1
 40
1.0
176
     1
 40
1.0
176
     1
  0
VISUALSTYLE
  5
32
102
{ACAD_REACTORS
330
2A
102
}
330
2A
100
AcDbVisualStyle
  2
Basic
 70
     7
177
     3
291
     1
 70
    58
 90
        1
176
     1
 90
        0
176
     1
 90
        1
176
     1
 90
        0
176
     1
 40
0.6
176
     1
 40
30.0
176
     1
 62
     7
420
 16777215
176
     1
 90
        0
176
     1
 90
        4
176
     1
 62
     7
176
     1
 62
   257
176
     1
 90
        1
176
     1
 90
        1
176
     1
 40
1.0
176
     1
 90
        8
176
     1
 62
     7
176
     1
 40
1.0
176
     1
 90
        1
176
     1
 90
        6
176
     1
 90
        2
176
     1
 62
     7
176
     1
 90
        5
176
     1
 90
        0
176
     1
 90
        0
176
     1
290
     0
176
     1
 90
        1
176
     1
 40
0.0
176
     1
 90
        0
176
     1
290
     0
176
     1
290
     1
176
     1
290
     1
176
     1
290
     0
176
     1
290
     0
176
     1
290
     0
176
     1
290
     0
176
     1
290
     0
176
     1
290
     0
176
     1
 90
       50
176
     1
 40
0.0
176
     1
 40
1.0
176
     1
 90
        0
176
     1
 62
    18
420
        0
176
     1
 90
       50
176
     1
 90
        3
176
     1
 62
     5
420
      255
176
     1
290
     0
176
     1
 90
       50
176
     1
 90
       50
176
     1
 90
       50
176
     1
290
     0
176
     1
 90
       50
176
     1
 62
   256
176
     0
 40
1.0
176
     0
 90
        2
176
     1
  1
strokes_ogs.tif
176
     1
290
     0
176
     1
 40
1.0
176
     1
 40
1.0
176
     1
  0
VISUALSTYLE
  5
36
102
{ACAD_REACTORS
330
2A
102
}
330
2A
100
AcDbVisualStyle
  2
Brighten
 70
    12
177
     3
291
     1
 70
    58
 90
        2
176
     1
 90
        2
176
     1
 90
        0
176
     1
 90
        0
176
     1
 40
0.6
176
     1
 40
30.0
176
     1
 62
     7
420
 16777215
176
     1
 90
        1
176
     1
 90
        4
176
     1
 62
     7
176
     1
 62
   257
176
     1
 90
        1
176
     1
 90
        1
176
     1
 40
1.0
176
     1
 90
        8
176
     1
 62
     7
176
     1
 40
1.0
176
     1
 90
        1
176
     1
 90
        6
176
     1
 90
        2
176
     1
 62
     7
176
     1
 90
        5
176
     1
 90
        0
176
     1
 90
        0
176
     1
290
     0
176
     1
 90
        1
176
     1
 40
50.0
176
     1
 90
        0
176
     1
290
     0
176
     1
290
     1
176
     1
290
     1
176
     1
290
     0
176
     1
290
     0
176
     1
290
     0
176
     1
290
     0
176
     1
290
     0
176
     1
290
     0
176
     1
 90
       50
176
     1
 40
0.0
176
     1
 40
1.0
176
     1
 90
        0
176
     1
 62
    18
420
        0
176
     1
 90
       50
176
     1
 90
        3
176
     1
 62
     5
420
      255
176
     1
290
     0
176
     1
 90
       50
176
     1
 90
       50
176
     1
 90
       50
176
     1
290
     0
176
     1
 90
       50
176
     1
 62
   256
176
     0
 40
1.0
176
     0
 90
        2
176
     1
  1
strokes_ogs.tif
176
     1
290
     0
176
     1
 40
1.0
176
     1
 40
1.0
176
     1
  0
VISUALSTYLE
  5
3A
102
{ACAD_REACTORS
330
2A
102
}
330
2A
100
AcDbVisualStyle
  2
ColorChange
 70
    16
177
     3
291
     1
 70
    58
 90
        2
176
     1
 90
        2
176
     1
 90
        3
176
     1
 90
        0
176
     1
 40
0.6
176
     1
 40
30.0
176
     1
 62
     8
420
  8421504
176
     1
 90
        1
176
     1
 90
        4
176
     1
 62
     7
176
     1
 62
   257
176
     1
 90
        1
176
     1
 90
        1
176
     1
 40
1.0
176
     1
 90
        8
176
     1
 62
     8
420
  8421504
176
     1
 40
1.0
176
     1
 90
        1
176
     1
 90
        6
176
     1
 90
        2
176
     1
 62
     7
176
     1
 90
        5
176
     1
 90
        0
176
     1
 90
        0
176
     1
290
     0
176
     1
 90
        1
176
     1
 40
0.0
176
     1
 90
        0
176
     1
290
     0
176
     1
290
     1
176
     1
290
     1
176
     1
290
     0
176
     1
290
     0
176
     1
290
     0
176
     1
290
     0
176
     1
290
     0
176
     1
290
     0
176
     1
 90
       50
176
     1
 40
0.0
176
     1
 40
1.0
176
     1
 90
        0
176
     1
 62
    18
420
        0
176
     1
 90
       50
176
     1
 90
        3
176
     1
 62
     5
420
      255
176
     1
290
     0
176
     1
 90
       50
176
     1
 90
       50
176
     1
 90
       50
176
     1
290
     0
176
     1
 90
       50
176
     1
 62
   256
176
     0
 40
1.0
176
     0
 90
        2
176
     1
  1
strokes_ogs.tif
176
     1
290
     0
176
     1
 40
1.0
176
     1
 40
1.0
176
     1
  0
VISUALSTYLE
  5
34
102
{ACAD_REACTORS
330
2A
102
}
330
2A
100
AcDbVisualStyle
  2
Conceptual
 70
     9
177
     3
291
     0
 70
    58
 90
        3
176
     1
 90
        2
176
     1
 90
        0
176
     1
 90
        0
176
     1
 40
0.6
176
     1
 40
30.0
176
     1
 62
     7
420
 16777215
176
     1
 90
        2
176
     1
 90
        2
176
     1
 62
     7
176
     1
 62
   257
176
     1
 90
        1
176
     1
 90
        1
176
     1
 40
40.0
176
     1
 90
        8
176
     1
 62
     7
176
     1
 40
1.0
176
     1
 90
        1
176
     1
 90
        6
176
     1
 90
        2
176
     1
 62
     7
176
     1
 90
        3
176
     1
 90
        0
176
     1
 90
        0
176
     1
290
     0
176
     1
 90
        1
176
     1
 40
0.0
176
     1
 90
        0
176
     1
290
     0
176
     1
290
     1
176
     1
290
     1
176
     1
290
     0
176
     1
290
     0
176
     1
290
     0
176
     1
290
     0
176
     1
290
     0
176
     1
290
     0
176
     1
 90
       50
176
     1
 40
0.0
176
     1
 40
1.0
176
     1
 90
        0
176
     1
 62
    18
420
        0
176
     1
 90
       50
176
     1
 90
        3
176
     1
 62
     5
420
      255
176
     1
290
     0
176
     1
 90
       50
176
     1
 90
       50
176
     1
 90
       50
176
     1
290
     0
176
     1
 90
       50
176
     1
 62
   256
176
     0
 40
1.0
176
     0
 90
        2
176
     1
  1
strokes_ogs.tif
176
     1
290
     0
176
     1
 40
1.0
176
     1
 40
1.0
176
     1
  0
VISUALSTYLE
  5
35
102
{ACAD_REACTORS
330
2A
102
}
330
2A
100
AcDbVisualStyle
  2
Dim
 70
    11
177
     3
291
     1
 70
    58
 90
        2
176
     1
 90
        2
176
     1
 90
        0
176
     1
 90
        0
176
     1
 40
0.6
176
     1
 40
30.0
176
     1
 62
     7
420
 16777215
176
     1
 90
        1
176
     1
 90
        4
176
     1
 62
     7
176
     1
 62
   257
176
     1
 90
        1
176
     1
 90
        1
176
     1
 40
1.0
176
     1
 90
        8
176
     1
 62
     7
176
     1
 40
1.0
176
     1
 90
        1
176
     1
 90
        6
176
     1
 90
        2
176
     1
 62
     7
176
     1
 90
        5
176
     1
 90
        0
176
     1
 90
        0
176
     1
290
     0
176
     1
 90
        1
176
     1
 40
-50.0
176
     1
 90
        0
176
     1
290
     0
176
     1
290
     1
176
     1
290
     1
176
     1
290
     0
176
     1
290
     0
176
     1
290
     0
176
     1
290
     0
176
     1
290
     0
176
     1
290
     0
176
     1
 90
       50
176
     1
 40
0.0
176
     1
 40
1.0
176
     1
 90
        0
176
     1
 62
    18
420
        0
176
     1
 90
       50
176
     1
 90
        3
176
     1
 62
     5
420
      255
176
     1
290
     0
176
     1
 90
       50
176
     1
 90
       50
176
     1
 90
       50
176
     1
290
     0
176
     1
 90
       50
176
     1
 62
   256
176
     0
 40
1.0
176
     0
 90
        2
176
     1
  1
strokes_ogs.tif
176
     1
290
     0
176
     1
 40
1.0
176
     1
 40
1.0
176
     1
  0
VISUALSTYLE
  5
2A9
102
{ACAD_REACTORS
330
2A
102
}
330
2A
100
AcDbVisualStyle
  2
EdgeColorOff
 70
    22
177
     3
291
     1
 70
    58
 90
        2
176
     0
 90
        2
176
     0
 90
        0
176
     0
 90
        0
176
     0
 40
0.6
176
     0
 40
30.0
176
     0
 62
     7
420
 16777215
176
     0
 90
        1
176
     0
 90
        4
176
     0
 62
     7
176
     0
 62
   257
176
     0
 90
        1
176
     0
 90
        1
176
     0
 40
1.0
176
     0
 90
        8
176
     2
 62
     7
176
     0
 40
1.0
176
     0
 90
        1
176
     0
 90
        6
176
     0
 90
        2
176
     0
 62
     7
176
     0
 90
        5
176
     0
 90
        0
176
     0
 90
        0
176
     0
290
     0
176
     0
 90
        1
176
     0
 40
0.0
176
     0
 90
        0
176
     0
290
     0
176
     0
290
     1
176
     0
290
     1
176
     0
290
     0
176
     0
290
     0
176
     0
290
     0
176
     0
290
     0
176
     0
290
     0
176
     0
290
     0
176
     0
 90
       50
176
     0
 40
0.0
176
     0
 40
1.0
176
     0
 90
        0
176
     0
 62
    18
420
        0
176
     0
 90
       50
176
     0
 90
        3
176
     0
 62
     5
420
      255
176
     0
290
     0
176
     0
 90
       50
176
     0
 90
       50
176
     0
 90
       50
176
     0
290
     0
176
     0
 90
       50
176
     0
 62
   256
176
     0
 40
1.0
176
     0
 90
        2
176
     0
  1
strokes_ogs.tif
176
     0
290
     0
176
     0
 40
1.0
176
     0
 40
1.0
176
     0
  0
VISUALSTYLE
  5
39
102
{ACAD_REACTORS
330
2A
102
}
330
2A
100
AcDbVisualStyle
  2
Facepattern
 70
    15
177
     3
291
     1
 70
    58
 90
        2
176
     1
 90
        2
176
     1
 90
        0
176
     1
 90
        0
176
     1
 40
0.6
176
     1
 40
30.0
176
     1
 62
     7
420
 16777215
176
     1
 90
        1
176
     1
 90
        4
176
     1
 62
     7
176
     1
 62
   257
176
     1
 90
        1
176
     1
 90
        1
176
     1
 40
1.0
176
     1
 90
        8
176
     1
 62
     7
176
     1
 40
1.0
176
     1
 90
        1
176
     1
 90
        6
176
     1
 90
        2
176
     1
 62
     7
176
     1
 90
        5
176
     1
 90
        0
176
     1
 90
        0
176
     1
290
     0
176
     1
 90
        1
176
     1
 40
0.0
176
     1
 90
        0
176
     1
290
     0
176
     1
290
     1
176
     1
290
     1
176
     1
290
     0
176
     1
290
     0
176
     1
290
     0
176
     1
290
     0
176
     1
290
     0
176
     1
290
     0
176
     1
 90
       50
176
     1
 40
0.0
176
     1
 40
1.0
176
     1
 90
        0
176
     1
 62
    18
420
        0
176
     1
 90
       50
176
     1
 90
        3
176
     1
 62
     5
420
      255
176
     1
290
     0
176
     1
 90
       50
176
     1
 90
       50
176
     1
 90
       50
176
     1
290
     0
176
     1
 90
       50
176
     1
 62
   256
176
     0
 40
1.0
176
     0
 90
        2
176
     1
  1
strokes_ogs.tif
176
     1
290
     0
176
     1
 40
1.0
176
     1
 40
1.0
176
     1
  0
VISUALSTYLE
  5
2B
102
{ACAD_REACTORS
330
2A
102
}
330
2A
100
AcDbVisualStyle
  2
Flat
 70
     0
177
     3
291
     1
 70
    58
 90
        2
176
     1
 90
        1
176
     1
 90
        1
176
     1
 90
        2
176
     1
 40
0.6
176
     1
 40
30.0
176
     1
 62
     7
420
 16777215
176
     1
 90
        0
176
     1
 90
        4
176
     1
 62
     7
176
     1
 62
   257
176
     1
 90
        1
176
     1
 90
        1
176
     1
 40
1.0
176
     1
 90
        8
176
     1
 62
     7
176
     1
 40
1.0
176
     1
 90
        1
176
     1
 90
        6
176
     1
 90
        2
176
     1
 62
     7
176
     1
 90
        5
176
     1
 90
        0
176
     1
 90
        0
176
     1
290
     0
176
     1
 90
       13
176
     1
 40
0.0
176
     1
 90
        0
176
     1
290
     0
176
     1
290
     1
176
     1
290
     1
176
     1
290
     0
176
     1
290
     0
176
     1
290
     0
176
     1
290
     0
176
     1
290
     0
176
     1
290
     0
176
     1
 90
       50
176
     1
 40
0.0
176
     1
 40
1.0
176
     1
 90
        0
176
     1
 62
    18
420
        0
176
     1
 90
       50
176
     1
 90
        3
176
     1
 62
     5
420
      255
176
     1
290
     0
176
     1
 90
       50
176
     1
 90
       50
176
     1
 90
       50
176
     1
290
     0
176
     1
 90
       50
176
     1
 62
   256
176
     0
 40
1.0
176
     0
 90
        2
176
     1
  1
strokes_ogs.tif
176
     1
290
     0
176
     1
 40
1.0
176
     1
 40
1.0
176
     1
  0
VISUALSTYLE
  5
2C
102
{ACAD_REACTORS
330
2A
102
}
330
2A
100
AcDbVisualStyle
  2
FlatWithEdges
 70
     1
177
     3
291
     1
 70
    58
 90
        2
176
     1
 90
        1
176
     1
 90
        1
176
     1
 90
        2
176
     1
 40
0.6
176
     1
 40
30.0
176
     1
 62
     7
420
 16777215
176
     1
 90
        1
176
     1
 90
        4
176
     1
 62
     7
176
     1
 62
   257
176
     1
 90
        1
176
     1
 90
        1
176
     1
 40
1.0
176
     1
 90
        0
176
     1
 62
   257
176
     1
 40
1.0
176
     1
 90
        1
176
     1
 90
        6
176
     1
 90
        2
176
     1
 62
     7
176
     1
 90
        5
176
     1
 90
        0
176
     1
 90
        0
176
     1
290
     0
176
     1
 90
       13
176
     1
 40
0.0
176
     1
 90
        0
176
     1
290
     0
176
     1
290
     1
176
     1
290
     1
176
     1
290
     0
176
     1
290
     0
176
     1
290
     0
176
     1
290
     0
176
     1
290
     0
176
     1
290
     0
176
     1
 90
       50
176
     1
 40
0.0
176
     1
 40
1.0
176
     1
 90
        0
176
     1
 62
    18
420
        0
176
     1
 90
       50
176
     1
 90
        3
176
     1
 62
     5
420
      255
176
     1
290
     0
176
     1
 90
       50
176
     1
 90
       50
176
     1
 90
       50
176
     1
290
     0
176
     1
 90
       50
176
     1
 62
   256
176
     0
 40
1.0
176
     0
 90
        2
176
     1
  1
strokes_ogs.tif
176
     1
290
     0
176
     1
 40
1.0
176
     1
 40
1.0
176
     1
  0
VISUALSTYLE
  5
2D
102
{ACAD_REACTORS
330
2A
102
}
330
2A
100
AcDbVisualStyle
  2
Gouraud
 70
     2
177
     3
291
     1
 70
    58
 90
        2
176
     1
 90
        2
176
     1
 90
        1
176
     1
 90
        2
176
     1
 40
0.6
176
     1
 40
30.0
176
     1
 62
     7
420
 16777215
176
     1
 90
        0
176
     1
 90
        4
176
     1
 62
     7
176
     1
 62
   257
176
     1
 90
        1
176
     1
 90
        1
176
     1
 40
1.0
176
     1
 90
        0
176
     1
 62
     7
176
     1
 40
1.0
176
     1
 90
        1
176
     1
 90
        6
176
     1
 90
        2
176
     1
 62
     7
176
     1
 90
        5
176
     1
 90
        0
176
     1
 90
        0
176
     1
290
     0
176
     1
 90
       13
176
     1
 40
0.0
176
     1
 90
        0
176
     1
290
     0
176
     1
290
     1
176
     1
290
     1
176
     1
290
     0
176
     1
290
     0
176
     1
290
     0
176
     1
290
     0
176
     1
290
     0
176
     1
290
     0
176
     1
 90
       50
176
     1
 40
0.0
176
     1
 40
1.0
176
     1
 90
        0
176
     1
 62
    18
420
        0
176
     1
 90
       50
176
     1
 90
        3
176
     1
 62
     5
420
      255
176
     1
290
     0
176
     1
 90
       50
176
     1
 90
       50
176
     1
 90
       50
176
     1
290
     0
176
     1
 90
       50
176
     1
 62
   256
176
     0
 40
1.0
176
     0
 90
        2
176
     1
  1
strokes_ogs.tif
176
     1
290
     0
176
     1
 40
1.0
176
     1
 40
1.0
176
     1
  0
VISUALSTYLE
  5
2E
102
{ACAD_REACTORS
330
2A
102
}
330
2A
100
AcDbVisualStyle
  2
GouraudWithEdges
 70
     3
177
     3
291
     1
 70
    58
 90
        2
176
     1
 90
        2
176
     1
 90
        1
176
     1
 90
        2
176
     1
 40
0.6
176
     1
 40
30.0
176
     1
 62
     7
420
 16777215
176
     1
 90
        1
176
     1
 90
        4
176
     1
 62
     7
176
     1
 62
   257
176
     1
 90
        1
176
     1
 90
        1
176
     1
 40
1.0
176
     1
 90
        0
176
     1
 62
   257
176
     1
 40
1.0
176
     1
 90
        1
176
     1
 90
        6
176
     1
 90
        2
176
     1
 62
     7
176
     1
 90
        5
176
     1
 90
        0
176
     1
 90
        0
176
     1
290
     0
176
     1
 90
       13
176
     1
 40
0.0
176
     1
 90
        0
176
     1
290
     0
176
     1
290
     1
176
     1
290
     1
176
     1
290
     0
176
     1
290
     0
176
     1
290
     0
176
     1
290
     0
176
     1
290
     0
176
     1
290
     0
176
     1
 90
       50
176
     1
 40
0.0
176
     1
 40
1.0
176
     1
 90
        0
176
     1
 62
    18
420
        0
176
     1
 90
       50
176
     1
 90
        3
176
     1
 62
     5
420
      255
176
     1
290
     0
176
     1
 90
       50
176
     1
 90
       50
176
     1
 90
       50
176
     1
290
     0
176
     1
 90
       50
176
     1
 62
   256
176
     0
 40
1.0
176
     0
 90
        2
176
     1
  1
strokes_ogs.tif
176
     1
290
     0
176
     1
 40
1.0
176
     1
 40
1.0
176
     1
  0
VISUALSTYLE
  5
2A1
102
{ACAD_REACTORS
330
2A
102
}
330
2A
100
AcDbVisualStyle
  2
Hidden
 70
     6
177
     3
291
     0
 70
    58
 90
        1
176
     1
 90
        2
176
     1
 90
        2
176
     1
 90
        0
176
     1
 40
0.6
176
     1
 40
30.0
176
     1
 62
     7
420
 16777215
176
     1
 90
        2
176
     1
 90
        2
176
     1
 62
     7
176
     1
 62
   257
176
     1
 90
        2
176
     1
 90
        1
176
     1
 40
40.0
176
     1
 90
        0
176
     1
 62
   257
176
     1
 40
1.0
176
     1
 90
        1
176
     1
 90
        6
176
     1
 90
        2
176
     1
 62
     7
176
     1
 90
        3
176
     1
 90
        0
176
     1
 90
        0
176
     1
290
     0
176
     1
 90
        1
176
     1
 40
0.0
176
     1
 90
        0
176
     1
290
     0
176
     1
290
     1
176
     1
290
     1
176
     1
290
     0
176
     1
290
     0
176
     1
290
     0
176
     1
290
     0
176
     1
290
     0
176
     1
290
     0
176
     1
 90
       50
176
     1
 40
0.0
176
     1
 40
1.0
176
     1
 90
        0
176
     1
 62
    18
420
        0
176
     1
 90
       50
176
     1
 90
        3
176
     1
 62
     5
420
      255
176
     1
290
     0
176
     1
 90
       50
176
     1
 90
       50
176
     1
 90
       50
176
     1
290
     0
176
     1
 90
       50
176
     1
 62
   256
176
     0
 40
1.0
176
     0
 90
        2
176
     1
  1
strokes_ogs.tif
176
     1
290
     0
176
     1
 40
1.0
176
     1
 40
1.0
176
     1
  0
VISUALSTYLE
  5
2A7
102
{ACAD_REACTORS
330
2A
102
}
330
2A
100
AcDbVisualStyle
  2
JitterOff
 70
    20
177
     3
291
     1
 70
    58
 90
        2
176
     0
 90
        2
176
     0
 90
        0
176
     0
 90
        0
176
     0
 40
0.6
176
     0
 40
30.0
176
     0
 62
     7
420
 16777215
176
     0
 90
        1
176
     0
 90
        4
176
     0
 62
     7
176
     0
 62
   257
176
     0
 90
        1
176
     0
 90
        1
176
     0
 40
1.0
176
     0
 90
       10
176
     2
 62
     7
176
     0
 40
1.0
176
     0
 90
        1
176
     0
 90
        6
176
     0
 90
        2
176
     0
 62
     7
176
     0
 90
        5
176
     0
 90
        0
176
     0
 90
        0
176
     0
290
     0
176
     0
 90
        1
176
     0
 40
0.0
176
     0
 90
        0
176
     0
290
     0
176
     0
290
     1
176
     0
290
     1
176
     0
290
     0
176
     0
290
     0
176
     0
290
     0
176
     0
290
     0
176
     0
290
     0
176
     0
290
     0
176
     0
 90
       50
176
     0
 40
0.0
176
     0
 40
1.0
176
     0
 90
        0
176
     0
 62
    18
420
        0
176
     0
 90
       50
176
     0
 90
        3
176
     0
 62
     5
420
      255
176
     0
290
     0
176
     0
 90
       50
176
     0
 90
       50
176
     0
 90
       50
176
     0
290
     0
176
     0
 90
       50
176
     0
 62
   256
176
     0
 40
1.0
176
     0
 90
        2
176
     0
  1
strokes_ogs.tif
176
     0
290
     0
176
     0
 40
1.0
176
     0
 40
1.0
176
     0
  0
VISUALSTYLE
  5
38
102
{ACAD_REACTORS
330
2A
102
}
330
2A
100
AcDbVisualStyle
  2
Linepattern
 70
    14
177
     3
291
     1
 70
    58
 90
        2
176
     1
 90
        2
176
     1
 90
        0
176
     1
 90
        0
176
     1
 40
0.6
176
     1
 40
30.0
176
     1
 62
     7
420
 16777215
176
     1
 90
        1
176
     1
 90
        4
176
     1
 62
     7
176
     1
 62
   257
176
     1
 90
        7
176
     1
 90
        7
176
     1
 40
1.0
176
     1
 90
        8
176
     1
 62
     7
176
     1
 40
1.0
176
     1
 90
        1
176
     1
 90
        6
176
     1
 90
        2
176
     1
 62
     7
176
     1
 90
        5
176
     1
 90
        0
176
     1
 90
        0
176
     1
290
     0
176
     1
 90
        1
176
     1
 40
0.0
176
     1
 90
        0
176
     1
290
     0
176
     1
290
     1
176
     1
290
     1
176
     1
290
     0
176
     1
290
     0
176
     1
290
     0
176
     1
290
     0
176
     1
290
     0
176
     1
290
     0
176
     1
 90
       50
176
     1
 40
0.0
176
     1
 40
1.0
176
     1
 90
        0
176
     1
 62
    18
420
        0
176
     1
 90
       50
176
     1
 90
        3
176
     1
 62
     5
420
      255
176
     1
290
     0
176
     1
 90
       50
176
     1
 90
       50
176
     1
 90
       50
176
     1
290
     0
176
     1
 90
       50
176
     1
 62
   256
176
     0
 40
1.0
176
     0
 90
        2
176
     1
  1
strokes_ogs.tif
176
     1
290
     0
176
     1
 40
1.0
176
     1
 40
1.0
176
     1
  0
VISUALSTYLE
  5
2A8
102
{ACAD_REACTORS
330
2A
102
}
330
2A
100
AcDbVisualStyle
  2
OverhangOff
 70
    21
177
     3
291
     1
 70
    58
 90
        2
176
     0
 90
        2
176
     0
 90
        0
176
     0
 90
        0
176
     0
 40
0.6
176
     0
 40
30.0
176
     0
 62
     7
420
 16777215
176
     0
 90
        1
176
     0
 90
        4
176
     0
 62
     7
176
     0
 62
   257
176
     0
 90
        1
176
     0
 90
        1
176
     0
 40
1.0
176
     0
 90
        9
176
     2
 62
     7
176
     0
 40
1.0
176
     0
 90
        1
176
     0
 90
        6
176
     0
 90
        2
176
     0
 62
     7
176
     0
 90
        5
176
     0
 90
        0
176
     0
 90
        0
176
     0
290
     0
176
     0
 90
        1
176
     0
 40
0.0
176
     0
 90
        0
176
     0
290
     0
176
     0
290
     1
176
     0
290
     1
176
     0
290
     0
176
     0
290
     0
176
     0
290
     0
176
     0
290
     0
176
     0
290
     0
176
     0
290
     0
176
     0
 90
       50
176
     0
 40
0.0
176
     0
 40
1.0
176
     0
 90
        0
176
     0
 62
    18
420
        0
176
     0
 90
       50
176
     0
 90
        3
176
     0
 62
     5
420
      255
176
     0
290
     0
176
     0
 90
       50
176
     0
 90
       50
176
     0
 90
       50
176
     0
290
     0
176
     0
 90
       50
176
     0
 62
   256
176
     0
 40
1.0
176
     0
 90
        2
176
     0
  1
strokes_ogs.tif
176
     0
290
     0
176
     0
 40
1.0
176
     0
 40
1.0
176
     0
  0
VISUALSTYLE
  5
33
102
{ACAD_REACTORS
330
2A
102
}
330
2A
100
AcDbVisualStyle
  2
Realistic
 70
     8
177
     3
291
     0
 70
    58
 90
        2
176
     1
 90
        2
176
     1
 90
        0
176
     1
 90
        0
176
     1
 40
0.6
176
     1
 40
30.0
176
     1
 62
     7
420
 16777215
176
     1
 90
        1
176
     1
 90
        0
176
     1
 62
     7
176
     1
 62
   257
176
     1
 90
        1
176
     1
 90
        1
176
     1
 40
1.0
176
     1
 90
        8
176
     1
 62
     8
420
  7895160
176
     1
 40
1.0
176
     1
 90
        1
176
     1
 90
        6
176
     1
 90
        2
176
     1
 62
     7
176
     1
 90
        5
176
     1
 90
        0
176
     1
 90
        0
176
     1
290
     0
176
     1
 90
       13
176
     1
 40
0.0
176
     1
 90
        0
176
     1
290
     0
176
     1
290
     1
176
     1
290
     1
176
     1
290
     0
176
     1
290
     0
176
     1
290
     0
176
     1
290
     0
176
     1
290
     0
176
     1
290
     0
176
     1
 90
       50
176
     1
 40
0.0
176
     1
 40
1.0
176
     1
 90
        0
176
     1
 62
    18
420
        0
176
     1
 90
       50
176
     1
 90
        3
176
     1
 62
     5
420
      255
176
     1
290
     0
176
     1
 90
       50
176
     1
 90
       50
176
     1
 90
       50
176
     1
290
     0
176
     1
 90
       50
176
     1
 62
   256
176
     0
 40
1.0
176
     0
 90
        2
176
     1
  1
strokes_ogs.tif
176
     1
290
     0
176
     1
 40
1.0
176
     1
 40
1.0
176
     1
  0
VISUALSTYLE
  5
2A6
102
{ACAD_REACTORS
330
2A
102
}
330
2A
100
AcDbVisualStyle
  2
Shaded
 70
    27
177
     3
291
     0
 70
    58
 90
        2
176
     1
 90
        2
176
     1
 90
        1
176
     1
 90
        2
176
     1
 40
0.6
176
     1
 40
30.0
176
     1
 62
     7
420
 16777215
176
     1
 90
        0
176
     1
 90
        4
176
     1
 62
     7
176
     1
 62
   257
176
     1
 90
        1
176
     1
 90
        1
176
     1
 40
1.0
176
     1
 90
        8
176
     1
 62
   257
176
     1
 40
1.0
176
     1
 90
        1
176
     1
 90
        6
176
     1
 90
        2
176
     1
 62
     8
420
  7895160
176
     1
 90
        3
176
     1
 90
        0
176
     1
 90
        0
176
     1
290
     0
176
     1
 90
        5
176
     1
 40
0.0
176
     1
 90
        0
176
     1
290
     0
176
     1
290
     1
176
     1
290
     1
176
     1
290
     0
176
     1
290
     0
176
     1
290
     0
176
     1
290
     0
176
     1
290
     0
176
     1
290
     0
176
     1
 90
       50
176
     1
 40
0.0
176
     1
 40
1.0
176
     1
 90
        0
176
     1
 62
    18
420
        0
176
     1
 90
       50
176
     1
 90
        3
176
     1
 62
     5
420
      255
176
     1
290
     0
176
     1
 90
       50
176
     1
 90
       50
176
     1
 90
       50
176
     1
290
     0
176
     1
 90
       50
176
     1
 62
   256
176
     0
 40
1.0
176
     0
 90
        2
176
     1
  1
strokes_ogs.tif
176
     1
290
     0
176
     1
 40
1.0
176
     1
 40
1.0
176
     1
  0
VISUALSTYLE
  5
2A5
102
{ACAD_REACTORS
330
2A
102
}
330
2A
100
AcDbVisualStyle
  2
Shaded with edges
 70
    26
177
     3
291
     0
 70
    58
 90
        2
176
     1
 90
        2
176
     1
 90
        1
176
     1
 90
        2
176
     1
 40
0.6
176
     1
 40
30.0
176
     1
 62
     7
420
 16777215
176
     1
 90
        1
176
     1
 90
       10
176
     1
 62
     7
176
     1
 62
   257
176
     1
 90
        2
176
     1
 90
        1
176
     1
 40
1.0
176
     1
 90
        8
176
     1
 62
   257
176
     1
 40
1.0
176
     1
 90
        1
176
     1
 90
        6
176
     1
 90
        2
176
     1
 62
     7
176
     1
 90
        3
176
     1
 90
        0
176
     1
 90
        0
176
     1
290
     0
176
     1
 90
        5
176
     1
 40
0.0
176
     1
 90
        0
176
     1
290
     0
176
     1
290
     1
176
     1
290
     1
176
     1
290
     0
176
     1
290
     0
176
     1
290
     0
176
     1
290
     0
176
     1
290
     0
176
     1
290
     0
176
     1
 90
       50
176
     1
 40
0.0
176
     1
 40
1.0
176
     1
 90
        0
176
     1
 62
    18
420
        0
176
     1
 90
       50
176
     1
 90
        3
176
     1
 62
     5
420
      255
176
     1
290
     0
176
     1
 90
       50
176
     1
 90
       50
176
     1
 90
       50
176
     1
290
     0
176
     1
 90
       50
176
     1
 62
   256
176
     0
 40
1.0
176
     0
 90
        2
176
     1
  1
strokes_ogs.tif
176
     1
290
     0
176
     1
 40
1.0
176
     1
 40
1.0
176
     1
  0
VISUALSTYLE
  5
2A2
102
{ACAD_REACTORS
330
2A
102
}
330
2A
100
AcDbVisualStyle
  2
Shades of Gray
 70
    23
177
     3
291
     0
 70
    58
 90
        2
176
     1
 90
        2
176
     1
 90
        3
176
     1
 90
        0
176
     1
 40
0.6
176
     1
 40
30.0
176
     1
 62
     7
420
 16777215
176
     1
 90
        2
176
     1
 90
        2
176
     1
 62
     7
176
     1
 62
     7
176
     1
 90
        1
176
     1
 90
        1
176
     1
 40
40.0
176
     1
 90
        8
176
     1
 62
     7
176
     1
 40
1.0
176
     1
 90
        1
176
     1
 90
        6
176
     1
 90
        2
176
     1
 62
     7
176
     1
 90
        3
176
     1
 90
        0
176
     1
 90
        0
176
     1
290
     0
176
     1
 90
        1
176
     1
 40
0.0
176
     1
 90
        0
176
     1
290
     0
176
     1
290
     1
176
     1
290
     1
176
     1
290
     0
176
     1
290
     0
176
     1
290
     0
176
     1
290
     0
176
     1
290
     0
176
     1
290
     0
176
     1
 90
       50
176
     1
 40
0.0
176
     1
 40
1.0
176
     1
 90
        0
176
     1
 62
    18
420
        0
176
     1
 90
       50
176
     1
 90
        3
176
     1
 62
     5
420
      255
176
     1
290
     0
176
     1
 90
       50
176
     1
 90
       50
176
     1
 90
       50
176
     1
290
     0
176
     1
 90
       50
176
     1
 62
   256
176
     0
 40
1.0
176
     0
 90
        2
176
     1
  1
strokes_ogs.tif
176
     1
290
     0
176
     1
 40
1.0
176
     1
 40
1.0
176
     1
  0
VISUALSTYLE
  5
2A3
102
{ACAD_REACTORS
330
2A
102
}
330
2A
100
AcDbVisualStyle
  2
Sketchy
 70
    24
177
     3
291
     0
 70
    58
 90
        1
176
     1
 90
        2
176
     1
 90
        2
176
     1
 90
        0
176
     1
 40
0.6
176
     1
 40
30.0
176
     1
 62
     7
420
 16777215
176
     1
 90
        2
176
     1
 90
        2
176
     1
 62
     7
176
     1
 62
     7
176
     1
 90
        1
176
     1
 90
        1
176
     1
 40
40.0
176
     1
 90
       11
176
     1
 62
     7
176
     1
 40
1.0
176
     1
 90
        1
176
     1
 90
        6
176
     1
 90
        2
176
     1
 62
     7
176
     1
 90
        6
176
     1
 90
        0
176
     1
 90
        0
176
     1
290
     0
176
     1
 90
        1
176
     1
 40
0.0
176
     1
 90
        0
176
     1
290
     0
176
     1
290
     1
176
     1
290
     1
176
     1
290
     0
176
     1
290
     0
176
     1
290
     0
176
     1
290
     0
176
     1
290
     0
176
     1
290
     0
176
     1
 90
       50
176
     1
 40
0.0
176
     1
 40
1.0
176
     1
 90
        0
176
     1
 62
    18
420
        0
176
     1
 90
       50
176
     1
 90
        3
176
     1
 62
     5
420
      255
176
     1
290
     0
176
     1
 90
       50
176
     1
 90
       50
176
     1
 90
       50
176
     1
290
     0
176
     1
 90
       50
176
     1
 62
   256
176
     0
 40
1.0
176
     0
 90
        2
176
     1
  1
strokes_ogs.tif
176
     1
290
     0
176
     1
 40
1.0
176
     1
 40
1.0
176
     1
  0
VISUALSTYLE
  5
37
102
{ACAD_REACTORS
330
2A
102
}
330
2A
100
AcDbVisualStyle
  2
Thicken
 70
    13
177
     3
291
     1
 70
    58
 90
        2
176
     1
 90
        2
176
     1
 90
        0
176
     1
 90
        0
176
     1
 40
0.6
176
     1
 40
30.0
176
     1
 62
     7
420
 16777215
176
     1
 90
        1
176
     1
 90
        4
176
     1
 62
     7
176
     1
 62
   257
176
     1
 90
        1
176
     1
 90
        1
176
     1
 40
1.0
176
     1
 90
       12
176
     1
 62
     7
176
     1
 40
1.0
176
     1
 90
        1
176
     1
 90
        6
176
     1
 90
        2
176
     1
 62
     7
176
     1
 90
        5
176
     1
 90
        0
176
     1
 90
        0
176
     1
290
     0
176
     1
 90
        1
176
     1
 40
0.0
176
     1
 90
        0
176
     1
290
     0
176
     1
290
     1
176
     1
290
     1
176
     1
290
     0
176
     1
290
     0
176
     1
290
     0
176
     1
290
     0
176
     1
290
     0
176
     1
290
     0
176
     1
 90
       50
176
     1
 40
0.0
176
     1
 40
1.0
176
     1
 90
        0
176
     1
 62
    18
420
        0
176
     1
 90
       50
176
     1
 90
        3
176
     1
 62
     5
420
      255
176
     1
290
     0
176
     1
 90
       50
176
     1
 90
       50
176
     1
 90
       50
176
     1
290
     0
176
     1
 90
       50
176
     1
 62
   256
176
     0
 40
1.0
176
     0
 90
        2
176
     1
  1
strokes_ogs.tif
176
     1
290
     0
176
     1
 40
1.0
176
     1
 40
1.0
176
     1
  0
VISUALSTYLE
  5
2A0
102
{ACAD_REACTORS
330
2A
102
}
330
2A
100
AcDbVisualStyle
  2
Wireframe
 70
     5
177
     3
291
     0
 70
    58
 90
        0
176
     1
 90
        2
176
     1
 90
        0
176
     1
 90
        0
176
     1
 40
0.6
176
     1
 40
30.0
176
     1
 62
     7
420
 16777215
176
     1
 90
        1
176
     1
 90
        4
176
     1
 62
     7
176
     1
 62
   257
176
     1
 90
        1
176
     1
 90
        1
176
     1
 40
1.0
176
     1
 90
        0
176
     1
 62
   257
176
     1
 40
1.0
176
     1
 90
        1
176
     1
 90
        6
176
     1
 90
        2
176
     1
 62
     7
176
     1
 90
        3
176
     1
 90
        0
176
     1
 90
        0
176
     1
290
     0
176
     1
 90
        1
176
     1
 40
0.0
176
     1
 90
        0
176
     1
290
     0
176
     1
290
     1
176
     1
290
     1
176
     1
290
     0
176
     1
290
     0
176
     1
290
     0
176
     1
290
     0
176
     1
290
     0
176
     1
290
     0
176
     1
 90
       50
176
     1
 40
0.0
176
     1
 40
1.0
176
     1
 90
        0
176
     1
 62
    18
420
        0
176
     1
 90
       50
176
     1
 90
        3
176
     1
 62
     5
420
      255
176
     1
290
     0
176
     1
 90
       50
176
     1
 90
       50
176
     1
 90
       50
176
     1
290
     0
176
     1
 90
       50
176
     1
 62
   256
176
     0
 40
1.0
176
     0
 90
        2
176
     1
  1
strokes_ogs.tif
176
     1
290
     0
176
     1
 40
1.0
176
     1
 40
1.0
176
     1
  0
VISUALSTYLE
  5
2A4
102
{ACAD_REACTORS
330
2A
102
}
330
2A
100
AcDbVisualStyle
  2
X-Ray
 70
    25
177
     3
291
     0
 70
    58
 90
        2
176
     1
 90
        2
176
     1
 90
        1
176
     1
 90
        1
176
     1
 40
0.5
176
     1
 40
30.0
176
     1
 62
     7
420
 16777215
176
     1
 90
        1
176
     1
 90
        0
176
     1
 62
     7
176
     1
 62
   257
176
     1
 90
        1
176
     1
 90
        1
176
     1
 40
1.0
176
     1
 90
        8
176
     1
 62
     7
176
     1
 40
1.0
176
     1
 90
        1
176
     1
 90
        6
176
     1
 90
        2
176
     1
 62
     7
176
     1
 90
        3
176
     1
 90
        0
176
     1
 90
        0
176
     1
290
     0
176
     1
 90
       13
176
     1
 40
0.0
176
     1
 90
        0
176
     1
290
     0
176
     1
290
     1
176
     1
290
     1
176
     1
290
     0
176
     1
290
     0
176
     1
290
     0
176
     1
290
     0
176
     1
290
     0
176
     1
290
     0
176
     1
 90
       50
176
     1
 40
0.0
176
     1
 40
1.0
176
     1
 90
        0
176
     1
 62
    18
420
        0
176
     1
 90
       50
176
     1
 90
        3
176
     1
 62
     5
420
      255
176
     1
290
     0
176
     1
 90
       50
176
     1
 90
       50
176
     1
 90
       50
176
     1
290
     0
176
     1
 90
       50
176
     1
 62
   256
176
     0
 40
1.0
176
     0
 90
        2
176
     1
  1
strokes_ogs.tif
176
     1
290
     0
176
     1
 40
1.0
176
     1
 40
1.0
176
     1
  0
DICTIONARYVAR
  5
283
102
{ACAD_REACTORS
330
282
102
}
330
282
100
DictionaryVariables
280
     0
  1
1:1
  0
DICTIONARYVAR
  5
2C7
102
{ACAD_REACTORS
330
282
102
}
330
282
100
DictionaryVariables
280
     0
  1
STANDARD
  0
DICTIONARYVAR
  5
2C6
102
{ACAD_REACTORS
330
282
102
}
330
282
100
DictionaryVariables
280
     0
  1
STANDARD
  0
DICTIONARYVAR
  5
2C8
102
{ACAD_REACTORS
330
282
102
}
330
282
100
DictionaryVariables
280
     0
  1
Imperial24
  0
DICTIONARYVAR
  5
2C9
102
{ACAD_REACTORS
330
282
102
}
330
282
100
DictionaryVariables
280
     0
  1
Imperial24
  0
DICTIONARYVAR
  5
2CC
102
{ACAD_REACTORS
330
282
102
}
330
282
100
DictionaryVariables
280
     0
  1
1
  0
DICTIONARYVAR
  5
2CD
102
{ACAD_REACTORS
330
282
102
}
330
282
100
DictionaryVariables
280
     0
  1
15
  0
DICTIONARYVAR
  5
2CB
102
{ACAD_REACTORS
330
282
102
}
330
282
100
DictionaryVariables
280
     0
  1
0
  0
DICTIONARYVAR
  5
2CA
102
{ACAD_REACTORS
330
282
102
}
330
282
100
DictionaryVariables
280
     0
  1
0
  0
DICTIONARY
  5
291
330
290
100
AcDbDictionary
280
     1
281
     1
  3
BUMPTILE
360
293
  3
DIFFUSETILE
360
292
  3
OPACITYTILE
360
296
  3
REFLECTIONTILE
360
295
  3
REFRACTIONTILE
360
297
  3
SPECULARTILE
360
294
  0
DICTIONARY
  5
289
330
288
100
AcDbDictionary
280
     1
281
     1
  3
BUMPTILE
360
28B
  3
DIFFUSETILE
360
28A
  3
OPACITYTILE
360
28E
  3
REFLECTIONTILE
360
28D
  3
REFRACTIONTILE
360
28F
  3
SPECULARTILE
360
28C
  0
DICTIONARY
  5
299
330
298
100
AcDbDictionary
280
     1
281
     1
  3
BUMPTILE
360
29B
  3
DIFFUSETILE
360
29A
  3
OPACITYTILE
360
29E
  3
REFLECTIONTILE
360
29D
  3
REFRACTIONTILE
360
29F
  3
SPECULARTILE
360
29C
  0
DICTIONARY
  5
2CF
330
2AB
100
AcDbDictionary
280
     1
281
     1
  3
ACAD_ROUNDTRIP_2008_TABLESTYLE_CELLSTYLEMAP
360
2D0
  0
XRECORD
  5
293
102
{ACAD_REACTORS
330
291
102
}
330
291
100
AcDbXrecord
280
     1
270
     1
271
     1
  0
XRECORD
  5
292
102
{ACAD_REACTORS
330
291
102
}
330
291
100
AcDbXrecord
280
     1
270
     1
271
     1
  0
XRECORD
  5
296
102
{ACAD_REACTORS
330
291
102
}
330
291
100
AcDbXrecord
280
     1
270
     1
271
     1
  0
XRECORD
  5
295
102
{ACAD_REACTORS
330
291
102
}
330
291
100
AcDbXrecord
280
     1
270
     1
271
     1
  0
XRECORD
  5
297
102
{ACAD_REACTORS
330
291
102
}
330
291
100
AcDbXrecord
280
     1
270
     1
271
     1
  0
XRECORD
  5
294
102
{ACAD_REACTORS
330
291
102
}
330
291
100
AcDbXrecord
280
     1
270
     1
271
     1
  0
XRECORD
  5
28B
102
{ACAD_REACTORS
330
289
102
}
330
289
100
AcDbXrecord
280
     1
270
     1
271
     1
  0
XRECORD
  5
28A
102
{ACAD_REACTORS
330
289
102
}
330
289
100
AcDbXrecord
280
     1
270
     1
271
     1
  0
XRECORD
  5
28E
102
{ACAD_REACTORS
330
289
102
}
330
289
100
AcDbXrecord
280
     1
270
     1
271
     1
  0
XRECORD
  5
28D
102
{ACAD_REACTORS
330
289
102
}
330
289
100
AcDbXrecord
280
     1
270
     1
271
     1
  0
XRECORD
  5
28F
102
{ACAD_REACTORS
330
289
102
}
330
289
100
AcDbXrecord
280
     1
270
     1
271
     1
  0
XRECORD
  5
28C
102
{ACAD_REACTORS
330
289
102
}
330
289
100
AcDbXrecord
280
     1
270
     1
271
     1
  0
XRECORD
  5
29B
102
{ACAD_REACTORS
330
299
102
}
330
299
100
AcDbXrecord
280
     1
270
     1
271
     1
  0
XRECORD
  5
29A
102
{ACAD_REACTORS
330
299
102
}
330
299
100
AcDbXrecord
280
     1
270
     1
271
     1
  0
XRECORD
  5
29E
102
{ACAD_REACTORS
330
299
102
}
330
299
100
AcDbXrecord
280
     1
270
     1
271
     1
  0
XRECORD
  5
29D
102
{ACAD_REACTORS
330
299
102
}
330
299
100
AcDbXrecord
280
     1
270
     1
271
     1
  0
XRECORD
  5
29F
102
{ACAD_REACTORS
330
299
102
}
330
299
100
AcDbXrecord
280
     1
270
     1
271
     1
  0
XRECORD
  5
29C
102
{ACAD_REACTORS
330
299
102
}
330
299
100
AcDbXrecord
280
     1
270
     1
271
     1
  0
CELLSTYLEMAP
  5
2D0
102
{ACAD_REACTORS
330
2CF
102
}
330
2CF
100
AcDbCellStyleMap
 90
        3
300
CELLSTYLE
  1
TABLEFORMAT_BEGIN
 90
        5
170
     1
 91
        0
 92
    32768
 62
   257
 93
        1
300
CONTENTFORMAT
  1
CONTENTFORMAT_BEGIN
 90
        0
 91
        0
 92
      512
 93
        0
300

 40
0.0
140
1.0
 94
        5
 62
     0
340
11
144
0.25
309
CONTENTFORMAT_END
171
     0
 94
        0
309
TABLEFORMAT_END
  1
CELLSTYLE_BEGIN
 90
        1
 91
        1
300
_TITLE
309
CELLSTYLE_END
300
CELLSTYLE
  1
TABLEFORMAT_BEGIN
 90
        5
170
     1
 91
        0
 92
        0
 62
   257
 93
        1
300
CONTENTFORMAT
  1
CONTENTFORMAT_BEGIN
 90
        0
 91
        0
 92
      512
 93
        0
300

 40
0.0
140
1.0
 94
        5
 62
     0
340
11
144
0.18
309
CONTENTFORMAT_END
171
     0
 94
        0
309
TABLEFORMAT_END
  1
CELLSTYLE_BEGIN
 90
        2
 91
        1
300
_HEADER
309
CELLSTYLE_END
300
CELLSTYLE
  1
TABLEFORMAT_BEGIN
 90
        5
170
     1
 91
        0
 92
        0
 62
   257
 93
        1
300
CONTENTFORMAT
  1
CONTENTFORMAT_BEGIN
 90
        0
 91
        0
 92
      512
 93
        0
300

 40
0.0
140
1.0
 94
        2
 62
     0
340
11
144
0.18
309
CONTENTFORMAT_END
171
     0
 94
        0
309
TABLEFORMAT_END
  1
CELLSTYLE_BEGIN
 90
        3
 91
        2
300
_DATA
309
CELLSTYLE_END
  0
ENDSEC
  0
SECTION
  2
ACDSDATA
 70
     2
 71
     2
  0
ACDSSCHEMA
 90
        0
  1
AcDb_Thumbnail_Schema
  2
AcDbDs::ID
280
    10
 91
        8
  2
Thumbnail_Data
280
    15
 91
        0
101
ACDSRECORD
 95
        0
 90
        1
  2
AcDbDs::TreatedAsObjectData
280
     1
291
     1
101
ACDSRECORD
 95
        0
 90
        2
  2
AcDbDs::Legacy
280
     1
291
     1
101
ACDSRECORD
  1
AcDbDs::ID
 90
        3
  2
AcDs:Indexable
280
     1
291
     1
101
ACDSRECORD
  1
AcDbDs::ID
 90
        4
  2
AcDbDs::HandleAttribute
280
     7
282
     1
  0
ACDSSCHEMA
 90
        1
  1
AcDbDs::TreatedAsObjectDataSchema
  2
AcDbDs::TreatedAsObjectData
280
     1
 91
        0
  0
ACDSSCHEMA
 90
        2
  1
AcDbDs::LegacySchema
  2
AcDbDs::Legacy
280
     1
 91
        0
  0
ACDSSCHEMA
 90
        3
  1
AcDbDs::IndexedPropertySchema
  2
AcDs:Indexable
280
     1
 91
        0
  0
ACDSSCHEMA
 90
        4
  1
AcDbDs::HandleAttributeSchema
  2
AcDbDs::HandleAttribute
280
     7
 91
        1
284
     1
  0
ACDSRECORD
 90
        0
  2
AcDbDs::ID
280
    10
320
22
  2
Thumbnail_Data
280
    15
 94
     1164
310
89504E470D0A1A0A0000000D49484452000001000000009A0803000000712666C500000300504C54452128300000000000000000000000000000000000000000000000000000000000000000330000660000990000CC0000FF0033000033330033660033990033CC0033FF0066000066330066660066990066CC0066FF0099
310
000099330099660099990099CC0099FF00CC0000CC3300CC6600CC9900CCCC00CCFF00FF0000FF3300FF6600FF9900FFCC00FFFF3300003300333300663300993300CC3300FF3333003333333333663333993333CC3333FF3366003366333366663366993366CC3366FF3399003399333399663399993399CC3399FF33CC00
310
33CC3333CC6633CC9933CCCC33CCFF33FF0033FF3333FF6633FF9933FFCC33FFFF6600006600336600666600996600CC6600FF6633006633336633666633996633CC6633FF6666006666336666666666996666CC6666FF6699006699336699666699996699CC6699FF66CC0066CC3366CC6666CC9966CCCC66CCFF66FF0066
310
FF3366FF6666FF9966FFCC66FFFF9900009900339900669900999900CC9900FF9933009933339933669933999933CC9933FF9966009966339966669966999966CC9966FF9999009999339999669999999999CC9999FF99CC0099CC3399CC6699CC9999CCCC99CCFF99FF0099FF3399FF6699FF9999FFCC99FFFFCC0000CC00
310
33CC0066CC0099CC00CCCC00FFCC3300CC3333CC3366CC3399CC33CCCC33FFCC6600CC6633CC6666CC6699CC66CCCC66FFCC9900CC9933CC9966CC9999CC99CCCC99FFCCCC00CCCC33CCCC66CCCC99CCCCCCCCCCFFCCFF00CCFF33CCFF66CCFF99CCFFCCCCFFFFFF0000FF0033FF0066FF0099FF00CCFF00FFFF3300FF3333
310
FF3366FF3399FF33CCFF33FFFF6600FF6633FF6666FF6699FF66CCFF66FFFF9900FF9933FF9966FF9999FF99CCFF99FFFFCC00FFCC33FFCC66FFCC99FFCCCCFFCCFFFFFF00FFFF33FFFF66FFFF99FFFFCCFFFFFF0000000D0D0D1A1A1A2828283535354343435050505D5D5D6B6B6B787878868686939393A1A1A1AEAEAEBB
310
BBBBC9C9C9D6D6D6E4E4E4F1F1F1FFFFFF000000000000000000000000000000000000000000000000000000000000544354A80000014749444154789CEDDBD18E8230100550FEFF7F79DFACAEC622AD3BD850A639E70182CD98CE8DA029B82C0000000000FCCF7ADCE8A9F771BC0D01749CC540021850792902E83D98ED9B
310
A235C57603B5008A373830A39375FD1DF036902180BF5DBCF3BD00B6031902689DACFB2FCFF509688A9FC36BD9B300FACD65080108205C2100019487B9094000E10A0108A03CCC4D000208570840005FD55F8C000410AE700D104079989B000410AE108000CAC3DC04208070C54C011C78C6655B923C8025DCC1B644001DA7
310
733E013C37A18A64CF08D5BD7573A04400FDA673BE0E01E45E126B3D3FD72E693E4C09000000008CF269E9AE3632CD7ADFCB1A6EA3CF5A5DEE25EF9BD7D6F7FA9C3D807B6FEB7317FBFBFC04A78000D6ED76337E6B72E253E071115C6BB7B07EDBDFBD3A16BBC43EDEC0AA8C4CF33508000000000000000000000000005CCF
310
0FBE1978B852074E100000000049454E44AE426082
  0
ENDSEC
  0
EOF
